#TITLE:PARTY A GO GO ☆;
#SUBTITLE:;
#ARTIST:サドルシューズ;
#TITLETRANSLIT:PARTY A GO GO;
#SUBTITLETRANSLIT:;
#ARTISTTRANSLIT:SADDLE SHOES;
#CREDIT:DMAxel;
#BANNER:PARTY A GO GO.png;
#BACKGROUND:PARTY A GO GO-bg.png;
#LYRICSPATH:PARTY A GO GO.lrc;
#CDTITLE:pop'n music.png;
#MUSIC:PARTY A GO GO.mp3;
#OFFSET:-0.380;
#SAMPLESTART:82.499;
#SAMPLELENGTH:12.000;
#SELECTABLE:YES;
#BPMS:0.000=190.000;
#STOPS:;
#BGCHANGES:;

//---------------dance-single - ----------------
#NOTES:
     dance-single:
     :
     Easy:
     3:
     0.214,0.259,0.208,0.054,0.000:
0000
0000
0000
0000
,
0000
0000
0000
0000
,
0000
0000
0000
0000
,
0000
0000
0000
0000
,
0000
0000
0000
0000
,
0000
0000
0000
0000
,
0000
0000
0000
0000
,
0000
0000
0000
0000
,
0000
0000
0000
0000
,
0001
0000
1000
0000
,
0001
0000
1000
0000
,
0100
0000
0010
0000
,
0100
0000
0010
0000
,
1001
0000
0001
0000
,
1001
0000
0000
0000
,
0001
0000
1000
0000
,
1001
0000
0000
0000
,
1000
0000
0001
0000
,
1000
0000
0001
0000
,
0010
0000
0100
0000
,
0010
0000
0000
0000
,
1001
0000
1000
0000
,
1001
0000
0000
0000
,
1000
0000
0001
0000
,
1001
0000
0000
0000
,
0100
0000
0100
0000
,
0100
0110
0000
0000
,
0010
0000
0010
0000
,
0010
0110
0000
0000
,
1000
0000
1001
0000
,
0001
0000
1001
0000
,
0010
0000
0001
0000
,
0100
0000
0000
0000
,
0010
0000
0010
0000
,
0010
0110
0000
0000
,
0100
0000
0100
0000
,
0100
0110
0000
0000
,
0001
0000
1000
0000
,
0010
0000
1000
0000
,
0100
0000
0010
0000
,
1001
0000
0000
0000
,
0001
0000
1000
0000
,
0010
0000
1000
0000
,
0001
0000
1000
0000
,
0001
0000
0100
0000
,
0010
0000
0100
0000
,
0010
0000
0100
0000
,
0001
0000
0001
0000
,
1000
0000
1000
0000
,
1001
0000
0010
0000
,
1000
0000
0010
0000
,
0100
0000
0010
0000
,
0100
0000
0010
0000
,
1000
0000
0001
0000
,
1000
0000
0001
0000
,
0010
0000
0100
0000
,
1000
1001
0000
0000
,
2200
0000
0000
0000
,
3300
0000
0000
0000
,
1000
0000
0001
0000
,
1000
0000
0001
0000
,
0022
0000
0000
0000
,
0033
0000
0000
0000
,
0001
0000
1000
0000
,
0001
0000
0000
0000
,
1001
0000
0010
0000
,
1001
0000
0010
0000
,
0001
0000
0010
0000
,
0100
0000
1000
0000
,
1001
0000
0100
0000
,
1001
0000
0100
0000
,
1000
0000
0100
0000
,
0010
0000
0000
0000
,
0001
1000
0001
0000
,
1000
0010
0000
1000
,
0001
1000
0000
0001
,
0100
0000
0001
1000
,
0001
0000
0000
0000
0000
1000
0000
1001
,
0000
1000
0001
1000
,
0000
0001
0000
0001
0000
2002
0000
0000
,
0000
3003
0000
0000
,
0000
0000
0100
0001
;

//---------------dance-single - ----------------
#NOTES:
     dance-single:
     :
     Medium:
     5:
     0.355,0.407,0.254,0.154,0.000:
0000
0000
0000
0000
,
0000
0000
0000
0000
,
0000
0000
0000
0000
,
0000
0000
0000
0000
,
0000
0000
0000
0000
,
0000
0000
0000
0000
,
0000
0000
0000
0000
,
0000
0000
0000
0000
,
0000
0000
0000
0000
,
1000
0001
1000
0001
,
1000
1000
1000
0000
,
0001
1000
0001
1000
,
0001
0001
0001
0000
,
1001
0010
1001
0000
,
1001
0100
1001
0000
,
0010
0000
0001
0000
0010
0000
0001
1000
,
0000
1000
0000
1000
0000
1001
0000
0000
,
1000
0001
1000
0001
,
1000
1000
1000
0000
,
0001
0000
1000
0000
0001
0000
1000
0001
,
0000
0001
0000
1001
0000
0000
0000
0000
,
1001
0010
1001
0000
,
1001
0100
1001
0000
,
0100
0000
1000
0000
0100
0000
1000
0001
,
0000
0001
0000
0001
0000
0001
0000
0000
,
0100
0010
0100
0001
,
0010
1100
0000
0000
,
0010
0100
0010
1000
,
0100
0011
0000
0010
,
0010
0000
1000
0001
0000
0000
0000
0001
,
0100
0000
0001
1000
0000
0000
0000
0000
,
0010
0100
0010
1000
,
0100
0010
0001
1000
,
0010
0100
0010
1000
,
0100
0011
0000
0100
,
0010
0100
0001
0010
,
0100
1100
0000
0100
,
0100
0000
1000
0001
0000
0000
0000
1000
,
0010
0000
1000
0001
0000
0000
0000
0000
,
0100
0010
0100
0010
,
2000
0000
0001
3001
,
0200
0000
0001
0000
,
0320
0000
1000
0000
,
0230
0000
0001
0000
,
0320
0000
1000
0000
,
0230
0000
0001
0000
,
0320
0000
1000
0000
,
0130
0010
0100
0010
,
1000
0001
1000
0001
,
0200
0000
0001
0000
,
0320
0000
1000
0000
,
0230
0000
0001
0000
,
0320
0000
1000
0000
,
0230
0000
0001
0000
,
0320
0000
1000
0000
,
0130
0010
0100
0001
,
1000
1001
0000
0000
,
1010
0000
0000
0000
,
0000
0010
0001
0010
,
0002
0000
0000
0000
,
0000
1003
0100
1000
,
0020
0000
0000
0100
,
0000
0000
0030
0000
,
0100
0000
0010
0000
0100
0000
0001
1000
,
0000
1000
0000
0001
0000
0001
0000
0000
,
0100
0001
0010
0001
,
0100
0010
0100
0010
,
1000
0010
0100
0010
,
1000
0010
1000
0100
,
1001
0100
1001
0000
,
1001
0010
1001
0000
,
0010
0000
0001
0000
0100
0000
0010
1000
,
0000
1000
0000
1000
0000
1001
0000
0000
,
0001
0000
1000
0000
0010
0000
0100
0010
,
0000
1000
0000
1001
0000
0000
1000
0000
,
0001
0000
0100
0000
0010
0100
0000
0001
,
0000
1001
0000
0000
0001
0000
1000
0000
,
0010
0000
0100
0010
0000
1001
0000
1001
,
0000
0000
1000
0000
0010
0100
0010
0000
,
1000
0001
0000
0011
0000
2020
0000
0000
,
0000
3030
0000
0000
,
0000
0000
1001
0010
;

//---------------dance-single - ----------------
#NOTES:
     dance-single:
     :
     Hard:
     7:
     0.519,0.519,0.553,0.181,0.000:
0000
0000
0000
0000
,
0000
0000
0000
0000
,
0000
0000
0000
0000
,
0000
0000
0000
0000
,
0000
0000
0000
0000
,
0000
0000
0000
0000
,
0000
0000
0000
0000
,
0000
0000
0000
0000
,
0000
0000
0000
0000
,
0100
0000
0100
0010
0100
0000
0100
0001
,
0000
1000
0000
0002
0000
0000
1003
0000
,
0010
0000
0010
0100
0010
0000
0010
1000
,
0000
0001
0000
1000
0000
0000
0001
0010
,
2000
0000
0100
0000
,
3002
0000
0010
0000
,
1003
0010
1000
0010
0000
1000
0100
0001
,
0000
0011
0000
0011
0000
1001
0000
0000
,
0010
0000
0010
0100
0010
0000
0010
1000
,
0000
0001
0000
2000
0000
0000
3001
0000
,
0100
0000
0100
0010
0100
0000
0100
0001
,
0000
1001
0000
1001
0000
0000
1000
0100
,
0002
0000
0100
0000
,
2003
0000
0010
0000
,
3001
0100
0001
0100
0000
0001
0010
1000
,
0000
1100
0000
1100
0000
1001
0000
0000
,
1001
0000
1000
0010
0000
0010
1000
0000
,
0100
0010
0011
0000
0010
0000
0010
0000
,
1001
0000
0001
0100
0000
0100
0001
0000
,
0010
0100
1100
0000
0000
0000
0100
0000
,
1001
0000
1000
0001
0000
0100
0010
0100
,
0001
0000
0001
1000
0000
0010
0100
0010
,
1000
0100
1000
0001
0000
0000
0001
0010
,
0100
1100
0101
0110
,
1001
0000
0001
0010
0000
0010
0001
0000
,
0100
0010
1010
0000
0010
0000
0010
0000
,
1001
0000
1000
0100
0000
0100
1000
0000
,
0010
0100
0101
0000
0000
0000
0100
0000
,
1001
0000
0001
1000
0000
0010
0100
0010
,
1000
0000
1000
0001
0000
0100
0010
0100
,
0001
0010
0001
1000
0000
0000
1000
0100
,
0010
0011
1010
0110
,
1002
0010
0010
0003
,
2001
0100
0100
3000
,
1010
1010
0101
0101
,
0100
0001
0010
0100
0000
0000
1000
0000
,
1002
0000
0000
0100
0000
0000
2003
0000
,
0000
0000
0000
3010
,
0110
0000
0010
1000
0000
1000
0100
0010
,
0001
0000
0100
0001
0000
0001
0010
0100
,
2000
0010
0010
3000
,
1002
0100
0100
0003
,
0101
0101
1010
1010
,
1000
0100
0010
0001
0000
0000
1000
0000
,
2001
0000
0000
0100
0000
0000
0010
0000
,
0000
0002
0000
0000
0000
0000
3003
0000
,
0001
0010
0001
0010
0001
1000
0100
0010
,
0100
1001
0000
0010
,
0011
0100
1000
0010
,
1000
0000
0010
0000
1000
0100
0001
0000
,
0100
0000
0001
0010
1000
0000
0010
0000
,
0100
0000
0010
0000
1000
0010
0001
0000
,
0100
0000
0010
0000
0100
0000
0001
0100
,
1000
0001
1000
0010
,
1000
0100
1000
0100
1000
0000
0001
1000
,
0000
1010
0000
1010
0000
1001
0000
0000
,
1001
0000
1000
0010
1000
0010
1000
0001
,
0000
0100
0000
0002
0000
0000
1003
0000
,
1001
0000
0001
0100
0001
0100
0001
1000
,
0000
0010
0000
2000
0000
0000
3001
0010
,
2000
0000
0010
0000
,
3002
0000
0100
0000
,
0103
0010
0100
0001
0000
1000
0100
0001
,
0000
0011
0000
0011
0000
1001
0000
0000
,
1001
0000
1000
0010
0100
0010
0000
1010
,
0000
0011
0000
1001
0000
1000
0001
0000
,
0001
0100
0010
0100
0000
0101
0000
1100
,
0000
1001
0000
0001
1000
0000
1000
0100
,
0010
0100
0000
0110
0000
1001
0000
1001
,
0000
1000
0001
0100
0010
0100
0000
0001
,
0100
1000
0000
1010
0000
0022
0000
0000
,
0000
0033
0000
0000
,
0000
0000
1001
0100
;

//---------------dance-single - ----------------
#NOTES:
     dance-single:
     :
     Challenge:
     8:
     0.606,0.593,0.752,0.091,0.000: // measure 1
0000
0000
0000
0000
,  // measure 2
0000
0000
0000
0000
,  // measure 3
0000
0000
0000
0000
,  // measure 4
0000
0000
0000
0000
,  // measure 5
0000
0000
0000
0000
,  // measure 6
0000
0000
0000
0000
,  // measure 7
0000
0000
0000
0000
,  // measure 8
0000
0000
0000
0000
,  // measure 9
0000
0000
0000
0000
,  // measure 10
0001
0100
0010
1000
0000
1010
0000
0011
,  // measure 11
0000
0010
0001
1000
0000
1000
0001
0000
,  // measure 12
1000
0010
0100
0001
0000
0101
0000
1100
,  // measure 13
0000
0100
1000
0002
0000
0000
1003
0100
,  // measure 14
0010
0000
0011
0000
1010
0000
0001
0010
,  // measure 15
0100
1100
0101
0000
,  // measure 16
0001
0010
0100
1000
0000
1000
0010
0100
,  // measure 17
0000
0101
0000
0101
0000
1001
0000
0000
,  // measure 18
1000
0100
0010
0001
0000
0011
0000
1010
,  // measure 19
0000
0010
1000
0001
0000
0001
1000
0000
,  // measure 20
0001
0010
0100
1000
0000
1100
0000
0101
,  // measure 21
0000
0101
0000
1001
0000
0000
0001
0010
,  // measure 22
0100
0000
1100
0000
0101
0000
1000
0100
,  // measure 23
0010
0011
1010
0000
,  // measure 24
1000
0100
0010
0001
0000
0001
0100
0010
,  // measure 25
0000
1010
0000
0011
0000
1001
0000
0000
,  // measure 26
1000
0100
1000
0010
0000
1000
0010
0000
,  // measure 27
0010
0000
1001
1000
0010
0100
0010
0100
,  // measure 28
0001
0000
0001
0100
0000
0001
0100
0000
,  // measure 29
0100
0000
1001
1001
0000
0000
0010
1000
,  // measure 30
0010
0000
1001
1001
0000
1000
0100
0001
,  // measure 31
0100
0000
1001
1001
0000
0001
0010
1000
,  // measure 32
0010
0100
0001
2000
0000
0000
3001
0010
,  // measure 33
0100
1100
0110
0011
,  // measure 34
1001
0000
1000
0010
0000
0010
1000
0001
,  // measure 35
0010
0000
1001
0001
0100
0010
0100
0010
,  // measure 36
1000
0000
0001
0010
0000
0010
0001
1000
,  // measure 37
0100
0000
1001
1001
0000
0000
0100
0001
,  // measure 38
0100
0000
1001
1001
0000
0001
0010
1000
,  // measure 39
0010
0000
1001
1001
0000
1000
0010
0100
,  // measure 40
0010
0100
0010
1000
0000
1000
0100
0010
,  // measure 41
0001
1000
0001
1000
0001
1000
0001
0000
,  // measure 42
0101
0000
0100
0001
1000
0000
1000
0000
,  // measure 43
1010
0000
0010
1000
0001
0000
0001
0010
,  // measure 44
0100
1000
0100
0010
,  // measure 45
0001
0010
0100
1000
0000
1000
0001
0000
,  // measure 46
1002
0000
0000
0100
0000
0000
2000
0000
,  // measure 47
0000
0000
0000
0000
3003
0000
1000
0100
,  // measure 48
0010
0000
0001
0100
0000
0001
0100
0010
,  // measure 49
1000
0000
0010
1000
0000
1000
0100
0010
,  // measure 50
0001
0000
0010
0000
0001
0000
0010
0100
,  // measure 51
1000
0000
0010
0000
1000
0000
0010
0100
,  // measure 52
0001
0000
0100
0000
0001
0000
1000
0001
,  // measure 53
1000
0000
0010
1000
0000
1000
0001
0000
,  // measure 54
2001
0000
0000
0100
0000
0000
0010
0000
,  // measure 55
0000
0002
0000
0000
0000
0000
3003
0000
,  // measure 56
1000
0010
0100
0001
1000
0001
1000
0001
,  // measure 57
0010
0000
0110
0110
0000
0000
0100
0000
,  // measure 58
1001
0000
0001
0100
0001
0000
1000
0100
,  // measure 59
1000
0000
0100
0010
0001
0010
2000
0000
,  // measure 60
0010
0000
3010
0100
0001
0000
1000
0010
,  // measure 61
1000
0000
0100
0010
0001
0100
2000
0000
,  // measure 62
0010
0000
3010
0100
0001
0000
0010
0100
,  // measure 63
1000
0000
0001
0010
0001
0000
1000
0000
,  // measure 64
1000
0010
0100
0001
1000
0001
1000
1100
,  // measure 65
0000
1100
0000
0100
0001
1000
1000
0000
,  // measure 66
1000
0001
1000
0100
0000
1100
0000
0101
,  // measure 67
0000
0100
0001
1000
0000
0001
1000
0000
,  // measure 68
0001
1000
0001
0010
0000
0011
0000
1010
,  // measure 69
0000
0010
1000
0001
0000
1000
0001
0010
,  // measure 70
0100
0000
1010
0000
0011
0000
1000
0100
,  // measure 71
0010
0101
1100
0000
,  // measure 72
1000
0100
1000
0001
0000
0010
0100
1100
,  // measure 73
0000
1100
0000
0101
0000
1001
0000
0000
,  // measure 74
0010
0100
1000
1010
0000
1010
0000
0110
,  // measure 75
0000
0101
0000
1001
0000
0100
0010
0001
,  // measure 76
0100
0101
0000
0101
0000
0110
0000
1010
,  // measure 77
0000
1001
0000
0010
0100
1000
0010
1010
,  // measure 78
0000
1010
0000
0011
0000
1001
0000
1001
,  // measure 79
0000
0100
0010
0001
0100
0010
0000
1000
,  // measure 80
0010
1010
0000
1100
0000
0202
0000
0000
,  // measure 81
0000
0303
0000
0000
,  // measure 82
0000
0000
0110
1001
;

//---------------dance-single - ----------------
#NOTES:
     dance-single:
     :
     Beginner:
     1:
     0.056,0.111,0.027,0.000,0.000:
0000
0000
0000
0000
,
0000
0000
0000
0000
,
0000
0000
0000
0000
,
0000
0000
0000
0000
,
0000
0000
0000
0000
,
0000
0000
0000
0000
,
0000
0000
0000
0000
,
0000
0000
0000
0000
,
0000
0000
0000
0000
,
1000
0000
0000
0000
,
0000
0000
0000
0000
,
0001
0000
0000
0000
,
0000
0000
0000
0000
,
1000
0000
0000
0000
,
0000
0000
0000
0000
,
1000
0000
0000
0000
,
0000
0000
0000
0000
,
0001
0000
0000
0000
,
0000
0000
0000
0000
,
0001
0000
0000
0000
,
0000
0000
0000
0000
,
1000
0000
0000
0000
,
0000
0000
0000
0000
,
1000
0000
0000
0000
,
0000
0000
0000
0000
,
0010
0000
0000
0000
,
0000
0000
0000
0000
,
0100
0000
0000
0000
,
0000
0000
0000
0000
,
0010
0000
0000
0000
,
0000
0000
0000
0000
,
0010
0000
0000
0000
,
0000
0000
0000
0000
,
0100
0000
0000
0000
,
0000
0000
0000
0000
,
0010
0000
0000
0000
,
0000
0000
0000
0000
,
0100
0000
0000
0000
,
0100
0000
0000
0000
,
0001
0000
0000
0000
,
0001
0000
0000
0000
,
1001
0000
0000
0000
,
0000
0000
0000
0000
,
0001
0000
0000
0000
,
0000
0000
0000
0000
,
1000
0000
0000
0000
,
0000
0000
0000
0000
,
1000
0000
0000
0000
,
0000
0000
0000
0000
,
1001
0000
0000
0000
,
0000
0000
0000
0000
,
1000
0000
0000
0000
,
0000
0000
0000
0000
,
0001
0000
0000
0000
,
0000
0000
0000
0000
,
0001
0000
0000
0000
,
0000
0000
0000
0000
,
0001
0000
0000
0000
,
0000
0000
0000
0000
,
1000
0000
0000
0000
,
0000
0000
0000
0000
,
0001
0000
0000
0000
,
0000
0000
0000
0000
,
0001
0000
0000
0000
,
0000
0000
0000
0000
,
1000
0000
0000
0000
,
0000
0000
0000
0000
,
0001
0000
0000
0000
,
0000
0000
0000
0000
,
1000
0000
0000
0000
,
1000
0000
0000
0000
,
0000
0000
0000
0000
,
0000
0000
0000
0000
,
0001
0000
0000
0000
,
0000
0000
0000
1000
,
0000
0000
0000
0000
,
0000
0000
0001
0000
,
0000
0000
0000
0000
,
0000
1000
0000
0000
,
0000
1001
0000
0000
0000
0000
0000
0000
,
0000
0000
0000
0000
,
0000
0000
0000
0001
;
