#TITLE:PARIS;
#SUBTITLE:;
#ARTIST:SHINICHI OSAWA;
#TITLETRANSLIT:;
#SUBTITLETRANSLIT:;
#ARTISTTRANSLIT:;
#CREDIT:DMAxel & Ebisu;
#BANNER:PARIS.png;
#BACKGROUND:PARIS-bg.png;
#LYRICSPATH:;
#CDTITLE:DMAxel original simfile.png;
#MUSIC:PARIS.mp3;
#OFFSET:-9.100;
#SAMPLESTART:96.360;
#SAMPLELENGTH:12.000;
#SELECTABLE:YES;
#BPMS:0.000=110.000;
#STOPS:;
#BGCHANGES:;

//---------------dance-single - DMAxel----------------
#NOTES:
     dance-single:
     DMAxel:
     Easy:
     2:
     0.207,0.188,0.008,0.262,0.000: // measure 1
2000
0000
0000
0000
,  // measure 2
3002
0000
0000
0000
,  // measure 3
2003
0000
0000
0000
,  // measure 4
3002
0000
0000
0000
,  // measure 5
0103
0010
0200
0000
,  // measure 6
0301
1000
0002
0000
,  // measure 7
1003
0000
0010
0000
,  // measure 8
1000
0000
0001
0000
,  // measure 9
0100
0010
0200
0000
,  // measure 10
0301
1000
0002
0000
,  // measure 11
1003
0000
0100
0000
,  // measure 12
1000
0000
0001
0000
,  // measure 13
0010
0100
0020
0000
,  // measure 14
0031
1000
0001
1000
,  // measure 15
0001
0010
0100
1000
,  // measure 16
0010
0100
0020
0000
,  // measure 17
1030
0100
0010
0001
,  // measure 18
0100
0010
0100
0010
,  // measure 19
1000
0001
0200
0000
,  // measure 20
0301
1000
0001
1000
,  // measure 21
0020
0000
0000
0000
,  // measure 22
0230
0000
0000
0000
,  // measure 23
0320
0000
0000
0000
,  // measure 24
2030
0000
3002
0000
,  // measure 25
2003
0000
0000
0000
,  // measure 26
3020
0000
0230
0000
,  // measure 27
0320
0000
0230
0000
,  // measure 28
0301
0010
0000
0010
,  // measure 29
0001
1000
0200
0000
,  // measure 30
1300
0001
0020
0000
,  // measure 31
0031
0010
0200
0000
,  // measure 32
1300
0100
0020
0000
,  // measure 33
0031
1000
0020
0000
,  // measure 34
0130
0001
2000
0000
,  // measure 35
3010
0100
0002
0000
,  // measure 36
0013
0100
2000
0000
,  // measure 37
3010
0100
0002
0000
,  // measure 38
0103
0010
1000
0100
,  // measure 39
1000
0100
0020
0000
,  // measure 40
0031
1000
0000
1000
,  // measure 41
0001
0100
0001
1000
,  // measure 42
0100
1000
0100
1000
,  // measure 43
0100
0010
0100
0010
,  // measure 44
0001
0010
0001
0010
,  // measure 45
0100
0010
0100
0010
,  // measure 46
0100
1000
0100
1000
,  // measure 47
0001
0100
0001
0100
,  // measure 48
0010
1000
0010
1000
,  // measure 49
0001
0010
0001
0010
,  // measure 50
0100
0010
0100
0010
,  // measure 51
0100
1000
0100
1000
,  // measure 52
0010
1000
0010
1000
,  // measure 53
0002
0000
0000
0000
,  // measure 54
0003
2002
0000
0000
,  // measure 55
0000
3003
0000
0000
;

//---------------dance-single - DMAxel----------------
#NOTES:
     dance-single:
     DMAxel:
     Medium:
     5:
     0.328,0.317,0.000,0.146,0.019: // measure 1
0001
0001
0001
0001
,  // measure 2
1000
1000
1000
1000
,  // measure 3
0001
0001
0001
0001
,  // measure 4
1000
1000
1000
1000
,  // measure 5
0010
1000
0010
0000
2000
0000
3001
0000
,  // measure 6
0100
0001
0100
0000
0002
0000
1003
0000
,  // measure 7
0100
0001
0100
1000
,  // measure 8
0100
1000
0100
0000
2000
0000
3001
0000
,  // measure 9
0010
0001
0010
0000
0002
0000
1003
0000
,  // measure 10
0001
0100
1000
0100
,  // measure 11
0001
0100
0010
1000
,  // measure 12
0100
0001
0100
1000
,  // measure 13
0010
1000
0100
0000
0010
0000
0001
0000
,  // measure 14
0100
0001
0010
0000
0100
0000
1000
0000
,  // measure 15
0100
1000
0100
0000
0010
0001
0010
0000
,  // measure 16
0100
1000
0001
0000
1000
0000
1000
0000
,  // measure 17
0100
1000
0010
0000
0100
0000
0001
0000
,  // measure 18
0010
0001
0100
0000
0010
0000
1000
0000
,  // measure 19
0010
1000
0010
0000
0100
0001
0100
0000
,  // measure 20
0010
1000
0001
0000
0010
0000
0100
0000
,  // measure 21
2000
0001
0001
3001
,  // measure 22
0010
0100
0010
0000
0100
0010
0100
0000
,  // measure 23
0002
1000
1000
1003
,  // measure 24
0100
0010
0100
0000
0010
0100
0010
0000
,  // measure 25
2000
0001
0001
3001
,  // measure 26
0100
0001
0100
0000
0010
1000
0010
0000
,  // measure 27
0100
0001
0100
0000
0010
1000
0010
0000
,  // measure 28
1000
0001
0000
0001
,  // measure 29
1000
0000
0100
0000
0001
0200
0000
0000
,  // measure 30
1300
0001
1000
0001
1000
0000
1000
0000
,  // measure 31
0001
0000
0100
0000
1000
0200
0000
0000
,  // measure 32
0301
1000
0001
1000
0001
0000
0001
0000
,  // measure 33
1000
0000
0100
0000
0001
0200
0000
0000
,  // measure 34
1300
0000
1000
0001
1000
0000
0010
0100
,  // measure 35
0010
0000
1000
0000
0100
0002
0000
0000
,  // measure 36
0103
0000
1000
0001
1000
0000
0010
0100
,  // measure 37
0010
0000
1000
0000
0100
0002
0000
0000
,  // measure 38
0103
0000
1000
0001
1000
0000
0100
0010
,  // measure 39
0100
0000
1000
0000
0100
0002
0000
0000
,  // measure 40
0103
1000
0000
0001
,  // measure 41
1000
0100
0010
0100
1000
0002
0000
0000
,  // measure 42
0103
0001
1000
0100
1000
0000
1000
0000
,  // measure 43
0001
0010
0100
0010
0001
2000
0000
0000
,  // measure 44
3010
1000
0001
0010
0001
0000
0001
0000
,  // measure 45
1000
0100
0010
0100
1000
0002
0000
0000
,  // measure 46
0103
0001
1000
0100
1000
0000
1000
0000
,  // measure 47
0001
0010
0100
0010
0001
2000
0000
0000
,  // measure 48
3010
1000
0001
0010
0001
0000
0001
0000
,  // measure 49
1000
0100
0001
0100
0000
1000
0100
0001
,  // measure 50
0100
1000
0010
0100
0000
0010
0100
0001
,  // measure 51
0010
0100
1000
0010
0000
0100
0001
1000
,  // measure 52
0100
0010
0001
1000
0000
0001
1000
0100
,  // measure 53
0020
0000
0000
0001
0000
0001
0000
0000
0000
0000
0000
0001
0000
0031
0000
0000
,  // measure 54
0000
0000
0001
0010
0100
1000
0001
0010
,  // measure 55
0000
0001
2000
0000
0000
0000
0000
0000
0000
0000
0000
0000
0000
0000
3000
0000
;

//---------------dance-single - DMAxel----------------
#NOTES:
     dance-single:
     DMAxel:
     Hard:
     8:
     0.493,0.529,0.000,0.100,0.817: // measure 1
1000
0100
0001
0100
,  // measure 2
1000
0010
0001
0010
,  // measure 3
1000
0100
0001
0100
,  // measure 4
1000
0010
0001
0010
,  // measure 5
1000
0010
0100
0100
0002
0000
1003
0000
,  // measure 6
0001
0100
0010
0010
1000
0001
0001
0000
,  // measure 7
0200
0000
0301
0000
0100
0001
1000
0000
,  // measure 8
0001
0010
0100
0000
1000
0001
0001
0000
,  // measure 9
1000
0100
0010
0000
0002
0000
1003
0000
,  // measure 10
0010
1000
0100
0000
0010
0001
0100
0000
,  // measure 11
0020
0000
1000
0000
0130
0001
1000
0000
,  // measure 12
0020
0000
1000
0000
0130
0001
1000
0000
,  // measure 13
0001
0000
0100
0000
0010
0000
1000
0000
0100
0000
0010
0100
0000
1000
0000
1000
,  // measure 14
0001
0000
0100
0000
0010
0000
1000
0000
0100
0000
0010
0100
0000
1000
0000
1000
,  // measure 15
0001
0000
0100
0000
0010
0000
0100
0000
0001
0000
1000
0100
1000
0000
0001
0000
,  // measure 16
0001
0000
0100
0000
0010
0000
1000
0000
0100
0000
0010
0100
0000
1000
0000
1000
,  // measure 17
0001
0000
0100
0000
0010
0000
1000
0000
0100
0000
0010
0100
0000
1000
0000
1000
,  // measure 18
0100
0000
0010
0000
0001
0000
1000
0000
0010
0000
0100
0001
0000
0001
0000
1000
,  // measure 19
0001
1000
0000
0100
0000
0010
0000
0001
0000
0000
0100
0001
0000
0001
0000
1000
,  // measure 20
0001
1000
0000
0100
0000
0010
0001
0010
0000
0100
1000
0100
0000
1000
0001
1000
,  // measure 21
0002
0100
1000
0103
,  // measure 22
1000
0100
0010
0001
0010
0100
0010
0001
,  // measure 23
2000
0100
0001
3100
,  // measure 24
0001
0010
0100
1000
0100
0010
0100
1000
,  // measure 25
0002
0100
1000
0103
,  // measure 26
1000
0100
0010
0000
0001
0010
0100
1000
,  // measure 27
0100
0000
0001
0100
1000
0100
0010
0001
,  // measure 28
1000
0100
1000
0000
0000
0000
1000
0000
,  // measure 29
0001
0100
0000
0010
0000
0010
0000
1000
0000
0000
0010
0100
0000
0001
0000
0001
,  // measure 30
0000
1000
0000
0010
0000
0100
0001
0100
0000
0010
0100
0010
0000
1000
0001
1000
,  // measure 31
0000
0010
0000
0100
0000
0100
0000
0001
0000
0000
0100
0010
0000
1000
0000
1000
,  // measure 32
0000
0001
0000
0010
0000
0100
0000
2000
0000
0000
0000
0001
0000
3001
0000
0000
,  // measure 33
1000
0010
0000
0100
0000
0100
0000
0001
0000
0000
0100
0010
0000
1000
0000
1000
,  // measure 34
0000
0001
0000
0010
0000
0100
1000
0100
0000
1000
0001
1000
0000
0001
0010
0001
,  // measure 35
0000
1000
0000
0010
0000
0010
0000
0100
0000
0000
0001
1000
0000
0010
0000
1000
,  // measure 36
0000
0001
0000
0010
0000
0100
1000
0200
0000
0000
0000
0010
0000
0310
0000
0000
,  // measure 37
0001
0100
0000
0010
0000
1000
0000
1000
0000
0000
0100
0010
0000
0001
0000
1000
,  // measure 38
0010
1000
0000
0001
0000
0001
0100
0001
0000
0100
0010
0100
0000
0010
1000
0010
,  // measure 39
0000
0100
0000
0001
0000
1000
0000
1000
0000
0000
0010
0100
0000
0001
0000
1000
,  // measure 40
0100
1000
0000
0001
0000
0010
0000
0100
0000
0000
0000
1000
0001
1000
0000
0000
,  // measure 41
0001
0100
0000
1000
0000
0100
0000
0001
0000
0000
0100
0001
0000
1000
0000
0100
,  // measure 42
1000
0100
0000
1000
0000
0001
0010
0100
0000
0010
0100
1000
0000
0001
0100
0001
,  // measure 43
1000
0100
0000
0001
0000
0100
0000
1000
0000
0000
0100
1000
0000
0001
0000
0100
,  // measure 44
0001
0100
0000
0001
0000
1000
0100
0010
0000
0000
0001
1000
0000
1000
0000
0000
,  // measure 45
0010
1000
0000
0001
0000
0010
0100
0010
0000
0000
0001
1000
0000
0010
0000
1000
,  // measure 46
0001
1000
0000
0100
0000
0010
0001
0100
0000
0010
1000
0100
0000
1000
0001
1000
,  // measure 47
0010
1000
0000
0001
0000
0010
0100
0010
0000
0000
0001
1000
0000
0100
0000
0010
,  // measure 48
0001
0010
0000
0001
0000
1000
0010
0100
0000
0000
0001
1000
0000
1000
0000
0000
,  // measure 49
0001
1000
0100
1000
0000
0100
1000
0010
0000
0000
0100
0001
0000
1000
0000
1000
,  // measure 50
0010
0100
0001
0100
0000
0001
0010
0100
0000
1000
0100
0010
0000
0001
0100
0010
,  // measure 51
1000
0001
0010
0001
0000
0010
0001
1000
0000
0000
0010
1000
0000
0001
0000
0001
,  // measure 52
0100
0010
1000
0010
0000
1000
0100
0010
0000
0001
0010
0100
0000
1000
0010
0100
,  // measure 53
0002
0000
0000
0100
0000
0100
0000
0000
0000
0000
0000
1000
0000
1003
0000
0000
,  // measure 54
0000
0000
0000
0000
1000
0100
0010
0100
1000
0001
0010
0100
0010
0001
0010
0100
,  // measure 55
0000
2000
0002
0000
0000
0000
0000
0000
0000
0000
0000
0000
0000
0000
3003
0000
;

//---------------dance-single - Ebisu----------------
#NOTES:
     dance-single:
     Ebisu:
     Challenge:
     9:
     0.713,0.571,0.046,0.031,1.000: // measure 1
1000
0000
0100
1000
0000
0100
1000
0100
0000
0100
1000
0000
0100
1000
0000
1000
,  // measure 2
0001
0000
1000
0001
0000
1000
0001
1000
0000
0001
1000
0000
0001
0100
0000
0100
,  // measure 3
1000
0000
0010
1000
0000
0010
1000
0010
0000
0010
1000
0000
1000
0010
0000
0100
,  // measure 4
0010
0000
0100
0010
0000
0100
0010
1000
0000
1000
0001
0000
0010
0001
0000
0010
,  // measure 5
0001
1000
0010
1000
0010
0000
1000
0000
0010
1000
0010
0000
0100
0001
1000
0000
,  // measure 6
0100
1000
0100
0010
0001
0000
0001
0000
0100
0001
0100
0000
0010
1000
0001
0000
,  // measure 7
0010
0001
0010
0100
1000
0010
0100
0010
0000
1000
0001
0000
0001
1000
0000
0000
,  // measure 8
0100
1000
0100
0010
0001
0100
0010
0100
0000
0001
1000
0000
1000
0001
0000
0000
,  // measure 9
0100
0001
0010
0100
0010
0001
1000
0001
0000
1000
0001
0000
0001
1000
0000
0000
,  // measure 10
0010
1000
0100
0010
0100
1000
0001
1000
0000
1000
0001
0000
0001
0100
0000
0010
,  // measure 11
1000
0010
1000
0100
0010
0001
0100
0001
0000
0001
1000
0000
1000
0010
0000
0100
,  // measure 12
0001
0100
0001
1000
0000
0001
0000
0010
0000
0100
0000
1000
0000
0020
0000
0030
,  // measure 13
1000
0100
0000
1000
0010
1000
0000
0100
0000
0000
0010
0001
0000
0010
0000
0100
,  // measure 14
1000
0010
0000
1000
0100
1000
0000
0100
0010
0001
1000
0001
0000
0100
0000
0010
,  // measure 15
1000
0010
0000
0010
0100
0010
1000
0100
0000
0000
0010
0001
0000
1000
0000
0100
,  // measure 16
1000
0010
0000
0100
0010
0100
0001
0010
0000
0100
1000
0001
0000
0001
0000
0010
,  // measure 17
0001
0100
0000
0010
0100
0010
1000
0100
0000
0000
0010
0001
0000
0010
0000
0001
,  // measure 18
0010
0000
0100
0000
0000
0000
1000
0010
1000
0000
0001
0000
0010
0000
0001
0000
0000
0000
0100
0010
0100
0000
0001
0000
0000
0000
0100
0000
0000
0000
0010
0000
,  // measure 19
1000
0001
0000
0001
0010
0100
1000
0001
0000
0000
0100
0001
0000
1000
0000
1000
,  // measure 20
0100
0000
0010
0000
0000
0000
0001
0100
0001
0000
1000
0000
0100
0000
1000
0000
0000
0000
0010
0100
0010
0000
1000
0000
0000
0000
0010
0000
0000
0000
0100
0000
,  // measure 21
0001
1000
0100
0000
0010
0100
0000
1000
0000
0000
0010
1000
0000
0001
0000
0100
,  // measure 22
0001
0010
0100
1000
0000
0010
1000
0100
0010
0001
0010
0100
0000
1000
0100
0010
,  // measure 23
0001
0000
0100
0000
0000
0000
0000
0000
0000
0000
0000
0000
0001
0100
0001
0000
0000
0000
0000
0000
1000
0010
1000
0000
0000
0000
0000
0000
0001
0000
0000
0000
,  // measure 24
1000
0000
0000
0000
0100
1000
0100
0000
0000
0000
0010
0000
0001
0000
0010
0000
0000
0000
0001
0000
0010
0000
0100
0000
0000
0000
1000
0000
0001
0000
1000
0000
,  // measure 25
0000
1000
0100
0010
0001
1000
0000
0010
0000
0000
1000
0010
0000
0010
0000
1000
,  // measure 26
0001
0000
0010
0000
0100
0000
1000
0000
0000
0000
0010
0000
0000
0000
0100
0000
0001
0100
0001
0000
0000
0000
1000
0000
0100
0000
0000
0000
1000
0100
1000
0000
,  // measure 27
0010
0000
0100
0000
0000
0000
0001
0000
0000
0000
0010
0000
0001
0010
0001
0000
0000
0000
1000
0000
0100
1000
0100
0000
0000
0000
0010
0000
0100
0000
0000
0000
,  // measure 28
1000
0000
0000
0000
0001
1000
0001
0000
0200
0000
0000
0000
0000
0000
0000
0000
0000
0000
0000
0000
0000
0000
0000
0000
0310
0000
0000
0000
0000
0000
0000
0000
,  // measure 29
0100
0001
0010
0001
0100
0001
0000
0010
0000
0000
0100
1000
0000
0100
0000
1000
,  // measure 30
0100
1000
0000
0100
0000
0001
0100
1000
0000
0100
1000
0100
0000
0100
0001
0100
,  // measure 31
0010
1000
0100
1000
0010
1000
0000
0100
0000
0000
0001
0100
0000
1000
0000
0100
,  // measure 32
0010
0100
0000
1000
0100
0010
0001
1000
0000
0000
0010
0100
0000
0100
0001
0000
,  // measure 33
0010
0001
0100
0001
0010
0001
0000
0100
0000
0000
0010
1000
0000
0010
0000
1000
,  // measure 34
0010
1000
0000
0100
0000
0001
0100
1000
0000
0100
1000
0100
0000
0100
0001
0100
,  // measure 35
0010
1000
0100
1000
0100
0010
0000
0010
0000
0000
0001
1000
0000
0010
0000
1000
,  // measure 36
0100
0010
0000
0001
0010
0100
1000
0100
0000
0010
0001
0010
0000
0001
1000
0000
,  // measure 37
0100
0010
0100
0000
1000
0000
0100
0000
0010
0000
0100
0000
0000
0000
1010
0000
0000
0000
0000
0000
0001
0000
1000
0000
0000
0000
0010
0000
0000
0000
1000
0000
,  // measure 38
0100
1000
0000
0100
0001
0100
1000
0001
0000
0100
0001
0100
0000
0010
1000
0001
,  // measure 39
0010
0100
0010
0000
0001
0000
0010
0000
0100
0000
0010
0000
0000
0000
0101
0000
0000
0000
0000
0000
1000
0000
0001
0000
0000
0000
0100
0000
0000
0000
0001
0000
,  // measure 40
0010
0001
0000
0100
0001
0010
0001
0100
0000
0000
0010
1000
0000
1000
0001
0000
,  // measure 41
0100
0001
0100
0000
0001
0000
0010
0000
0100
0000
1000
0000
0000
0000
0001
0000
0000
0000
0000
0000
0100
0000
0001
0000
0000
0000
1000
0000
0000
0000
1000
0000
,  // measure 42
0001
0010
0000
0010
0001
1000
0100
0010
0000
0001
0100
0001
0000
0100
0010
1000
,  // measure 43
0100
1000
0100
0000
1000
0000
0010
0000
0100
0000
0001
0000
0000
0000
1000
0000
0000
0000
0000
0000
0010
0000
0100
0000
0000
0000
0001
0000
0000
0000
0010
0000
,  // measure 44
0001
0010
0000
0100
1000
0001
0010
0100
0000
1000
0010
0100
0000
0110
0000
0000
,  // measure 45
1000
0001
1000
0000
0100
0000
0010
0000
0001
0000
1000
0000
0000
0000
1100
0000
0000
0000
0000
0000
0010
0000
0100
0000
0000
0000
1000
0000
0000
0000
0001
0000
,  // measure 46
0100
0001
0000
0100
0001
0010
0100
0010
0000
0001
0100
0001
0000
1000
0010
1000
,  // measure 47
0001
1000
0001
0000
0010
0000
0100
0000
1000
0000
0001
0000
0000
0000
0011
0000
0000
0000
0000
0000
0100
0000
0010
0000
0000
0000
0001
0000
0000
0000
1000
0000
,  // measure 48
0010
1000
0000
0001
0010
0100
0010
0001
0000
0000
0100
0010
0000
1010
0000
0000
,  // measure 49
0010
0000
0010
1000
0000
1000
0001
0010
0000
0100
0010
0001
0010
0001
0010
0100
,  // measure 50
1000
0000
0010
1000
0000
1000
0001
0010
0000
0100
0010
0001
1000
0100
1000
0100
,  // measure 51
0010
0001
0100
0001
0000
0001
1000
0100
0000
1000
0001
0100
0001
0100
0001
1000
,  // measure 52
0100
0000
0010
0001
0000
0001
1000
0010
0000
1000
0001
0010
0001
1000
0010
1000
,  // measure 53
0000
0000
0010
0100
0000
0100
0000
0000
0000
0000
0010
0100
0000
0100
0000
0000
,  // measure 54
0000
0000
0000
0000
0000
0000
0000
0000
0001
1000
0001
1000
0001
0000
1000
0000
0001
0100
0001
0100
0001
0000
0100
0000
0010
1000
0010
1000
0010
0000
1000
0000
,  // measure 55
0000
0001
0200
0000
0010
0000
0000
0020
0000
0000
0000
0000
0000
0000
0330
0000
;

//---------------dance-single - DMAxel----------------
#NOTES:
     dance-single:
     DMAxel:
     Beginner:
     1:
     0.055,0.062,0.000,0.000,0.000: // measure 1
1000
0000
0000
0000
,  // measure 2
0000
0000
0000
0000
,  // measure 3
1000
0000
0000
0000
,  // measure 4
0000
0000
0000
0000
,  // measure 5
0001
0000
0000
0000
,  // measure 6
0001
0000
0000
0000
,  // measure 7
0001
0000
0000
0000
,  // measure 8
1000
0000
0000
0000
,  // measure 9
1000
0000
0000
0000
,  // measure 10
0010
0000
0000
0000
,  // measure 11
0010
0000
0000
0000
,  // measure 12
0100
0000
0000
0000
,  // measure 13
0001
0000
0000
0000
,  // measure 14
0001
0000
0000
0000
,  // measure 15
0001
0000
0000
0000
,  // measure 16
0001
0000
0000
0000
,  // measure 17
1000
0000
0000
0000
,  // measure 18
1000
0000
0000
0000
,  // measure 19
1000
0000
0000
0000
,  // measure 20
1000
0000
0000
0000
,  // measure 21
0001
0000
0000
0000
,  // measure 22
0000
0000
0000
0000
,  // measure 23
0100
0000
0000
0000
,  // measure 24
0000
0000
0000
0000
,  // measure 25
0010
0000
0000
0000
,  // measure 26
1000
0000
0000
0000
,  // measure 27
1000
0000
0000
0000
,  // measure 28
0001
0000
0000
0000
,  // measure 29
0001
0000
0000
0000
,  // measure 30
0100
0000
0000
0000
,  // measure 31
0001
0000
0000
0000
,  // measure 32
0100
0000
0000
0000
,  // measure 33
0010
0000
0000
0000
,  // measure 34
1000
0000
0000
0000
,  // measure 35
0010
0000
0000
0000
,  // measure 36
1000
0000
0000
0000
,  // measure 37
0001
0000
0000
0000
,  // measure 38
1000
0000
0000
0000
,  // measure 39
0001
0000
0000
0000
,  // measure 40
0001
0000
0000
0000
,  // measure 41
1000
0000
0000
0000
,  // measure 42
0100
0000
0000
0000
,  // measure 43
0010
0000
0000
0000
,  // measure 44
0001
0000
0000
0000
,  // measure 45
1000
0000
0000
0000
,  // measure 46
0001
0000
0000
0000
,  // measure 47
1000
0000
0000
0000
,  // measure 48
0001
0000
0000
0000
,  // measure 49
0100
0000
0000
0000
,  // measure 50
0010
0000
0000
0000
,  // measure 51
0100
0000
0000
0000
,  // measure 52
0001
0000
0000
0000
,  // measure 53
1000
0000
0000
0000
,  // measure 54
0000
1000
0000
0000
;
