#TITLE:PARADISE LOST;
#SUBTITLE:;
#ARTIST:Ryu☆ Vs. L.E.D.-G;
#TITLETRANSLIT:;
#SUBTITLETRANSLIT:;
#ARTISTTRANSLIT:Ryu* Vs. L.E.D.-G;
#CREDIT:DMAxel;
#BANNER:PARADISE LOST.png;
#BACKGROUND:PARADISE LOST-bg.png;
#LYRICSPATH:;
#CDTITLE:beatmaniaIIDX.png;
#MUSIC:PARADISE LOST.mp3;
#OFFSET:-12.420;
#SAMPLESTART:24.394;
#SAMPLELENGTH:12.000;
#SELECTABLE:YES;
#BPMS:0.000=100.000,12.000=200.000,228.000=100.000,263.000=200.000;
#STOPS:228.000=1.800
;
#BGCHANGES:-21.000=PARADISE LOST.avi=1.000=1=1=0,
99999=-nosongbg-=1.000=0=0=0 // don't automatically add -songbackground-
;

//---------------dance-single - ----------------
#NOTES:
     dance-single:
     :
     Easy:
     4:
     0.330,0.441,0.090,0.143,0.000: // measure 1
0002
0000
0000
0000
,  // measure 2
2000
0000
0000
3003
,  // measure 3
0200
0000
0000
0000
,  // measure 4
0310
0100
0010
0100
,  // measure 5
0010
1000
0001
1000
,  // measure 6
0002
0000
0000
0000
,  // measure 7
0000
0000
1000
1003
,  // measure 8
1000
0100
0010
0001
,  // measure 9
0100
0010
0100
0100
,  // measure 10
0001
0010
0100
1000
,  // measure 11
0010
0100
0010
0010
,  // measure 12
1000
0100
0010
0001
,  // measure 13
0100
0010
0100
0100
,  // measure 14
0001
0010
0100
1000
,  // measure 15
0100
0100
0001
0001
,  // measure 16
0100
0010
0100
0010
,  // measure 17
1000
1000
1001
0000
,  // measure 18
0010
0100
0010
0100
,  // measure 19
0001
0001
1001
0000
,  // measure 20
1000
0100
0010
0001
,  // measure 21
1000
1000
1000
1000
,  // measure 22
0001
0010
0100
1000
,  // measure 23
0001
0001
0001
0001
,  // measure 24
1001
0000
0000
0000
,  // measure 25
0000
0000
0000
0000
,  // measure 26
2000
0000
0000
0000
,  // measure 27
0000
0000
0000
0000
,  // measure 28
3002
0000
0000
0000
,  // measure 29
0000
0000
0000
0000
,  // measure 30
2003
0000
0000
0000
,  // measure 31
0010
0000
0000
0000
,  // measure 32
3020
0000
0230
0000
,  // measure 33
0310
0100
0010
0010
,  // measure 34
1001
0010
0100
1000
,  // measure 35
0010
0100
0001
0001
,  // measure 36
1000
1000
0100
0100
,  // measure 37
0001
0001
0100
0100
,  // measure 38
1000
0100
0010
0001
,  // measure 39
0100
0010
1000
1000
,  // measure 40
0001
0001
0100
0100
,  // measure 41
1000
1000
0100
0100
,  // measure 42
0001
0010
0100
1000
,  // measure 43
0010
0100
0001
0001
,  // measure 44
1000
1000
0100
0100
,  // measure 45
0001
0001
0010
0010
,  // measure 46
1000
0100
0010
0001
,  // measure 47
0100
0010
1000
1000
,  // measure 48
0001
0001
0100
0100
,  // measure 49
1000
1000
0010
0010
,  // measure 50
0001
0100
0010
1000
,  // measure 51
0100
0010
0100
1000
,  // measure 52
0001
0100
0010
1000
,  // measure 53
0100
0010
0100
1000
,  // measure 54
0100
0001
0100
1000
,  // measure 55
0010
0100
0001
0001
,  // measure 56
0100
1000
0100
0001
,  // measure 57
0010
0100
1000
0001
,  // measure 58
1001
0200
0000
0320
,  // measure 59
0000
0230
0000
0320
,  // measure 60
0000
2030
0000
3002
,  // measure 61
0000
0203
0000
0320
,  // measure 62
0000
1030
0100
0010
,  // measure 63
0001
0100
0010
1000
,  // measure 64
1000
1001
0001
1001
,  // measure 65
1000
0000
1001
0000
0101
0000
1100
1000
,  // measure 66
1000
1000
1001
0000
0000
0000
0010
0000
,  // measure 67
0100
0010
1000
0100
,  // measure 68
0010
0001
1000
0100
,  // measure 69
1000
0100
1000
0001
,  // measure 70
0100
1000
0100
0001
,  // measure 71
0100
0001
0100
0010
,  // measure 72
1000
0010
0100
0001
,  // measure 73
0100
1000
0100
0001
,  // measure 74
0010
1000
0010
0001
,  // measure 75
0100
0010
0100
0001
,  // measure 76
0100
1000
0100
0001
,  // measure 77
0100
0001
0100
0010
,  // measure 78
1000
0010
1000
0001
,  // measure 79
0010
0100
1000
0100
,  // measure 80
0010
0001
0001
1000
,  // measure 81
0100
0001
0100
1000
,  // measure 82
0001
0100
0010
2002
,  // measure 83
0000
0000
0000
0000
,  // measure 84
0000
0000
0000
3003
;

//---------------dance-single - ----------------
#NOTES:
     dance-single:
     :
     Medium:
     7:
     0.495,0.504,0.301,0.391,0.053: // measure 1
2000
3200
2300
0000
,  // measure 2
3002
0000
0000
0000
,  // measure 3
2003
0000
0000
0000
,  // measure 4
3001
0001
0101
1000
,  // measure 5
1100
0001
0010
0100
,  // measure 6
1000
0100
0001
0100
,  // measure 7
1000
0100
0001
1001
,  // measure 8
0100
0001
0100
0001
0100
0000
0010
0000
,  // measure 9
1000
0100
0010
1001
,  // measure 10
0010
1000
0010
1000
0010
0000
0100
0000
,  // measure 11
0001
0010
0100
1001
,  // measure 12
0010
0001
0010
0001
1000
0010
1000
0000
,  // measure 13
0010
0100
1001
1001
,  // measure 14
0100
1000
0100
1000
0001
0100
0001
0000
,  // measure 15
0100
0010
1001
1001
,  // measure 16
0010
0000
0010
0000
1000
0100
0010
0000
,  // measure 17
0001
1000
0001
0000
1001
0000
1001
0000
,  // measure 18
0100
0000
0100
0000
0001
0010
0100
0000
,  // measure 19
1000
0001
1000
0000
1001
0000
1001
0000
,  // measure 20
0100
0000
0100
0000
1000
0010
0100
0001
,  // measure 21
0100
0001
0100
0001
1000
0000
1001
0000
,  // measure 22
0010
0000
0010
0000
0001
0100
0001
1000
,  // measure 23
0010
1000
0010
1000
0001
0000
0011
0000
,  // measure 24
2002
0000
0000
0000
,  // measure 25
0000
0000
3003
0000
,  // measure 26
0002
0000
0203
0000
,  // measure 27
0302
0000
2003
0000
,  // measure 28
3200
0000
0302
0000
,  // measure 29
0203
0000
2300
0000
,  // measure 30
3002
0000
0203
0000
,  // measure 31
0302
0000
2003
0000
,  // measure 32
3001
0010
0100
1000
,  // measure 33
0001
0001
1000
1100
,  // measure 34
1001
0000
1001
0000
0010
0001
0010
0000
,  // measure 35
0100
1000
0100
0000
1001
0000
1001
0000
,  // measure 36
0002
0000
0000
0103
0020
0000
0000
1030
,  // measure 37
0200
0000
0000
1300
0001
0000
0101
0000
,  // measure 38
1001
0000
1001
0000
0100
1000
0100
0000
,  // measure 39
0010
0001
0010
0000
1001
0000
1001
0000
,  // measure 40
2000
0000
0000
3010
0200
0000
0000
0301
,  // measure 41
0020
0000
0000
0031
1000
0000
1000
0000
,  // measure 42
0001
0000
0000
0001
0000
0000
0001
0000
1000
0000
0000
0000
0010
0000
0000
0000
,  // measure 43
1000
0000
0000
1000
0000
0000
1000
0000
0001
0000
0000
0000
0100
0000
0000
0000
,  // measure 44
0002
0000
0000
0103
0020
0000
0000
1030
,  // measure 45
0002
0000
0000
0103
0010
0000
0110
0000
,  // measure 46
1000
0000
0000
1000
0000
0000
1000
0000
0001
0000
0000
0000
0010
0000
0000
0000
,  // measure 47
0001
0000
0000
0001
0000
0000
0001
0000
1000
0000
0000
0000
0100
0000
0000
0000
,  // measure 48
2000
0000
0000
3010
0200
0000
0000
0301
,  // measure 49
1000
1000
0010
0110
,  // measure 50
1000
0001
1000
0001
1000
0000
0100
0010
,  // measure 51
0100
1000
0001
1001
,  // measure 52
0001
1000
0001
1000
0001
0000
0010
0100
,  // measure 53
0010
0001
1000
1001
,  // measure 54
0100
0001
0100
0001
1000
0100
1000
0100
,  // measure 55
0010
0001
0010
0001
1000
0000
1000
0000
,  // measure 56
0100
1000
0100
1000
0001
0100
0001
0100
,  // measure 57
0010
1000
0010
1000
0001
0000
0001
0000
,  // measure 58
1001
2000
0000
3200
,  // measure 59
0000
0302
0000
0203
,  // measure 60
0000
0320
0000
2030
,  // measure 61
0000
3020
0000
0230
,  // measure 62
0000
0302
0023
0230
,  // measure 63
2300
3002
0023
2030
,  // measure 64
3020
0000
0000
0000
0031
0000
0000
0000
1000
0000
0000
0010
0100
0000
0000
0000
,  // measure 65
0001
0000
0000
0100
0010
0000
0000
1000
0001
0000
0000
0001
1000
0000
0001
0000
,  // measure 66
0100
0010
0100
0010
0100
0000
0000
0000
0000
0000
0000
0000
0010
0000
0100
0000
,  // measure 67
0010
0000
0100
0001
0100
0000
0001
0000
,  // measure 68
0100
0000
1000
0000
1001
0000
0100
0010
,  // measure 69
0100
0000
0010
1000
0010
0000
1000
0000
,  // measure 70
0010
0000
0001
0000
1001
0000
0100
0001
,  // measure 71
0100
0000
0010
1000
0100
0000
1000
0000
,  // measure 72
0100
0000
0001
0000
1001
0000
0010
1000
,  // measure 73
0010
0000
0100
0001
0010
0000
0001
0000
,  // measure 74
0010
0000
1000
0000
1001
0000
0010
1000
,  // measure 75
0010
0000
1000
0000
0001
0000
0010
0000
0001
0000
0000
0000
1000
0000
0000
2000
,  // measure 76
0000
0000
0000
0000
3001
0000
0000
0002
0000
0000
0000
0000
0103
0000
0001
0000
,  // measure 77
0100
0000
0001
0000
1000
0000
0100
0000
1000
0000
0000
0000
0001
0000
0000
0002
,  // measure 78
0000
0000
0000
0000
1003
0000
0000
2000
0000
0000
0000
0000
3010
0000
0100
0000
,  // measure 79
0010
0100
0001
0000
0001
0000
0100
0010
,  // measure 80
0100
0010
1000
0000
1000
0000
0001
0100
,  // measure 81
0010
0000
1000
0100
0010
0000
0101
0000
,  // measure 82
0101
1100
1100
2002
,  // measure 83
0000
0000
0000
0000
,  // measure 84
0000
0000
0000
3003
;

//---------------dance-single - ----------------
#NOTES:
     dance-single:
     :
     Hard:
     9:
     0.620,0.630,0.308,0.173,0.218: // measure 1
0002
0203
2300
3000
,  // measure 2
2002
0000
0000
3003
,  // measure 3
0220
0000
0000
0330
,  // measure 4
1000
0001
1000
0001
1000
0001
0100
0001
,  // measure 5
0100
0010
1000
0100
0010
0000
0011
0000
,  // measure 6
1000
1000
0001
0100
,  // measure 7
1000
0100
0001
1001
,  // measure 8
0100
1000
0100
1000
0001
0010
0100
0010
,  // measure 9
0001
0100
0010
0000
0101
0000
1001
0000
,  // measure 10
0010
0001
0010
0001
1000
0100
0010
0100
,  // measure 11
1000
0010
0100
0000
0001
1000
0001
0000
,  // measure 12
0010
0001
0010
0001
1000
0100
0010
0100
,  // measure 13
1000
0010
0100
0000
1010
0000
1001
0000
,  // measure 14
0010
1000
0010
1000
0001
0010
0100
0010
,  // measure 15
0001
0100
0010
0000
1000
0001
1000
0000
,  // measure 16
0001
0000
0101
0000
1000
0100
0010
0001
,  // measure 17
0100
1000
0100
0000
1001
0000
1001
0000
,  // measure 18
1000
0000
1010
0000
0001
0010
0100
1000
,  // measure 19
0100
0001
0100
0000
1001
0000
1001
0000
,  // measure 20
0010
0001
0010
0001
1000
0100
1000
0100
,  // measure 21
0010
0001
0100
1000
0100
0000
1001
0000
,  // measure 22
0100
1000
0100
1000
0001
0010
0001
0010
,  // measure 23
0100
0000
0000
1000
0001
0000
0100
0000
0001
0000
0000
0100
0001
0000
1000
0000
,  // measure 24
2002
0000
0000
0000
,  // measure 25
0000
0000
0000
3003
,  // measure 26
1001
0000
0000
1000
0000
0000
1000
0000
0000
0000
0001
0000
0010
0000
0100
0000
,  // measure 27
1000
0000
0000
1000
0000
0000
1000
0000
0000
0000
0100
0000
0010
0000
0001
0000
,  // measure 28
0100
0000
0000
0100
0000
0000
0100
0000
0010
0000
0000
0010
0000
0000
0010
0000
,  // measure 29
0100
0000
0000
0100
0000
0000
0100
0000
0001
0000
0000
0001
0000
0000
0001
0000
,  // measure 30
1000
0010
1000
0010
0100
0001
0100
0001
,  // measure 31
1000
0001
1000
0001
1000
0010
0100
0010
,  // measure 32
1000
0100
0010
0001
0100
1000
0100
0001
,  // measure 33
1000
1000
1100
1100
,  // measure 34
1001
0000
0000
1000
0000
0000
0001
0000
0000
0000
0010
0000
0100
0000
1000
0000
,  // measure 35
0001
0000
0000
0100
0000
0000
0001
0000
0101
0000
0000
0000
1001
0000
0000
0000
,  // measure 36
1000
0000
0000
0010
0000
0000
1000
0000
0001
0000
0000
0010
0000
0000
0001
0000
,  // measure 37
1000
0000
0000
0010
0000
0000
1000
0000
0001
0000
0000
0000
0011
0000
0000
0000
,  // measure 38
1001
0000
0000
0001
0000
0000
1000
0000
0000
0000
0100
0000
0010
0000
0001
0000
,  // measure 39
1000
0000
0000
0010
0000
0000
1000
0000
1010
0000
0000
0000
1001
0000
0000
0000
,  // measure 40
0001
0000
0000
0100
0000
0000
0001
0000
1000
0000
0000
0100
0000
0000
1000
0000
,  // measure 41
0001
0000
0000
0100
0000
0000
0001
0000
1000
0000
0000
0100
0000
0000
1000
0000
,  // measure 42
0001
0000
0000
0010
0000
0000
0001
0000
1000
0000
0100
0000
0010
0000
0100
0000
,  // measure 43
1000
0000
0000
0100
0000
0000
1000
0000
0001
0000
0010
0000
0100
0000
0010
0000
,  // measure 44
0001
0000
0000
0001
0000
0000
0001
0000
0100
0000
0000
0100
0000
0000
0100
0000
,  // measure 45
0010
0000
0000
0010
0000
0000
0010
0000
1000
0000
0000
1000
0000
0000
1000
0000
,  // measure 46
0001
0000
0000
0100
0000
0000
0001
0000
1000
0000
0010
0000
0100
0000
0010
0000
,  // measure 47
1000
0000
0000
0010
0000
0000
1000
0000
0001
0000
0100
0000
0010
0000
0100
0000
,  // measure 48
0001
0000
0000
0001
0000
0000
0001
0000
1000
0000
0000
1000
0000
0000
1000
0000
,  // measure 49
0001
0000
0000
0001
0000
0000
0001
0000
0100
0000
0000
0000
0110
0000
0000
0000
,  // measure 50
0001
0010
0100
1000
0001
0010
0001
1000
,  // measure 51
0100
0001
0100
1000
0100
0000
0110
0000
,  // measure 52
1000
0100
0010
0001
1000
0010
1000
0001
,  // measure 53
0100
1000
0100
0001
0100
0000
0110
0000
,  // measure 54
0001
1000
0001
1000
0100
0010
0001
0100
,  // measure 55
0010
0100
0010
0100
0001
0010
0100
1000
,  // measure 56
0001
0100
0001
0100
0010
1000
0010
1000
,  // measure 57
0001
0000
0000
1000
0001
0000
0100
0000
0001
0000
0000
0100
0001
0000
1000
0000
,  // measure 58
1001
0000
0000
0000
0001
0000
0100
0000
0001
0000
0000
1000
0000
0100
0000
1000
,  // measure 59
0000
0010
0000
0100
0002
0000
0000
2003
0000
0000
3010
0100
0000
0001
0000
0010
,  // measure 60
0000
0001
0000
0000
2000
0000
0000
3002
0000
0000
1003
0000
0100
0000
0001
0000
,  // measure 61
0100
0000
1000
0000
0020
0000
0000
0230
0000
0000
0301
0000
0020
0000
0000
0000
,  // measure 62
0000
0030
2001
0000
3200
0000
0301
0010
,  // measure 63
0100
1000
0002
0000
0203
0000
1300
0100
,  // measure 64
0010
0000
0001
0000
1001
0000
0000
0000
0000
0000
0000
1000
0010
0000
0000
0000
,  // measure 65
0000
0000
0000
0100
0001
0000
0000
0001
1000
0000
0000
1000
0001
0100
0001
0100
,  // measure 66
0010
1000
0010
1000
0002
0000
0000
0000
1000
0000
1003
0000
0001
0000
0010
0000
,  // measure 67
0100
1000
0010
0100
0010
1000
0100
0001
,  // measure 68
0010
0100
0010
0000
1001
0000
1000
0100
,  // measure 69
0010
0001
0100
0010
0100
0001
0100
1000
,  // measure 70
0100
0010
0100
0000
1001
0000
0010
1000
,  // measure 71
0001
0010
0100
0010
0001
1000
0100
0000
,  // measure 72
1100
0000
1001
0000
1010
0000
0100
0001
,  // measure 73
1000
0100
0010
0100
1000
0001
0100
0000
,  // measure 74
0101
0000
1001
0000
0011
0000
0100
1000
,  // measure 75
0001
0000
0100
0000
0001
0000
0100
0000
0010
0000
1000
0000
0100
0000
0000
0010
,  // measure 76
0000
0000
0100
0000
1000
0000
0000
0001
0000
0000
0010
0000
0100
0000
0010
0000
,  // measure 77
0001
0000
1000
0000
0010
0000
0100
0000
0001
0000
0010
0000
0100
0000
0000
0010
,  // measure 78
0000
0000
0001
0000
1000
0000
0000
0100
0000
0000
0010
0000
0100
0000
1000
0000
,  // measure 79
0001
0100
0001
1000
0100
1000
0001
0010
,  // measure 80
0100
1000
0001
0100
0001
1000
0100
0010
,  // measure 81
0100
0000
0010
0000
0001
0000
0100
0000
1000
0000
0100
0000
0010
0000
0000
0001
,  // measure 82
0100
0000
0010
0000
0100
0000
0000
0010
1000
0000
0001
0000
2002
0000
0000
0000
,  // measure 83
0000
0000
0000
0000
,  // measure 84
0000
0000
0000
3003
;

//---------------dance-single - ----------------
#NOTES:
     dance-single:
     :
     Beginner:
     2:
     0.095,0.123,0.075,0.008,0.000: // measure 1
1000
0000
0000
0000
,  // measure 2
0000
0000
0000
0000
,  // measure 3
0001
0000
0000
0000
,  // measure 4
0001
0000
0000
0000
,  // measure 5
1000
0000
0000
0000
,  // measure 6
0001
0000
0000
0000
,  // measure 7
0000
0000
0000
0000
,  // measure 8
1001
0000
0000
0000
,  // measure 9
1000
0000
0000
0000
,  // measure 10
0001
0000
0000
0000
,  // measure 11
1000
0000
0000
0000
,  // measure 12
0010
0000
0000
0000
,  // measure 13
0100
0000
0000
0000
,  // measure 14
0010
0000
0000
0000
,  // measure 15
0010
0000
0000
0000
,  // measure 16
0110
0000
0000
0000
,  // measure 17
0001
0000
0000
0000
,  // measure 18
1000
0000
0000
0000
,  // measure 19
0001
0000
0000
0000
,  // measure 20
1000
0000
0000
0000
,  // measure 21
1000
0000
0000
0000
,  // measure 22
0001
0000
0000
0000
,  // measure 23
0001
0000
0000
0000
,  // measure 24
1001
0000
0000
0000
,  // measure 25
0000
0000
0000
0000
,  // measure 26
1000
0000
0000
0000
,  // measure 27
0000
0000
0000
0000
,  // measure 28
1000
0000
0000
0000
,  // measure 29
0000
0000
0000
0000
,  // measure 30
0001
0000
0000
0000
,  // measure 31
0001
0000
0000
0000
,  // measure 32
0001
0000
0000
0000
,  // measure 33
1000
0000
0000
0000
,  // measure 34
1001
0000
0000
0000
,  // measure 35
0001
0000
0000
0000
,  // measure 36
1000
0000
0000
0000
,  // measure 37
0001
0000
0000
0000
,  // measure 38
0100
0000
0000
0000
,  // measure 39
0010
0000
0000
0000
,  // measure 40
0100
0000
0000
0000
,  // measure 41
0100
0000
0000
0000
,  // measure 42
0010
0000
0000
0000
,  // measure 43
0100
0000
0000
0000
,  // measure 44
0010
0000
0000
0000
,  // measure 45
0010
0000
0000
0000
,  // measure 46
1000
0000
0000
0000
,  // measure 47
0001
0000
0000
0000
,  // measure 48
1000
0000
0000
0000
,  // measure 49
1000
0000
0000
0000
,  // measure 50
1001
0000
0000
0000
,  // measure 51
0001
0000
0000
0000
,  // measure 52
1000
0000
0000
0000
,  // measure 53
0001
0000
0000
0000
,  // measure 54
0100
0000
0000
0000
,  // measure 55
0100
0000
0000
0000
,  // measure 56
0010
0000
0000
0000
,  // measure 57
0010
0000
0000
0000
,  // measure 58
0210
0000
0000
0000
,  // measure 59
0000
0000
0000
0000
,  // measure 60
0000
1000
0000
0000
,  // measure 61
0000
0001
0000
0000
,  // measure 62
0000
1001
0000
0000
,  // measure 63
0000
1000
0000
0000
,  // measure 64
0000
1001
0000
0001
,  // measure 65
0000
1001
0000
0000
,  // measure 66
0000
1000
0000
0001
,  // measure 67
0000
0000
0000
0001
,  // measure 68
0000
0000
0000
1000
,  // measure 69
0000
0000
0000
1000
,  // measure 70
0000
0000
0000
0001
,  // measure 71
0000
0000
0000
0001
,  // measure 72
0000
0000
0000
1000
,  // measure 73
0000
0000
0000
0001
,  // measure 74
0000
0000
0000
1000
,  // measure 75
0000
0000
0000
0300
,  // measure 76
0000
0000
0000
0010
,  // measure 77
0000
0000
0000
0001
,  // measure 78
0000
0000
0000
0100
,  // measure 79
0000
0000
0000
0010
,  // measure 80
0000
0000
0000
1000
,  // measure 81
0000
0000
0000
0001
,  // measure 82
0000
0000
0000
1001
;
