#TITLE:Over the FANTASY;
#SUBTITLE:(TV Edit);
#ARTIST:佳奈植田;
#TITLETRANSLIT:;
#SUBTITLETRANSLIT:;
#ARTISTTRANSLIT:Kana Ueda;
#CREDIT:Kyon;
#BANNER:Over the FANTASY (TV Edit).png;
#BACKGROUND:Over the FANTASY (TV Edit)-bg.png;
#LYRICSPATH:Over the FANTASY (TV Edit).lrc;
#CDTITLE:Dj DMA Original Simfile.png;
#MUSIC:Over the FANTASY (TV Edit).MP3;
#OFFSET:-0.180;
#SAMPLESTART:39.156;
#SAMPLELENGTH:12.000;
#SELECTABLE:YES;
#BPMS:0.000=126.060,28.000=63.030,29.000=126.060,117.000=63.030,121.000=126.060;
#STOPS:;
#BGCHANGES:0.000=Over the FANTASY (TV Edit).AVI=1.000=1=1=0,
99999=-nosongbg-=1.000=0=0=0 // don't automatically add -songbackground-
;

//---------------dance-single - ----------------
#NOTES:
     dance-single:
     :
     Easy:
     2:
     0.172,0.239,0.055,0.131,0.000:
0000
0000
0000
0000
,
0000
0000
0000
0000
,
0000
0000
0000
0000
,
0000
0000
0000
0000
,
0000
0000
0000
0000
,
0000
0010
0000
0000
,
0000
0100
0000
0000
,
1001
0000
0000
0000
,
0000
0000
0100
0000
,
0100
0000
0010
0000
,
0010
0000
1000
0000
,
1000
0000
0001
0000
,
0001
0020
0000
0000
,
0031
0100
0020
0000
,
0000
1030
0000
0000
,
0100
0000
1000
0000
,
0100
2000
0000
0000
,
3010
0100
0002
0000
,
0000
0013
0000
0000
,
0001
0000
0010
0000
,
0001
1000
0000
0100
,
1000
0010
0010
0000
,
0000
0100
0010
0100
,
0001
0001
0001
0000
,
0000
0100
0010
1000
,
0000
0100
0100
0000
,
0000
1001
0010
0000
,
0100
0000
0010
0000
,
0000
0000
1000
0000
,
0001
0020
0000
0032
,
0000
2003
0000
3200
,
0000
1300
0010
0100
,
0001
0020
0000
0032
,
0000
0203
0000
0320
,
0000
1030
0100
1000
,
0010
0100
0100
0001
,
0001
1001
0000
1000
,
0100
1000
1000
0010
,
0000
0100
0010
0100
,
0100
0001
0000
0000
,
0010
0001
0000
1000
,
0000
0100
0100
0000
,
1001
0010
0010
0010
,
0100
0100
0100
1001
;

//---------------dance-single - ----------------
#NOTES:
     dance-single:
     :
     Challenge:
     7:
     0.431,0.443,0.415,0.175,0.208: // measure 1
0000
0000
0000
0000
,  // measure 2
0000
0000
0000
0000
,  // measure 3
0000
0000
0000
0000
,  // measure 4
0000
0000
0000
0000
,  // measure 5
0000
0000
0000
0000
0000
0000
0000
0000
0000
0000
0011
0000
0000
0110
0000
0000
,  // measure 6
1010
0000
0000
0100
0010
0000
0000
0000
0000
0000
1100
0000
0000
0110
0000
0000
,  // measure 7
0101
0000
0000
0010
0100
0000
0000
0000
0000
0000
0101
0000
0000
1010
0000
0000
,  // measure 8
1001
0000
0000
0000
0010
0000
0000
0010
0000
0000
0100
0000
0010
0000
0000
1000
,  // measure 9
0010
0000
0100
0001
0100
0000
0001
0000
0100
0000
0000
0000
0010
0000
1000
0000
,  // measure 10
0011
0000
0110
0000
1100
0000
0001
0010
,  // measure 11
1000
0010
0001
0100
0001
0000
1000
0100
,  // measure 12
0001
0100
1000
0001
0100
0010
1000
0100
,  // measure 13
0010
0000
0001
0000
0010
0000
0000
0001
0000
0000
0001
0000
0010
0000
0000
0000
,  // measure 14
0002
0000
0203
0000
0320
0000
0000
1000
,  // measure 15
0000
0130
0001
0010
0001
0000
1000
0100
,  // measure 16
1000
0000
0001
0100
0001
0000
1000
0010
,  // measure 17
1000
0000
0000
0000
0100
0000
0000
1000
0000
0000
1000
0000
0100
0000
0000
0000
,  // measure 18
2000
0000
3020
0000
0230
0000
0000
0001
,  // measure 19
0000
0310
1000
0100
1000
0000
0001
0010
,  // measure 20
0001
0000
0000
0100
1000
0000
0000
0100
1000
0000
0000
0001
0010
0000
0000
0001
,  // measure 21
0010
0000
0001
0000
1000
0000
0000
0010
0000
0000
0010
0000
1000
0000
0000
0000
,  // measure 22
0011
0000
1010
0000
1001
0000
0100
0010
,  // measure 23
1000
0000
0100
0000
0010
0000
0000
0100
0000
0000
0100
0000
0010
0000
0000
0000
,  // measure 24
1100
0000
0101
0000
1001
0000
0010
0100
,  // measure 25
0001
0000
0010
0000
0100
0000
0000
0010
0000
0000
0010
0000
0100
0000
0000
0000
,  // measure 26
0011
0000
1010
0000
1001
0000
0000
1100
,  // measure 27
0000
0000
1001
0010
0100
0001
0000
0100
,  // measure 28
0010
0000
1000
0000
0000
0000
0101
0000
0000
1100
0000
0000
2002
0000
0000
0000
,  // measure 29
0000
0000
0000
0000
,  // measure 30
3003
0000
0000
0000
0000
0000
0000
0000
0010
0000
0000
0001
0000
0000
0001
0000
0100
0000
0000
0010
0000
0000
0010
0000
1000
0000
0000
0100
0000
0000
0100
0000
,  // measure 31
1000
0000
0000
0100
0000
0000
0010
0000
0001
0000
0000
0000
0010
0000
0000
0000
0100
0000
0000
0000
1000
0000
0000
0000
0100
0000
0000
0000
0010
0000
0000
0000
,  // measure 32
0001
0100
0020
0000
0230
0000
0302
0000
,  // measure 33
2003
0000
0000
0000
3100
0000
0000
1000
0000
0000
1000
0000
0010
0000
0000
0100
,  // measure 34
0000
0000
0100
0000
0001
0000
0000
0010
0000
0000
0010
0000
0001
0000
0000
0010
,  // measure 35
0000
0100
1000
0100
0010
0001
0010
0100
,  // measure 36
1000
0000
0000
0100
0001
0000
0000
0100
0001
0000
0000
1000
0010
0000
0000
1000
,  // measure 37
0010
0100
0002
0000
0000
0000
1003
0100
,  // measure 38
0010
1100
0101
1001
,  // measure 39
0100
0000
0001
0010
0100
0000
0011
0000
,  // measure 40
1010
0000
1001
0000
0010
0000
0100
0010
,  // measure 41
1000
0010
0002
0000
0000
0103
0010
0000
,  // measure 42
1100
0000
0101
0000
1001
0000
0000
1100
,  // measure 43
0000
0000
0000
0000
0011
0000
0100
0000
0000
1000
0000
0000
0100
0000
0000
1000
,  // measure 44
0010
0000
0000
0100
0001
0000
0010
0000
0000
0001
0000
0000
2002
0000
0000
0000
,  // measure 45
0000
0000
0000
0000
,  // measure 46
3003
0000
0000
0000
;

//---------------dance-single - ----------------
#NOTES:
     dance-single:
     :
     Hard:
     6:
     0.353,0.407,0.164,0.175,0.060:
0000
0000
0000
0000
,
0000
0000
0000
0000
,
0000
0000
0000
0000
,
0000
0000
0000
0000
,
0000
0000
0000
0000
0000
0000
0000
0000
0000
0000
0100
0000
0000
0100
0000
0000
,
1001
0000
0000
0010
0100
0000
0000
0000
0000
0000
0010
0000
0000
0010
0000
0000
,
1001
0000
0000
0100
0010
0000
0000
0000
0000
0000
0100
0000
0000
0010
0000
0000
,
2002
0000
0000
0000
,
3003
0020
0000
0000
,
0130
0000
0001
0010
0100
1000
0100
1000
,
0010
0100
0002
0000
0000
0000
0000
1003
,
0100
0010
0001
0010
0001
1000
0100
1000
,
0010
0000
1000
0100
0010
0100
1000
0000
,
0010
0000
0010
0000
0020
0000
0000
0130
,
0000
0001
0010
0000
0001
0000
0010
0000
,
1000
0000
0010
0000
0001
0000
1000
0001
,
1000
0000
0001
0010
0100
0010
0001
0000
,
0100
0000
0100
0000
0200
0000
0000
0310
,
0000
1000
0100
0000
1000
0000
0100
0000
,
0001
0000
0100
0000
1000
0000
0001
1000
,
0001
0000
1000
0010
0100
0010
1000
0000
,
0010
0010
0200
0000
,
0300
0000
0001
0100
0010
0100
0001
0000
,
0100
0100
0020
0000
,
0030
0000
1000
0010
0100
0010
1000
0000
,
0011
0000
1010
0000
1001
0000
0000
0100
,
0000
1000
0001
0010
0100
1000
0000
0100
,
0010
0000
0001
0000
0000
0000
0010
0000
0000
0100
0000
0000
2002
0000
0000
0000
,
0000
0000
0000
0000
,
3003
0000
0000
0000
1001
0000
0000
1000
0100
0000
0000
0100
0010
0000
0000
0010
,
0001
1000
0001
0010
1000
0010
0001
0010
,
0100
1000
0200
0000
2300
0000
3002
0000
,
0023
0000
0031
0000
0010
0001
0010
0000
,
0100
1000
0100
0000
1000
0010
1000
0000
,
0001
0100
0001
0010
0100
0000
0010
0100
,
0010
0000
0100
0010
0001
0010
0100
1000
,
0100
1000
1002
0000
0000
0000
1003
0100
,
0010
0000
0100
0010
0100
0010
1000
0000
,
1001
0000
0001
0010
0100
0000
0010
0100
,
0010
0100
0001
0000
0010
0000
0100
1000
,
0100
0010
0002
0000
0000
0013
0001
0000
,
0100
0000
0011
0000
1100
0000
0000
1001
,
0000
0000
0100
0000
0010
0000
0100
0000
0000
0100
0000
0000
1001
0000
0000
0000
,
0100
0000
0010
0000
0100
0000
0010
0000
0000
0010
0000
0000
1001
0000
0000
0000
;

//---------------dance-single - ----------------
#NOTES:
     dance-single:
     :
     Medium:
     4:
     0.244,0.287,0.055,0.120,0.000:
0000
0000
0000
0000
,
0000
0000
0000
0000
,
0000
0000
0000
0000
,
0000
0000
0000
0000
,
0000
0000
0000
0000
,
0000
1000
0000
0000
,
0000
0001
0000
0000
,
1001
0000
0000
0000
,
0000
1000
0100
1000
,
0010
0000
0010
0000
0100
0000
0100
0001
,
0010
0100
1000
0000
0100
0000
0100
1000
,
0100
0010
0001
0000
0010
0000
0001
0000
,
1000
0000
0100
1000
0100
0000
1000
0000
,
0010
0000
0010
0000
0010
0000
0000
0200
,
0000
0310
1000
0001
,
0010
0001
0100
0010
,
1000
0000
0001
0010
0001
0000
0100
0000
,
0010
0000
0010
0000
0010
0000
0000
0200
,
0000
0310
1000
0001
,
0010
0002
0023
0230
,
2300
0000
3010
0100
0010
0100
0010
0000
,
1000
1000
1000
0000
,
0010
0000
0100
0010
0100
0010
0100
0000
,
0001
0001
0001
0000
,
0000
0000
0010
0001
0100
0010
0100
0000
,
0010
0000
0010
0000
0010
0000
0000
1001
,
0000
0100
0100
0010
,
0010
0000
1000
0200
0000
0000
0000
0000
,
1300
0000
0001
0000
,
1000
0001
0001
0010
,
0010
0100
1000
0100
,
0010
0001
0100
0010
,
1000
0100
0000
0100
,
0000
1000
0000
1000
,
0000
0010
0100
0001
,
0010
1001
1001
0100
,
0100
0020
0000
1030
,
0100
0000
1000
0100
0010
0000
0001
0000
,
0100
0000
0001
0010
0100
0000
1000
0000
,
0100
1000
0010
0010
,
0100
0020
0000
0000
,
0000
0000
0130
0000
0000
0000
0000
1001
,
0000
0000
0010
0200
0000
0000
0000
0000
,
0301
0000
0010
0002
0000
0000
1003
0000
;

//---------------dance-single - ----------------
#NOTES:
     dance-single:
     :
     Beginner:
     1:
     0.094,0.120,0.077,0.000,0.000:
0000
0000
0000
0000
,
0000
0000
0000
0000
,
0000
0000
0000
0000
,
0000
0000
0000
0000
,
0000
0000
0000
0000
,
0000
0000
0000
0000
,
0000
0000
0000
0000
,
1000
0000
0000
0000
,
0000
1001
0000
0000
,
0001
0000
0001
0000
,
0001
0000
1000
0000
,
1000
0000
0000
0000
,
0000
1001
0000
0000
,
0001
0000
1000
0000
,
0001
0000
1000
0000
,
0001
0000
1000
0000
,
1000
0000
0000
0000
,
0000
0000
0001
0000
,
0001
0000
0010
0000
,
0001
0000
0000
0000
,
0000
1001
0000
0000
,
1000
0000
1000
0000
,
1000
0000
0001
0000
,
0001
0000
1000
0000
,
0100
0000
1000
0000
,
0001
1001
0000
0000
,
0000
0000
1000
0000
,
1000
0000
0001
0000
,
0000
0000
0000
0000
,
0000
0001
0000
0000
,
0000
1000
0000
0000
,
0000
0000
0000
0000
,
0000
0001
0000
0000
,
0000
1000
0000
0000
,
0000
1000
0000
0000
,
0000
0001
0000
0000
,
0000
1001
0000
0000
,
1000
0000
1000
0000
,
0001
0000
0001
0000
,
0010
0000
0001
0000
,
1000
0000
0100
0000
,
1000
1001
0000
0000
,
0000
0000
0000
0000
,
1000
0001
0000
1001
;
