#TITLE:おっくせんまん;
#SUBTITLE:[Eurobeat Mix];
#ARTIST:DJ Command;
#TITLETRANSLIT:OKKUSENMAN;
#SUBTITLETRANSLIT:;
#ARTISTTRANSLIT:;
#CREDIT:DMAxel;
#BANNER:OKKUSENMAN [Eurobeat Mix].png;
#BACKGROUND:OKKUSENMAN [Eurobeat Mix]-bg.png;
#LYRICSPATH:;
#CDTITLE:DMAxel Original Simfile.png;
#MUSIC:OKKUSENMAN [Eurobeat Mix].mp3;
#OFFSET:-0.980;
#SAMPLESTART:67.835;
#SAMPLELENGTH:12.000;
#SELECTABLE:YES;
#BPMS:0.000=165.040;
#STOPS:;
#BGCHANGES:;

//---------------dance-single - ----------------
#NOTES:
     dance-single:
     :
     Easy:
     4:
     0.299,0.336,0.160,0.032,0.000: // measure 1
0000
0000
0000
0000
,  // measure 2
0000
0000
0000
0000
,  // measure 3
0000
0000
0000
0000
,  // measure 4
0000
0000
0000
0000
,  // measure 5
0000
0000
0000
0000
,  // measure 6
0000
0000
0000
0000
,  // measure 7
1000
1000
1000
1000
,  // measure 8
0001
0001
0001
0001
,  // measure 9
1000
1000
1000
1000
,  // measure 10
1001
0000
0000
0000
,  // measure 11
0001
0010
0001
0010
,  // measure 12
0100
1000
0100
1000
,  // measure 13
0010
1000
0010
1000
,  // measure 14
0002
0000
0000
0003
,  // measure 15
1001
1000
0100
0010
,  // measure 16
0000
0000
0000
0000
,  // measure 17
0001
0010
1000
0000
,  // measure 18
0010
0100
0010
0000
,  // measure 19
1000
0001
0010
0100
,  // measure 20
0000
0000
0000
0000
,  // measure 21
1000
0100
0001
0000
,  // measure 22
0100
0010
0100
0110
,  // measure 23
1001
0010
0001
0000
,  // measure 24
0010
0010
0000
0100
,  // measure 25
1000
0100
0100
0000
,  // measure 26
1000
0100
0010
0001
,  // measure 27
0100
0100
0100
0000
,  // measure 28
0010
0010
0010
1000
,  // measure 29
0100
0010
0001
0000
,  // measure 30
0001
0010
0100
1000
,  // measure 31
0001
1000
1000
0000
,  // measure 32
0010
0010
0000
0100
,  // measure 33
0100
0001
0010
0000
,  // measure 34
0100
1000
0100
0010
,  // measure 35
0001
1000
0001
0000
,  // measure 36
1000
0001
1000
0010
,  // measure 37
0100
0100
0100
0000
,  // measure 38
0010
0010
0010
0000
,  // measure 39
0110
0000
0000
1000
,  // measure 40
0001
0010
0100
1000
,  // measure 41
0010
0000
1000
0000
,  // measure 42
0001
0010
0100
1000
,  // measure 43
0001
0000
0000
0100
,  // measure 44
0001
0010
0100
1000
,  // measure 45
0010
0000
0100
0000
0010
0000
0000
1001
,  // measure 46
0000
0000
0000
0000
,  // measure 47
1100
0010
0001
0010
,  // measure 48
0100
1000
0001
1000
,  // measure 49
0010
0010
0110
0000
,  // measure 50
0100
0100
0110
0000
,  // measure 51
0011
0100
1000
0100
,  // measure 52
0010
0001
1000
0010
,  // measure 53
1000
0000
0000
0000
,  // measure 54
0010
0100
0010
0110
,  // measure 55
1001
0010
0001
0010
,  // measure 56
0100
1000
0001
0010
,  // measure 57
1000
0100
1000
0000
,  // measure 58
0010
0100
0010
0000
,  // measure 59
1000
0010
0001
0100
,  // measure 60
0010
0100
0001
1000
,  // measure 61
0001
0010
0000
0000
,  // measure 62
0001
0010
1100
1100
,  // measure 63
2002
0000
0000
0000
,  // measure 64
3003
0000
0000
0000
;

//---------------dance-single - ----------------
#NOTES:
     dance-single:
     :
     Hard:
     7:
     0.488,0.504,0.256,0.096,0.000: // measure 1
0000
0000
0000
0000
,  // measure 2
0000
0000
0000
0000
,  // measure 3
0000
0000
0000
0000
,  // measure 4
0000
0000
0000
0000
,  // measure 5
0000
0000
0000
0000
,  // measure 6
0000
0000
0000
0000
,  // measure 7
0010
0001
0010
1000
,  // measure 8
0100
0010
0001
1000
,  // measure 9
0001
0100
1000
0100
,  // measure 10
2002
0000
0000
3003
,  // measure 11
0100
1000
0100
0000
1000
0010
1000
0000
,  // measure 12
0001
0100
0001
0000
0010
0001
0010
0000
,  // measure 13
0001
1000
0001
0000
0100
0010
0100
0010
,  // measure 14
1000
1000
0000
0100
0000
0010
0000
0000
,  // measure 15
1001
0000
0010
0001
0100
0000
0010
1000
,  // measure 16
0000
1000
0000
0100
0000
0010
0000
0001
,  // measure 17
1000
0100
0010
0000
0011
0000
0000
0100
,  // measure 18
1000
0100
0010
0000
0011
0000
0001
1000
,  // measure 19
0000
1000
0010
0100
0010
0000
0100
0001
,  // measure 20
0000
0001
0000
0010
0000
0100
0000
1000
,  // measure 21
0001
0010
0100
1000
0000
0000
0000
0000
,  // measure 22
0100
0010
0000
0001
0010
0000
0110
0000
,  // measure 23
1001
0000
0010
1000
0010
1000
0000
0100
,  // measure 24
0010
0000
0001
0100
0000
0010
0100
0010
,  // measure 25
0000
0000
0100
0001
0100
0001
0000
0100
,  // measure 26
0000
0100
0000
0001
0000
1000
0000
0000
,  // measure 27
1001
0000
0100
1000
0100
1000
0000
0010
,  // measure 28
0000
0010
0000
1000
0000
0100
0000
0010
,  // measure 29
0001
0010
0100
0000
1100
0000
0000
0010
,  // measure 30
0001
0010
0100
0000
1100
0000
1000
0001
,  // measure 31
0000
0001
0010
0001
0010
0001
0000
0010
,  // measure 32
0100
1000
0100
1000
0000
0010
0100
0010
,  // measure 33
0000
1000
0100
1000
0100
1000
0000
0010
,  // measure 34
0000
0010
0000
0100
0000
0001
0000
0100
,  // measure 35
0001
0010
0001
0010
0001
0100
0000
0100
,  // measure 36
0000
1000
0000
0001
0000
1000
0000
0010
,  // measure 37
1000
0100
0010
0000
0101
0000
0000
0010
,  // measure 38
1000
0100
0010
0000
0101
0000
0010
0200
,  // measure 39
0000
0000
0000
0000
0301
0000
0010
0001
,  // measure 40
0000
0010
0100
1000
0100
1000
0010
0000
,  // measure 41
0200
0000
0000
0000
0310
1000
0000
0000
,  // measure 42
0100
0010
0001
0100
0000
0001
0010
0100
,  // measure 43
2000
0000
0000
0000
0000
3000
0010
1000
,  // measure 44
0000
0100
0000
0100
1000
0100
0010
0001
,  // measure 45
0100
0000
0001
0000
0100
0010
1000
1100
,  // measure 46
0000
0010
0001
0100
0001
0000
0000
0000
,  // measure 47
0011
0000
0001
0010
0100
0000
1000
0010
,  // measure 48
0000
0010
0000
0100
0000
0100
0001
0010
,  // measure 49
0100
0000
1010
0000
0110
0000
1000
0100
,  // measure 50
0010
0000
0101
0000
0110
0000
0010
1000
,  // measure 51
0000
0100
1000
0100
0010
0000
0001
0100
,  // measure 52
0000
0100
0000
0010
0000
0010
1000
0000
,  // measure 53
0100
0010
0001
0200
0000
0000
0000
0000
,  // measure 54
0310
1000
0100
1000
0100
0000
0110
0000
,  // measure 55
1001
0000
0100
1000
0010
0000
0100
0001
,  // measure 56
0010
0001
0010
0001
0010
1000
0000
0100
,  // measure 57
1000
0100
0010
0000
0101
0000
0000
0010
,  // measure 58
0001
0010
0100
0000
1010
0000
1000
0001
,  // measure 59
0100
0010
0100
0010
0100
0000
0010
1000
,  // measure 60
0000
0100
1000
0100
0010
0000
0001
0000
,  // measure 61
0100
0001
0010
0200
0000
0000
0000
0000
,  // measure 62
1300
0010
0001
0000
0110
0000
0011
0000
,  // measure 63
2002
0000
0000
0000
,  // measure 64
3003
0000
0000
0000
;

//---------------dance-single - ----------------
#NOTES:
     dance-single:
     :
     Challenge:
     8:
     0.616,0.605,0.331,0.064,0.192: // measure 1
0000
0000
0000
0000
,  // measure 2
0000
0000
0000
0000
,  // measure 3
0000
0000
0000
0000
,  // measure 4
0000
0000
0000
0000
,  // measure 5
0000
0000
0000
0000
,  // measure 6
0000
0000
0000
0000
,  // measure 7
0120
1000
1000
1030
,  // measure 8
0210
0001
0001
0301
,  // measure 9
0120
1000
1000
1030
,  // measure 10
1100
0000
1001
0000
0010
0100
0010
0100
,  // measure 11
0010
1000
0100
0000
1000
0100
0010
0000
,  // measure 12
0001
0010
0100
0000
1010
0000
1010
0000
,  // measure 13
0100
0000
0001
0000
0010
0000
0000
0000
0001
0000
0010
0000
0100
0000
0000
1000
,  // measure 14
0010
0100
0000
0110
0000
0101
0000
0000
,  // measure 15
1001
0000
0000
0010
1000
0000
0100
0000
1000
0000
0100
0000
1000
0000
0010
0000
,  // measure 16
0100
0001
0000
0000
0001
0010
0000
0000
0001
0000
0010
0000
0001
0000
0100
0000
,  // measure 17
0001
0010
0100
0000
1100
0000
1001
0000
,  // measure 18
1000
0100
0010
0000
0011
0000
0001
1000
,  // measure 19
0000
0010
1000
0100
1000
0001
0010
0100
,  // measure 20
1000
0010
0000
0000
0010
0100
0000
0000
0010
0000
0100
0000
0010
0000
0100
0000
,  // measure 21
0001
0010
0100
1000
0010
0000
0100
0001
,  // measure 22
0010
1000
0100
0001
0100
0000
0110
0000
,  // measure 23
1001
0000
0000
0010
0001
0000
0000
0010
0001
0000
0000
0001
0100
0000
0000
0100
,  // measure 24
0010
0000
0000
0010
1000
0000
0000
1000
0010
0000
1000
0000
0001
0000
1000
0000
,  // measure 25
0000
0000
0000
0100
1000
0000
0000
0100
1000
0000
0000
1000
0010
0000
0100
0000
,  // measure 26
0001
0010
0001
0010
0001
0010
0100
0000
,  // measure 27
1001
0000
0000
0100
0001
0000
0000
0100
0001
0000
0000
0001
0010
0000
0001
0000
,  // measure 28
0100
0001
0010
0001
0010
0001
0000
0100
,  // measure 29
0001
0010
0100
1000
0020
0000
0000
0130
,  // measure 30
0001
0000
0010
0000
0100
0000
1000
0000
0010
0000
0000
0010
0000
0000
0010
0000
,  // measure 31
1000
0000
0000
0010
1000
0000
0000
0010
1000
0000
0000
1000
0001
0000
0000
0100
,  // measure 32
0001
0000
0000
0100
0001
0000
0000
0001
0010
0000
0001
0000
1000
0000
0001
0000
,  // measure 33
0000
0000
0000
0010
0001
0000
0000
0010
0001
0000
0000
0001
1000
0000
0010
0000
,  // measure 34
1000
0100
1000
0100
1000
0100
0010
0000
,  // measure 35
1001
0000
0000
0100
1000
0000
0000
0100
1000
0000
0000
1000
0010
0000
0100
0000
,  // measure 36
0001
0010
0001
0010
0001
0010
1000
0100
,  // measure 37
0001
0010
0100
0000
1010
0000
0000
0100
,  // measure 38
0001
0000
0010
0000
0100
0000
0000
0000
1001
0000
0000
0001
0100
0000
0010
0000
,  // measure 39
0100
0000
0010
0000
1000
0010
1000
0001
,  // measure 40
0010
0001
0010
0001
0010
0100
1000
0000
,  // measure 41
1010
0000
0100
0001
0010
0010
0000
0000
,  // measure 42
0001
0010
1000
0010
0000
0100
0010
1000
,  // measure 43
1000
0000
0010
1000
0100
1000
0001
0001
,  // measure 44
0000
0010
0001
0010
0001
0010
0100
1000
,  // measure 45
0010
0000
1000
0000
0010
0100
0001
0011
,  // measure 46
0000
0100
1000
0010
1000
1000
1000
0000
,  // measure 47
1001
0000
1000
0100
0010
0001
0100
1000
,  // measure 48
0100
0001
0100
0010
0100
0001
0000
0011
,  // measure 49
0000
0010
0100
0000
1001
0000
0000
1100
,  // measure 50
0000
0100
0010
0000
1001
0000
0100
0001
,  // measure 51
0000
0010
0001
0010
0100
1000
0010
1000
,  // measure 52
0010
0100
0010
0100
0010
0100
0001
0000
,  // measure 53
0010
0100
1000
0010
0000
1000
0001
1000
,  // measure 54
0100
0001
0010
1000
0010
0001
0001
0000
,  // measure 55
1001
0000
0010
0001
0100
0000
0010
1000
,  // measure 56
0100
1000
0000
0000
1000
0010
0000
0000
0100
0000
0001
0000
0010
0000
0010
0000
,  // measure 57
0001
0010
0100
0000
1010
0000
0000
0100
,  // measure 58
1000
0100
0010
0000
0101
0000
0001
1000
,  // measure 59
0010
0100
0010
0100
0010
0000
0100
0001
,  // measure 60
0010
0001
0000
0000
0001
0100
0000
0000
0010
0000
1000
0000
0100
0000
0001
0000
,  // measure 61
0100
1000
0100
0010
0000
0001
1000
0010
,  // measure 62
1000
0010
0001
1000
1000
0000
1100
0000
,  // measure 63
2002
0000
0000
0000
,  // measure 64
3003
0000
0000
0000
;

//---------------dance-single - ----------------
#NOTES:
     dance-single:
     :
     Beginner:
     1:
     0.079,0.132,0.032,0.000,0.000: // measure 1
0000
0000
0000
0000
,  // measure 2
0000
0000
0000
0000
,  // measure 3
0000
0000
0000
0000
,  // measure 4
0000
0000
0000
0000
,  // measure 5
0000
0000
0000
0000
,  // measure 6
0000
0000
0000
0000
,  // measure 7
1000
0000
0000
0000
,  // measure 8
0001
0000
0000
0000
,  // measure 9
1000
0000
0000
0000
,  // measure 10
0001
0000
0000
0000
,  // measure 11
0001
0000
0000
0000
,  // measure 12
0010
0000
0000
0000
,  // measure 13
0001
0000
0000
0000
,  // measure 14
1000
0000
0000
0000
,  // measure 15
0100
0000
0000
0000
,  // measure 16
0100
0000
0000
0000
,  // measure 17
1000
0000
0000
0000
,  // measure 18
1000
0000
0000
0000
,  // measure 19
0010
0000
0000
0000
,  // measure 20
0010
0000
0000
0000
,  // measure 21
1000
0000
0000
0000
,  // measure 22
0001
0000
0000
0000
,  // measure 23
0001
0000
0000
0000
,  // measure 24
0010
0000
0000
0000
,  // measure 25
0010
0000
0000
0000
,  // measure 26
0001
0000
0000
0000
,  // measure 27
1000
0000
0000
0000
,  // measure 28
0001
0000
0000
0000
,  // measure 29
0100
0000
0000
0000
,  // measure 30
0100
0000
0000
0000
,  // measure 31
0010
0000
0000
0000
,  // measure 32
0010
0000
0000
0000
,  // measure 33
0100
0000
0000
0000
,  // measure 34
0100
0000
0000
0000
,  // measure 35
0010
0000
0000
0000
,  // measure 36
0010
0000
0000
0000
,  // measure 37
1000
0000
0000
0000
,  // measure 38
1000
0000
0000
0000
,  // measure 39
1001
0000
0000
0000
,  // measure 40
0000
0000
0000
0000
,  // measure 41
0001
0000
0000
0000
,  // measure 42
0000
0000
0000
0000
,  // measure 43
0100
0000
0000
0000
,  // measure 44
0000
0000
0000
0000
,  // measure 45
0001
0000
0000
0000
,  // measure 46
0000
0000
0000
0000
,  // measure 47
1000
0000
0000
0000
,  // measure 48
0000
0000
0000
0000
,  // measure 49
0010
0000
0000
0000
,  // measure 50
0010
0000
0000
0000
,  // measure 51
0100
0000
0000
0000
,  // measure 52
0000
0000
0000
0000
,  // measure 53
0010
0000
0000
0000
,  // measure 54
0000
0000
0000
0000
,  // measure 55
1001
0000
0000
0000
,  // measure 56
0000
0000
0000
0000
,  // measure 57
1000
0000
0000
0000
,  // measure 58
0100
0000
0000
0000
,  // measure 59
1000
0000
0000
0000
,  // measure 60
0001
0000
0000
0000
,  // measure 61
0100
0000
0000
0000
,  // measure 62
0001
0000
0000
0000
,  // measure 63
1001
0000
0000
0000
;

//---------------dance-single - ----------------
#NOTES:
     dance-single:
     :
     Medium:
     6:
     0.430,0.471,0.352,0.107,0.000: // measure 1
0000
0000
0000
0000
,  // measure 2
0000
0000
0000
0000
,  // measure 3
0000
0000
0000
0000
,  // measure 4
0000
0000
0000
0000
,  // measure 5
0000
0000
0000
0000
,  // measure 6
0000
0000
0000
0000
,  // measure 7
0001
1000
0001
1000
,  // measure 8
0001
1000
0001
1000
,  // measure 9
0010
0100
0010
0100
,  // measure 10
2002
0000
0000
3003
,  // measure 11
1100
0010
0001
0010
,  // measure 12
0100
1000
0001
0010
,  // measure 13
0100
1000
0001
0100
,  // measure 14
0010
0010
0000
1000
0000
1000
0000
0000
,  // measure 15
1001
0000
0010
0001
0010
0000
0001
2000
,  // measure 16
0000
0000
0000
0010
0000
3010
0000
1000
,  // measure 17
0000
0100
1000
0000
1001
0000
0000
0001
,  // measure 18
0000
0010
0001
0000
1001
0000
0000
0000
,  // measure 19
0010
1000
0010
0000
1000
0000
1000
0002
,  // measure 20
0000
0000
0000
0100
0000
0103
0000
0000
,  // measure 21
0001
1000
0001
1000
0000
0000
0000
0000
,  // measure 22
0001
0110
1100
1100
,  // measure 23
1001
0000
0100
0000
1000
0001
0000
0001
,  // measure 24
0100
0000
0100
0010
0000
1000
0001
1000
,  // measure 25
0001
0000
1000
0000
0100
0010
0000
0001
,  // measure 26
0000
0001
0000
1000
0000
1000
0000
0000
,  // measure 27
0001
0100
0001
0000
0100
0010
0000
1000
,  // measure 28
0000
1000
0000
0001
0000
0001
0000
1001
,  // measure 29
0000
0100
1000
0000
1001
0000
0000
1001
,  // measure 30
0000
0010
0001
0000
1001
0000
0100
0001
,  // measure 31
0000
0000
0010
0000
0001
0100
0000
0100
,  // measure 32
0010
0000
0010
1000
0000
0100
1000
0100
,  // measure 33
0000
1000
0001
0000
0100
0010
0000
1000
,  // measure 34
0000
1000
0000
0001
0000
0001
0000
0000
,  // measure 35
1001
0000
0100
1000
0100
0000
0000
1000
,  // measure 36
0000
0001
0000
1000
0000
0001
0000
1001
,  // measure 37
0000
0100
1000
0000
1001
0000
0000
1001
,  // measure 38
0000
0010
0001
0000
1001
0000
0000
0000
,  // measure 39
0210
0000
0000
0000
0000
0000
0301
1000
,  // measure 40
0000
0010
0000
0010
0000
1000
0000
0000
,  // measure 41
0120
0000
0000
0000
1030
0001
0000
0000
,  // measure 42
0001
1000
0001
1000
0000
0010
1000
0000
,  // measure 43
0200
0000
0000
0000
0000
0000
1300
0001
,  // measure 44
0000
0100
0000
0100
0000
0010
0000
0010
,  // measure 45
0000
0000
0100
0000
0010
1000
0010
1000
,  // measure 46
0000
0010
0100
0010
0100
0000
0000
0000
,  // measure 47
0011
0000
0100
0000
1000
0000
0100
0010
,  // measure 48
0000
0001
0000
0001
0000
1000
0000
1000
,  // measure 49
0010
0100
0010
0000
0110
0000
0000
0000
,  // measure 50
0100
0010
0100
0000
0110
0000
0000
0000
,  // measure 51
1100
0000
0010
0000
0001
0000
0010
0100
,  // measure 52
0000
1000
0000
1000
0000
0001
0000
0001
,  // measure 53
0100
0010
0100
0010
0000
0000
0000
0000
,  // measure 54
1000
0001
1000
0000
0001
0000
1001
0000
,  // measure 55
1001
0000
0100
0000
1000
0000
0100
0010
,  // measure 56
0000
0001
0100
0001
0100
0001
0000
1001
,  // measure 57
0000
0100
0001
0000
1001
0000
0000
1001
,  // measure 58
0000
0010
1000
0000
1001
0000
0000
0000
,  // measure 59
0001
1000
0001
0000
0100
0000
0010
1000
,  // measure 60
0000
0100
1000
0100
1000
0100
1000
0000
,  // measure 61
0001
1000
0001
2000
0000
0000
0000
0000
,  // measure 62
3001
0010
0001
0000
0110
0000
1010
0000
,  // measure 63
2002
0000
0000
0000
,  // measure 64
3003
0000
0000
0000
;
