#TITLE:Nova emoção;
#SUBTITLE:;
#ARTIST:Berimbau '66;
#TITLETRANSLIT:Nova emocao;
#SUBTITLETRANSLIT:;
#ARTISTTRANSLIT:;
#CREDIT:DMAxel;
#BANNER:Nova emocao.png;
#BACKGROUND:Nova emocao-bg.png;
#LYRICSPATH:;
#CDTITLE:MAMBO A GO GO.png;
#MUSIC:Nova emocao.mp3;
#OFFSET:-0.460;
#SAMPLESTART:40.710;
#SAMPLELENGTH:12.000;
#SELECTABLE:YES;
#BPMS:0.000=94.000,30.000=136.000;
#STOPS:;
#BGCHANGES:;

//---------------dance-single - ----------------
#NOTES:
     dance-single:
     :
     Easy:
     4:
     0.261,0.348,0.278,0.000,0.000:
0000
0000
0000
0000
,
0000
0000
0000
0000
,
0000
0000
0000
0000
,
0000
0000
0000
0000
,
0000
0000
0001
1000
,
0001
1000
0001
0100
,
0010
0100
0010
1000
,
0010
0100
1001
0000
,
0000
0000
0011
0000
,
0000
0000
1001
0000
,
1100
0000
1001
0110
,
1001
0000
0001
0001
,
0001
0001
0010
0100
,
1000
0010
1000
1000
,
1000
1000
0100
0010
,
0001
0100
0001
0001
,
0001
0001
0010
0100
,
1000
0010
1000
1000
,
1000
0010
0110
0000
,
1001
0000
0010
0010
,
1000
0010
1000
1000
,
0001
0100
0100
0100
,
0001
0010
0001
0001
,
0110
0000
1000
1000
,
0010
1000
0001
0001
,
0100
0001
0100
0100
,
0010
0100
0110
0000
,
0000
0000
1001
0000
,
0000
0000
0110
0000
,
1001
0000
0110
1001
,
0000
0000
0011
0100
,
1000
0010
1000
0100
,
1000
0010
0100
0001
,
0010
0001
0100
0001
,
0010
0100
1000
0010
,
1000
0100
1001
0100
,
1000
0010
1001
0100
,
0011
0010
1100
1001
,
0110
0110
0110
1001
,
0000
0000
0010
0010
,
0001
0010
0001
0001
,
0001
1000
0100
1000
,
1000
1000
0010
0100
,
0010
0010
0010
1000
,
0010
0100
0001
0010
,
0010
0010
0001
1000
,
0100
1000
0010
0000
;

//---------------dance-single - ----------------
#NOTES:
     dance-single:
     :
     Hard:
     7:
     0.448,0.423,0.364,0.086,0.086: // measure 1
0000
0000
0000
0000
,  // measure 2
0000
0000
0000
0000
,  // measure 3
0000
0000
0000
0000
,  // measure 4
0000
0000
0000
0000
,  // measure 5
0000
0000
0000
0000
0000
0000
0000
0000
1000
0000
1000
0000
0000
0010
0000
0100
,  // measure 6
0000
0010
0000
0100
0001
0000
0100
0000
0001
0000
0001
0000
0000
0100
0000
0010
,  // measure 7
0000
0100
0000
0010
1000
0000
0010
0000
1000
0000
1000
0000
0000
0010
0000
0100
,  // measure 8
0000
0010
0000
0100
0001
0000
0100
0000
2002
0000
0000
0000
0000
0000
0000
0000
,  // measure 9
0000
3003
0000
1100
2200
0000
0000
0000
,  // measure 10
0000
3300
0000
0011
0011
0000
0000
0101
,  // measure 11
0101
0000
0000
1010
1010
0000
0110
0000
,  // measure 12
1001
0000
0000
0000
1000
0010
1000
0100
,  // measure 13
1000
0010
1000
0100
0010
0000
0001
0100
,  // measure 14
0001
0000
0001
0100
0001
0010
0001
0100
,  // measure 15
0001
0010
0100
0000
1000
0010
1000
0000
,  // measure 16
0100
0010
0001
0000
0010
0001
0010
0100
,  // measure 17
0010
0001
0010
0000
0100
1000
0100
0010
,  // measure 18
0100
1000
0100
0000
0010
0001
0010
0100
,  // measure 19
0010
0001
0010
0000
0110
0000
0000
0000
,  // measure 20
1001
1001
0000
0000
0010
1000
0100
0010
,  // measure 21
0100
0000
1000
0000
0100
0000
0010
0000
0001
0000
0000
0001
0000
0000
0100
0000
,  // measure 22
0010
0100
0010
0000
0100
0001
0010
0100
,  // measure 23
0010
0000
0001
0000
0010
0000
0100
0000
1000
0000
0000
1000
0000
0000
0010
0000
,  // measure 24
0100
0100
0000
0000
0001
0010
0100
0010
,  // measure 25
0001
0010
0100
0000
1000
0100
0010
0100
,  // measure 26
1000
0100
0010
0000
0001
0010
0100
0010
,  // measure 27
0001
0010
0100
0000
2020
0000
0000
0000
,  // measure 28
0000
3030
0000
0101
0202
0000
0000
0000
,  // measure 29
0000
0303
0110
0000
,  // measure 30
1001
0000
0000
0000
0000
0000
0000
0000
0110
0000
0000
0110
0000
0000
0000
1100
,  // measure 31
0000
0011
1001
0000
0100
1000
0100
1000
,  // measure 32
0100
0010
0001
0000
0010
0001
0010
0001
,  // measure 33
0010
0100
1000
0000
0010
1000
0010
1000
,  // measure 34
0100
0010
0001
0000
0100
0001
0100
0001
,  // measure 35
0010
0100
1000
0000
1001
0000
0010
1000
,  // measure 36
0100
0010
0010
0000
1001
0000
0100
0001
,  // measure 37
0010
0100
0100
0000
1001
0000
0010
1000
,  // measure 38
1100
0000
0100
0001
0011
0000
1001
0000
,  // measure 39
0110
0110
0110
1001
,  // measure 40
0000
0000
0000
0000
0001
0010
0100
1000
,  // measure 41
0001
0100
0001
0010
0001
0100
0010
1000
,  // measure 42
0100
0010
0001
0100
0010
0100
0001
0010
,  // measure 43
1000
0010
0001
1000
0010
0000
1000
0100
,  // measure 44
0010
0001
1000
0010
1000
0100
1000
0010
,  // measure 45
0100
0001
0010
0100
1000
0010
0100
0010
,  // measure 46
1000
0100
0001
0100
1000
0000
0001
0100
,  // measure 47
0001
0010
1000
0100
0010
0000
0000
0000
;

//---------------dance-single - ----------------
#NOTES:
     dance-single:
     :
     Challenge:
     9:
     0.574,0.572,0.406,0.021,0.577: // measure 1
0000
0000
0000
0000
,  // measure 2
0000
0000
0000
0000
,  // measure 3
0000
0000
0000
0000
,  // measure 4
0000
0000
0000
0000
,  // measure 5
0000
0000
0000
0000
0000
0000
0000
0000
0001
0000
0001
0010
0000
0100
0010
0000
,  // measure 6
0001
0100
0000
0010
1000
0000
0010
0000
1000
0000
1000
0100
0000
0010
0100
0000
,  // measure 7
1000
0010
0000
0100
0001
0000
0100
0000
0001
0000
0001
0010
0000
0100
0010
0000
,  // measure 8
0001
0100
0000
0010
1000
0000
0010
0000
1001
0000
0000
0001
0100
0000
0000
0001
,  // measure 9
0100
0000
0000
0001
0100
0000
0011
0000
1001
0000
0000
1000
0010
0000
0000
1000
,  // measure 10
0010
0000
0000
1000
0010
0000
1100
0000
1001
0000
0000
0010
0100
0000
1010
0000
,  // measure 11
1001
0000
0000
0100
0010
0000
0101
0000
1001
0000
0000
0000
0110
0000
0000
0000
,  // measure 12
1001
0000
0000
0000
0000
0000
0000
0000
0001
0100
0000
0010
0100
0000
0001
0000
,  // measure 13
0010
0100
0000
1000
0010
0000
1000
0000
0010
0100
0000
0001
0010
0000
0001
0000
,  // measure 14
0100
0010
0000
1000
0100
0000
0010
0000
0001
0100
0000
0010
0100
0000
0001
0000
,  // measure 15
1000
0010
0000
0100
0010
0000
1000
0000
0001
0010
0000
0100
0010
0000
0001
0000
,  // measure 16
1000
0100
0000
0010
0100
0000
1000
0000
0001
0100
0000
0001
0010
0000
0000
0001
,  // measure 17
0010
0000
0000
1001
0000
0000
0000
0000
1000
0010
0000
1000
0100
0000
0000
1000
,  // measure 18
0100
0000
0000
1001
0000
0000
0000
0000
0100
0001
0000
0010
0001
0000
0000
0010
,  // measure 19
0001
0000
0000
0010
0000
0100
0000
0000
0110
0000
1000
0000
0100
0000
0010
0000
,  // measure 20
1001
0000
1001
0000
0000
0000
0000
0000
1000
0100
0000
0010
0100
0000
1000
0000
,  // measure 21
0100
0000
0010
0000
0001
0010
0000
0100
0010
0000
0001
0000
0010
0000
0100
0000
,  // measure 22
1000
0000
0010
0000
1000
0100
0000
0010
0100
0000
1000
0000
0100
0000
0010
0000
,  // measure 23
0001
0000
0100
0000
0010
0001
0000
0010
0100
0000
1000
0000
0001
0000
0100
0000
,  // measure 24
0010
0000
0010
0000
0000
0000
0000
0000
0001
1000
0000
0010
1000
0000
0000
0010
,  // measure 25
1000
0000
0000
1001
0000
0000
0000
0000
1000
0001
0000
0100
0001
0000
0000
0100
,  // measure 26
0001
0000
0000
1001
0000
0000
0000
0000
0001
1000
0000
0010
0100
0000
0000
0010
,  // measure 27
0100
0000
0000
0001
0000
0010
0000
0000
1001
0000
0000
0100
0010
0000
0000
0100
,  // measure 28
0010
0000
0000
0100
0010
0000
1001
0000
0101
0000
0000
0010
0100
0000
0000
0010
,  // measure 29
0100
0000
0000
0010
0100
0000
0000
0000
1010
0000
0000
1000
0001
0000
0000
0000
,  // measure 30
1100
0000
0000
0001
1000
0000
0000
0000
0011
0000
0000
0110
0000
0000
0000
1010
,  // measure 31
0000
0000
1100
0000
1001
0000
0000
0000
0010
0000
0001
0000
0010
0001
0000
0010
,  // measure 32
0100
0000
1000
0000
0010
1000
0000
0000
0100
0000
1000
0000
0100
1000
0000
0100
,  // measure 33
0010
0000
0001
0000
0010
0001
0000
0000
0100
0000
0001
0000
0100
0001
0000
0010
,  // measure 34
0100
0000
1000
0000
0100
1000
0000
0000
0010
0000
1000
0000
0010
1000
0000
0100
,  // measure 35
0010
0000
0001
0000
0010
0001
0000
0000
1001
0000
0010
0000
0100
0000
0001
0000
,  // measure 36
0010
0100
0000
1000
0100
0000
0100
0000
1001
0000
0100
0000
0010
0000
1000
0000
,  // measure 37
0100
0010
0000
0001
0010
0000
0010
0000
1001
0000
0010
0000
0100
0000
0001
0000
,  // measure 38
0011
0000
0010
1000
1100
0000
1001
0000
,  // measure 39
0110
0110
0110
2002
,  // measure 40
0000
0000
0000
0000
3003
0000
0000
0000
1000
0100
0000
0010
0100
0000
1000
0000
,  // measure 41
0100
0000
0010
0000
0001
0000
0100
0000
0001
0010
0000
0100
0010
0000
0001
0000
,  // measure 42
0010
0000
0100
0000
1000
0000
0010
0000
1000
0100
0000
1000
0100
0000
0010
0000
,  // measure 43
0001
0100
1000
0100
0001
0000
0010
0100
,  // measure 44
1000
0000
0001
0000
0100
0000
0001
0000
0010
0001
0000
0010
0001
0000
0100
0000
,  // measure 45
0010
0000
1000
0000
0100
0000
0010
0000
0001
0100
0000
0001
0100
0000
0010
0000
,  // measure 46
1000
0000
0010
0000
0001
0000
0010
0000
1000
0010
0000
1000
0010
0000
0100
0000
,  // measure 47
0001
0100
1000
0100
0010
0000
0000
0000
;

//---------------dance-single - ----------------
#NOTES:
     dance-single:
     :
     Beginner:
     1:
     0.073,0.149,0.075,0.000,0.000:
0000
0000
0000
0000
,
0000
0000
0000
0000
,
0000
0000
0000
0000
,
0000
0000
0000
0000
,
0000
0000
1000
0000
,
0000
0000
0000
0000
,
0000
0000
0001
0000
,
0000
0000
1001
0000
,
0000
0000
1000
0000
,
0000
0000
0001
0000
,
1000
0000
0001
0000
,
0000
0000
0100
0000
,
0000
0000
0000
0000
,
0000
0000
0100
0000
,
0000
0000
0000
0000
,
0000
0000
0010
0000
,
0000
0000
0010
0000
,
0000
0000
0010
0000
,
0000
0000
1000
0000
,
1001
0000
0001
0000
,
0000
0000
0001
0000
,
0000
0000
1000
0000
,
0000
0000
1000
0000
,
0000
0000
0010
0000
,
0000
0000
0010
0000
,
0000
0000
0010
0000
,
0000
0000
0110
0000
,
0000
0000
1000
0000
,
0000
0000
0001
0000
,
0000
0000
1001
0000
,
0000
0000
0100
0000
,
0000
0000
0001
0000
,
0000
0000
0100
0000
,
0000
0000
0001
0000
,
0000
0000
1000
0000
,
0000
0000
0010
0000
,
0000
0000
1001
0000
,
1000
0000
1001
0000
,
0001
0000
1001
0000
,
0000
0000
1000
0000
,
0000
0000
0000
0000
,
0000
0000
0100
0000
,
0000
0000
0000
0000
,
0000
0000
0010
0000
,
0000
0000
0000
0000
,
0000
0000
0001
0000
,
0000
0000
1000
0000
;

//---------------dance-single - ----------------
#NOTES:
     dance-single:
     :
     Medium:
     5:
     0.339,0.323,0.257,0.086,0.043:
0000
0000
0000
0000
,
0000
0000
0000
0000
,
0000
0000
0000
0000
,
0000
0000
0000
0000
,
0000
0000
0000
0000
0001
0010
0001
0000
,
0010
0000
0100
0000
1000
0100
1000
0000
,
0010
0000
0100
0010
0100
0000
0001
0000
,
0110
1010
2002
0000
,
0000
3003
0000
0010
0022
0000
0000
0000
,
0000
0033
0000
0100
1100
0000
0000
1000
,
1010
0000
0000
0001
0101
0000
0110
0000
,
1001
0000
0001
0010
,
0100
1000
0010
0001
,
0010
1000
0100
0001
,
0100
0000
1000
0000
0010
0100
0010
0000
,
0100
0100
0000
0000
0001
1000
0100
0000
,
0100
0000
0000
0100
0000
0000
0000
0000
1000
0000
0001
0000
0010
0000
0000
0000
,
0010
0000
0000
0010
0000
0000
0000
0000
0001
0000
1000
0000
0100
0000
0000
0000
,
0100
0000
0000
0100
0000
0000
0000
0000
0110
0000
0000
0000
0000
0000
0000
0000
,
1001
1001
0000
0000
0100
0001
0010
0000
,
0010
0001
0010
0000
0001
0000
1000
0000
,
0100
0000
0010
0000
0001
1000
0100
0000
,
0100
1000
0100
0000
0010
0000
0001
0000
,
0100
0100
0000
0000
0001
0100
0010
0000
,
0010
0000
0000
0010
0000
0000
0000
0000
1000
0000
0010
0000
0100
0000
0000
0000
,
0100
0000
0000
0100
0000
0000
0000
0000
0001
0000
0100
0000
0010
0000
0000
0000
,
0010
0000
0000
0010
0000
0000
0000
0000
0202
0000
0000
0000
0000
0000
0000
0000
,
0000
0303
0000
1000
2020
0000
0000
0000
,
0000
3030
0110
0000
,
1001
0000
0000
0000
0000
0000
0000
0000
0110
0000
0000
0100
0000
0000
0000
0001
,
0000
1000
0001
0000
0010
0001
0010
0000
,
0001
0010
0100
0000
1000
0100
1000
0000
,
0100
0010
0001
0000
0100
0001
0100
0000
,
0001
0010
0100
0000
1000
0010
1000
0000
,
0100
0010
0001
0000
1010
0000
0100
0000
,
0001
0010
0101
0010
,
1000
0100
0011
0100
,
0110
0010
0110
1001
,
1000
0100
0010
1001
,
0000
0000
0000
0000
1000
0100
0010
0000
,
0001
1000
0001
0000
0010
0100
1000
0000
,
0100
0000
0010
0000
0001
0010
0100
0000
,
1000
0001
1000
0000
0100
0010
0001
0000
,
0100
0000
0010
0000
1000
0100
0010
0000
,
0001
1000
0001
0000
0010
0100
1000
0000
,
0001
0010
0100
0000
1000
0010
1000
0000
,
0100
0010
0001
0010
0001
0000
0000
0000
;

//---------------dance-double - ----------------
#NOTES:
     dance-double:
     :
     Easy:
     4:
     0.287,0.348,0.385,0.086,0.000:
00000000
00000000
00000000
00000000
,
00000000
00000000
00000000
00000000
,
00000000
00000000
00000000
00000000
,
00000000
00000000
00000000
00000000
,
00000000
00000000
10000000
00010000
,
01000000
00100000
10000000
00010000
,
00001000
00000001
00000100
00000010
,
00001000
00000001
00011000
00000000
,
00000000
00000000
00110000
00000000
,
00000000
00000000
10010000
00000000
,
00011000
00000000
00001100
00001001
,
00001001
00000000
00000001
00000001
,
00000001
00000001
00000010
00000100
,
00001000
00010000
00100000
01000000
,
10000000
10000000
01000000
00100000
,
00010000
00001000
00000100
00000010
,
00000001
00001001
00010000
00100000
,
01000000
10010000
00001000
00000100
,
00000010
00001001
00001000
00010000
,
10010000
00000000
00100000
00100000
,
10000000
01000000
00200000
00000000
,
00310000
00001000
00000010
00000010
,
00000001
00000010
00000200
00000000
,
00001300
00010000
10000000
10000000
,
10000000
11000000
00010000
00010000
,
00010000
00011000
00000000
00000001
,
00000001
00000001
00000022
00000000
,
00000000
00000033
00022000
00000000
,
00000000
00033000
11000000
00000000
,
10010000
00000000
00011000
00002002
,
00000000
00003003
00000011
01000100
,
10001000
00100100
10000010
01000001
,
10000100
00001000
00010000
00100000
,
01000000
10000000
00100000
00010000
,
00001000
00000100
00000110
00000001
,
00000010
00000100
00011000
00100000
,
01000000
10000000
10010000
00100000
,
00011000
00000100
00001001
00001001
,
00011000
00011000
10010000
10010000
,
00000000
00000000
10000000
01000000
,
00100000
00010000
01000000
00010000
,
00001000
00000100
00000010
00000001
,
00001000
00000010
00001000
00010000
,
00100000
01000000
10000000
00010000
,
00100000
00010000
00001000
00000100
,
00000010
00000001
00000100
00001000
,
00010000
00100000
10000000
00000000
;
