#TITLE:Nick Boys;
#SUBTITLE:;
#ARTIST:NICK BOYS;
#TITLETRANSLIT:;
#SUBTITLETRANSLIT:;
#ARTISTTRANSLIT:;
#CREDIT:DMAxel;
#BANNER:Nick Boys.png;
#BACKGROUND:Nick Boys-bg.png;
#LYRICSPATH:;
#CDTITLE:ee'mall.png;
#MUSIC:Nick Boys.mp3;
#OFFSET:-0.260;
#SAMPLESTART:55.206;
#SAMPLELENGTH:12.000;
#SELECTABLE:YES;
#BPMS:0.000=109.000;
#STOPS:;
#BGCHANGES:;

//---------------dance-single - ----------------
#NOTES:
     dance-single:
     :
     Easy:
     2:
     0.093,0.182,0.124,0.000,0.000: // measure 1
0000
0000
0000
0000
,  // measure 2
0000
0000
0000
0000
,  // measure 3
0000
0000
0000
0000
,  // measure 4
0000
0000
0000
0000
,  // measure 5
0000
0000
0000
0000
,  // measure 6
1001
0000
0000
0000
,  // measure 7
0001
0000
0000
0000
,  // measure 8
1001
0000
0000
0000
,  // measure 9
0100
0000
0000
0000
,  // measure 10
0010
0000
0000
0000
,  // measure 11
0100
0000
0000
0000
,  // measure 12
0110
0000
0000
0000
,  // measure 13
1001
0010
0100
0010
,  // measure 14
1001
0000
0000
0000
,  // measure 15
1000
0000
0000
0000
,  // measure 16
0100
0000
0000
0000
,  // measure 17
0010
0000
0000
0000
,  // measure 18
0001
0000
0000
0000
,  // measure 19
0100
0000
0000
0000
,  // measure 20
0001
0000
0000
0000
,  // measure 21
1000
0001
1000
1001
,  // measure 22
0010
0000
0000
0000
,  // measure 23
0100
0000
0000
0010
,  // measure 24
0000
0000
0000
0100
,  // measure 25
0000
0000
0000
0001
,  // measure 26
1000
0000
0001
0000
,  // measure 27
1000
0000
0010
0000
,  // measure 28
1000
0000
0100
0000
,  // measure 29
1000
0000
0000
0000
,  // measure 30
1001
0000
0000
0000
,  // measure 31
0010
0000
0000
0000
,  // measure 32
0100
0000
0000
0000
,  // measure 33
0001
0000
0000
0000
,  // measure 34
0010
0000
0000
0000
,  // measure 35
0001
0010
0011
0000
,  // measure 36
1000
0100
1100
0000
,  // measure 37
0001
0000
0000
0000
,  // measure 38
1000
0000
0000
0000
,  // measure 39
0010
0000
0000
0000
,  // measure 40
1000
0000
0000
0000
,  // measure 41
0100
0000
0000
0000
,  // measure 42
0010
0000
0000
0000
,  // measure 43
0001
0000
0000
0000
,  // measure 44
0110
0000
0000
0000
,  // measure 45
1000
0000
0000
0000
,  // measure 46
1001
0010
0100
0010
,  // measure 47
1001
0000
0000
0100
,  // measure 48
0110
0000
0000
0001
,  // measure 49
1001
0000
0000
0000
,  // measure 50
0110
0000
0000
0000
;

//---------------dance-single - ----------------
#NOTES:
     dance-single:
     :
     Hard:
     7:
     0.371,0.387,0.281,0.000,0.264: // measure 1
0000
0000
0000
0000
,  // measure 2
0000
0000
0000
0000
,  // measure 3
0000
0000
0000
0000
,  // measure 4
0000
0000
0000
0000
,  // measure 5
0000
0000
0000
0000
,  // measure 6
1001
0000
0000
0000
1000
0000
0000
0000
0000
0000
0010
0000
0000
0010
0000
0000
,  // measure 7
0011
0000
0000
0000
0001
0000
0000
0000
0000
0000
0100
0000
0000
0100
0000
0000
,  // measure 8
1100
0000
0000
0000
1000
0000
0000
0000
0000
0000
0100
0000
0000
0100
0000
0000
,  // measure 9
1001
0001
0110
0110
,  // measure 10
1001
0000
0000
0000
1000
0000
0000
0000
0000
0000
0010
0000
0000
1000
0000
0000
,  // measure 11
0011
0000
0000
0000
0001
0000
0000
0000
0000
0000
0100
0000
0000
0001
0000
0000
,  // measure 12
1100
0000
0000
0000
1000
0000
0000
0000
0000
0000
0100
0000
0000
1000
0000
0000
,  // measure 13
0110
0000
0000
0000
1001
0000
0000
0100
0000
0100
0000
0001
0010
0000
0000
0000
,  // measure 14
0001
0000
1000
0000
0000
0100
1000
0100
0000
0000
0000
0000
1010
0000
0000
0000
,  // measure 15
1000
0000
0001
0000
0000
0010
0001
0010
0000
0000
0000
0000
0101
0000
0000
0000
,  // measure 16
0001
0000
1000
0000
0000
0010
1000
0010
0000
0000
0000
0000
1100
0000
0000
0000
,  // measure 17
1000
0000
0001
0000
0000
0100
0001
0100
0000
0000
0000
0000
0011
0000
0000
0000
,  // measure 18
0001
0000
1000
0000
0010
0100
0010
0100
0000
0010
0000
1000
0000
0000
0000
0000
,  // measure 19
1000
0000
0001
0000
0100
0010
0100
0010
0000
0100
0000
0001
0000
0000
0001
0000
,  // measure 20
1001
0000
0000
0000
0010
0000
1000
0100
0000
1000
0000
0010
0100
0000
0000
0000
,  // measure 21
0011
1001
1100
1001
,  // measure 22
0010
0000
1000
0000
0010
0000
0000
0000
0100
0000
0000
0100
0000
0000
0100
0000
,  // measure 23
0001
0000
0100
0000
0001
0000
0000
0000
0000
0010
0000
0001
0100
0000
0000
0000
,  // measure 24
0001
0000
1000
0000
0001
0000
0000
0000
0100
0000
0000
0100
0000
0000
0100
0000
,  // measure 25
0010
0000
1000
0000
0010
0000
0000
0000
0000
0100
0000
1000
0010
0000
0000
1000
,  // measure 26
0010
0000
0000
0010
1000
0000
0000
0001
0100
0000
0000
0100
0001
0000
0000
0001
,  // measure 27
1000
0000
0000
1000
0001
0000
0000
0100
0010
0000
0000
0010
0100
0000
0000
0001
,  // measure 28
0010
0000
0000
0010
0001
0000
0000
1000
0100
0000
0000
0100
1000
0000
0000
0010
,  // measure 29
0100
0000
0000
0010
0100
0000
0000
0000
0000
0000
0000
0000
0000
0000
0000
0000
,  // measure 30
0001
0100
0001
1000
0100
1000
0001
0000
,  // measure 31
1000
0010
1000
0001
0010
0001
1000
0000
,  // measure 32
0001
0100
1000
0010
0100
0010
1000
0000
,  // measure 33
0001
0010
1000
0010
0100
0010
1000
0000
,  // measure 34
0110
0000
0000
0000
0001
0000
0010
0001
0000
0010
0000
1000
0000
0000
0000
0000
,  // measure 35
1001
0000
0000
0000
1000
0000
0100
1000
0000
0100
0000
0001
0000
0000
0000
0000
,  // measure 36
1001
0000
0000
0000
0001
0000
0100
0001
0000
0100
0000
1000
0000
0000
0000
0000
,  // measure 37
1001
0000
0000
1000
0001
0000
0000
0000
0000
0000
0000
0000
0000
0000
0000
0000
,  // measure 38
0010
0010
0001
0010
1000
0010
0110
0000
,  // measure 39
0100
0100
1000
0100
0001
0100
0110
0000
,  // measure 40
0010
0001
0010
1000
0010
0001
1001
0000
,  // measure 41
0100
1000
0100
0001
0100
1000
1001
0000
,  // measure 42
0010
1000
0010
0000
1000
0000
0100
0000
0001
0000
0100
0000
1001
0000
0000
0000
,  // measure 43
0100
0001
0100
0000
0001
0000
0010
0000
1000
0000
0010
0000
1001
0000
0000
0000
,  // measure 44
0100
1000
0100
0000
1000
0000
0010
0000
0001
0000
0010
0000
1001
0000
0000
0000
,  // measure 45
0010
0001
0010
0000
0001
0000
0100
0000
1000
0000
0100
0000
1001
0000
0000
0000
,  // measure 46
0110
0000
0010
1000
0100
1000
0100
0010
,  // measure 47
0001
0100
0001
0000
0100
0010
0110
0000
,  // measure 48
0100
0001
0010
0001
0010
0100
1000
0010
,  // measure 49
1000
0000
0010
0100
0001
0100
1000
0010
,  // measure 50
0001
1000
0001
1000
0001
0000
0000
0000
0000
0000
0000
0000
0000
0000
0000
0000
;

//---------------dance-single - ----------------
#NOTES:
     dance-single:
     :
     Challenge:
     8:
     0.473,0.468,0.314,0.017,0.459: // measure 1
0000
0000
0000
0000
,  // measure 2
0000
0000
0000
0000
,  // measure 3
0000
0000
0000
0000
,  // measure 4
0000
0000
0000
0000
,  // measure 5
0000
0000
0000
0000
,  // measure 6
1100
0000
0010
0000
0001
0000
0010
0000
0100
0000
1010
0000
0000
1010
0000
0000
,  // measure 7
0011
0000
0100
0000
1000
0000
0100
0000
0010
0000
0101
0000
0000
0101
0000
0000
,  // measure 8
1100
0000
0010
0000
0001
0000
0000
0000
0010
0000
1100
0000
0000
1100
0000
0000
,  // measure 9
0101
0000
0010
0000
1000
0000
0100
1000
0100
0000
0010
0001
0010
0000
0100
0000
,  // measure 10
1010
0000
0100
0000
0001
0000
1000
0000
0100
0000
0011
0000
0000
0011
0000
0000
,  // measure 11
0100
1000
0100
0000
1000
0000
0100
0000
0010
0000
0101
0000
0000
0110
0000
0000
,  // measure 12
1010
0000
0100
0000
0001
0000
0010
0001
0010
0000
1100
0000
0000
0110
0000
0000
,  // measure 13
0101
0000
0000
0010
0100
0000
0010
1000
0000
0100
0000
1000
0010
0000
0000
0000
,  // measure 14
1001
0000
1000
0000
0010
0000
1000
0100
0000
0000
0010
0000
0010
0000
0001
0000
,  // measure 15
0010
0000
0100
0000
1000
0000
0001
0010
0000
0000
0100
0000
0110
0000
1000
0000
,  // measure 16
0100
0000
0010
0000
0001
0000
1000
0010
0000
0000
0100
0000
0110
0000
0001
0000
,  // measure 17
0010
0000
0100
0000
1000
0000
0001
0100
0000
0000
0010
0000
0010
0000
1000
0000
,  // measure 18
0100
0000
1000
0000
0010
0000
1000
0100
0000
0100
0000
0100
1000
0000
0100
0000
,  // measure 19
0010
0000
0001
0000
0100
0000
0001
0010
0000
0010
0000
0010
0000
0001
0100
0000
,  // measure 20
0110
0000
1000
0000
0010
0000
1000
0100
0000
0100
0000
0100
0010
0000
0001
0000
,  // measure 21
1001
0000
0000
0001
0100
0000
0000
0100
0010
0000
0000
0010
1000
0000
0000
0000
,  // measure 22
0100
0000
1000
0000
0010
1000
0000
0100
0000
1000
0000
1001
0000
0000
0100
0000
,  // measure 23
0100
0000
0001
0000
0010
0001
0000
0100
0000
0001
0000
0001
1000
0000
0000
0000
,  // measure 24
0010
0000
0100
0000
0001
0010
0000
0100
0000
0010
0000
1001
0000
0000
0010
0000
,  // measure 25
0010
0000
1000
0000
0100
1000
0000
0010
0000
1000
0000
1000
0001
0000
0000
0000
,  // measure 26
1001
0000
0000
0011
0000
0000
0100
0010
0000
0010
0000
0100
0000
0001
0000
0000
,  // measure 27
1001
0000
0000
1100
0000
0000
0010
0100
0000
0100
0000
0010
0000
1000
0000
0000
,  // measure 28
1001
0000
0000
1010
0000
0000
0100
0010
0000
0010
0000
1000
0000
0001
0000
0001
,  // measure 29
1000
0000
0000
1000
0001
0000
0000
0100
0000
0001
0010
0001
0010
0100
0000
0000
,  // measure 30
1001
0001
0010
0100
1000
1000
0001
0000
,  // measure 31
1000
1000
0100
0010
0001
0001
1000
0000
,  // measure 32
0010
0010
1000
0100
0001
0100
1000
0000
,  // measure 33
0100
0100
1000
0010
0001
0010
1000
0000
,  // measure 34
0001
0000
0010
0000
0001
0000
0100
0001
0000
0001
0000
0010
0100
0000
0000
0000
,  // measure 35
1000
0000
0100
0000
1000
0000
0010
1000
0000
1000
0000
0100
0000
0010
0000
0000
,  // measure 36
0001
0000
0100
0000
0001
0000
0010
0001
0000
0001
0000
0010
0100
0000
0000
0000
,  // measure 37
1001
0000
0000
2000
0020
0000
0000
0000
0000
0000
0000
0000
3030
0000
0000
0000
,  // measure 38
0100
0001
0100
0001
0100
0000
0001
0000
0010
0000
1000
0000
0010
0000
0100
0000
,  // measure 39
0010
1000
0010
1000
0010
0000
1000
0000
0100
0000
0001
0000
0100
0000
0010
0000
,  // measure 40
0100
0001
0100
0001
0100
0000
0001
0000
0010
0000
1000
0000
0010
0000
0100
0000
,  // measure 41
0010
1000
0010
1000
0010
0000
1000
0000
0100
0000
0001
0000
0010
0000
0000
0000
,  // measure 42
0001
1000
0001
1000
0001
0000
0010
0000
1000
0000
0100
0000
0110
0000
0000
0000
,  // measure 43
1000
0001
1000
0001
1000
0000
0100
0000
0001
0000
0010
0000
0110
0000
0000
0000
,  // measure 44
0001
1000
0001
1000
0001
0000
0010
0000
0100
0000
1000
0010
0000
0000
0000
0000
,  // measure 45
1000
0001
1000
0001
1000
0000
0100
0000
0010
0000
0001
0100
0000
0000
0000
0000
,  // measure 46
1001
0000
1000
0000
0010
1000
0000
0100
0000
0100
0000
1000
0001
0000
0010
0000
,  // measure 47
0100
1000
0100
1000
0010
0000
0000
0000
1000
0000
0010
0000
0100
0000
0010
0000
,  // measure 48
1001
0000
0001
0000
0100
0001
0000
0010
0000
0010
0000
0001
1000
0000
0000
0000
,  // measure 49
0010
0000
0010
0000
1000
0100
1000
0100
0010
0000
0001
0000
0010
0000
0100
0000
,  // measure 50
1000
0010
1000
0100
0010
0000
0000
0000
0000
0000
0000
0000
0000
0000
0000
0000
;

//---------------dance-single - ----------------
#NOTES:
     dance-single:
     :
     Medium:
     4:
     0.266,0.304,0.240,0.000,0.050: // measure 1
0000
0000
0000
0000
,  // measure 2
0000
0000
0000
0000
,  // measure 3
0000
0000
0000
0000
,  // measure 4
0000
0000
0000
0000
,  // measure 5
0000
0000
0000
0000
,  // measure 6
1001
0010
0010
0010
,  // measure 7
1001
0100
0100
0100
,  // measure 8
1001
0010
0001
0010
,  // measure 9
1001
0100
0110
1001
,  // measure 10
0100
1000
0100
0010
,  // measure 11
0001
0100
0001
0010
,  // measure 12
0100
1000
0010
1000
,  // measure 13
0110
0110
1001
1001
,  // measure 14
0001
0000
0010
0000
,  // measure 15
1000
0000
0100
0000
,  // measure 16
0001
0000
0100
0000
,  // measure 17
1000
0000
0010
0000
,  // measure 18
1001
0010
1000
0100
,  // measure 19
1001
0000
0010
0000
0001
0000
0100
0100
,  // measure 20
0110
1001
0010
1001
,  // measure 21
0010
1000
0010
1000
0010
0100
0001
0100
,  // measure 22
0001
0000
0000
0000
0000
0000
0000
0000
0000
0000
0000
1001
0000
0000
0000
0000
,  // measure 23
0000
0000
0000
0000
0000
0000
0000
0000
0000
1001
0000
0000
1000
0000
0000
0000
,  // measure 24
0000
0000
0000
0000
0000
0000
0000
0000
0000
0000
0000
1001
0000
0000
0000
0000
,  // measure 25
0001
0000
0000
0000
0000
0000
0000
0000
0000
1000
0000
1000
0001
0000
0000
0000
,  // measure 26
0100
0000
0000
0100
0010
0000
0000
0000
0100
0000
0000
0100
0010
0000
0000
0000
,  // measure 27
1000
0000
0000
1000
0001
0000
0000
0000
1000
0000
0000
1000
0001
0000
0000
0000
,  // measure 28
0100
0000
0000
0100
0010
0000
0000
0000
0100
0000
0000
0100
0010
0000
0000
0000
,  // measure 29
1001
1001
0000
0000
,  // measure 30
0100
0001
0100
0000
0010
1000
0010
0000
,  // measure 31
0100
0010
0100
0000
0010
0100
0010
0000
,  // measure 32
1000
0100
1000
0000
0001
0010
0001
0000
,  // measure 33
0100
0001
0010
0000
0100
1000
0010
0000
,  // measure 34
0110
1000
0110
0001
,  // measure 35
1001
0010
1001
0100
,  // measure 36
1001
0000
0010
0000
0010
0100
0010
0000
,  // measure 37
1000
0000
0000
1000
0001
0000
0000
0000
0000
0000
0000
0000
0000
0000
0000
0000
,  // measure 38
0100
0010
0100
0010
0100
0000
0000
0000
,  // measure 39
0001
0100
0001
0100
0001
0000
0000
0000
,  // measure 40
1000
0010
1000
0010
1000
0000
0000
0000
,  // measure 41
0010
0100
0010
0100
0010
0000
0000
0000
,  // measure 42
1000
0100
1000
0100
1000
0000
0000
0000
,  // measure 43
0001
0010
0001
0010
0001
0000
0000
0000
,  // measure 44
1000
0100
0010
0001
0100
0001
0100
0000
,  // measure 45
0001
0010
0100
1000
0010
1000
0010
0000
,  // measure 46
0110
0000
1000
0010
0001
0000
0100
0000
,  // measure 47
0110
0000
0001
0100
1000
0000
0010
0000
,  // measure 48
0110
1000
0100
0001
,  // measure 49
0100
0010
0100
0001
0010
0100
1000
0000
,  // measure 50
1001
0000
0000
0000
;

//---------------dance-single - ----------------
#NOTES:
     dance-single:
     :
     Beginner:
     1:
     0.048,0.081,0.025,0.000,0.000:
0000
0000
0000
0000
,
0000
0000
0000
0000
,
0000
0000
0000
0000
,
0000
0000
0000
0000
,
0000
0000
0000
0000
,
1001
0000
0000
0000
,
1000
0000
0000
0000
,
0001
0000
0000
0000
,
1000
0000
0000
0000
,
0010
0000
0000
0000
,
0100
0000
0000
0000
,
0010
0000
0000
0000
,
0000
0000
0000
0000
,
1000
0000
0000
0000
,
0000
0000
0000
0000
,
0001
0000
0000
0000
,
0000
0000
0000
0000
,
1000
0000
0000
0000
,
0100
0000
0000
0000
,
0010
0000
0000
0000
,
0001
0000
0000
0000
,
0000
0000
0000
0000
,
0000
0000
0000
0000
,
0000
0000
0000
0000
,
0000
0000
0000
0000
,
1001
0000
0000
0000
,
1000
0000
0000
0000
,
0001
0000
0000
0000
,
1000
0000
0000
0000
,
0010
0000
0000
0000
,
0100
0000
0000
0000
,
0010
0000
0000
0000
,
0100
0000
0000
0000
,
0001
0000
0000
0000
,
0001
0000
0000
0000
,
1000
0000
0000
0000
,
1001
0000
0000
0000
,
0001
0000
0000
0000
,
0001
0000
0000
0000
,
0001
0000
0000
0000
,
0001
0000
0000
0000
,
1000
0000
0000
0000
,
1000
0000
0000
0000
,
1000
0000
0000
0000
,
1000
0000
0000
0000
,
0010
0000
0000
0000
,
0010
0000
0000
0000
,
0100
0000
0000
0000
,
0010
0000
0000
0000
,
0010
0000
0000
0000
;
