#TITLE:ニワトリなのだ;
#SUBTITLE:;
#ARTIST:A.I. Units;
#TITLETRANSLIT:NIWATORI NANODA;
#SUBTITLETRANSLIT:;
#ARTISTTRANSLIT:;
#CREDIT:DMAxel;
#BANNER:NIWATORI NANODA.png;
#BACKGROUND:NIWATORI NANODA-bg.png;
#LYRICSPATH:NIWATORI NANODA.lrc;
#CDTITLE:pop'n music.png;
#MUSIC:NIWATORI NANODA.mp3;
#OFFSET:-0.420;
#SAMPLESTART:32.970;
#SAMPLELENGTH:12.000;
#SELECTABLE:YES;
#BPMS:0.000=158.020;
#STOPS:;
#BGCHANGES:;

//---------------dance-single - ----------------
#NOTES:
     dance-single:
     :
     Easy:
     4:
     0.321,0.288,0.071,0.080,0.000: // measure 1
0000
0000
0000
0000
,  // measure 2
1000
0100
0001
0100
,  // measure 3
0001
0100
0001
1000
,  // measure 4
0001
0010
1000
0010
,  // measure 5
0000
0220
0000
0000
0000
0000
0330
0000
,  // measure 6
0001
0010
0100
0010
,  // measure 7
0100
1000
0100
1000
,  // measure 8
0001
1000
0100
0010
,  // measure 9
0100
0010
0100
0010
,  // measure 10
0001
1000
0001
0100
,  // measure 11
0010
1000
0100
1000
,  // measure 12
0010
0100
0010
0100
,  // measure 13
0001
1000
1000
1001
,  // measure 14
0010
0010
0010
0000
,  // measure 15
0100
0100
0100
0000
,  // measure 16
0010
0010
0010
1000
,  // measure 17
0001
1000
0000
0000
,  // measure 18
0100
0100
0100
0000
,  // measure 19
0010
0010
0010
0000
,  // measure 20
0100
0100
0100
1000
,  // measure 21
1001
0000
0000
0001
0000
0000
1000
0000
,  // measure 22
0000
0000
0000
0000
,  // measure 23
0010
0100
0010
0100
,  // measure 24
0001
0100
0001
0100
,  // measure 25
0010
1000
0010
1000
,  // measure 26
0100
1000
0100
1000
,  // measure 27
0001
0001
1000
1000
,  // measure 28
0001
0001
1000
1000
,  // measure 29
0001
0010
0100
1000
,  // measure 30
0010
0000
0000
0000
,  // measure 31
1000
0001
1000
0001
,  // measure 32
1000
0100
1000
0100
,  // measure 33
0010
0001
0010
0001
,  // measure 34
0100
0001
0100
0010
,  // measure 35
1000
1000
0001
0001
,  // measure 36
2000
0000
0000
0000
,  // measure 37
3002
0000
0000
1000
,  // measure 38
1003
0100
0001
0100
,  // measure 39
0001
0100
0001
1000
,  // measure 40
0001
0010
1000
0010
,  // measure 41
0000
0220
0000
0000
0000
0000
0330
0000
,  // measure 42
1000
0010
1000
0001
,  // measure 43
0010
0001
1000
0001
,  // measure 44
1000
0010
1000
0100
,  // measure 45
0001
1000
0001
0000
,  // measure 46
0010
0001
1000
0001
,  // measure 47
1000
0010
1000
0000
,  // measure 48
0001
0010
0001
0010
,  // measure 49
0001
1000
0001
1000
,  // measure 50
0100
0000
0100
0000
,  // measure 51
0000
0000
0000
0000
,  // measure 52
1001
0000
1000
0010
,  // measure 53
1000
0100
1000
0010
,  // measure 54
1000
0100
1000
0001
,  // measure 55
0010
0001
0010
0001
,  // measure 56
1000
1000
0001
0001
,  // measure 57
1000
1000
0001
0001
,  // measure 58
0010
0100
1000
0001
,  // measure 59
0010
0000
0000
0000
,  // measure 60
1001
0000
0001
0100
,  // measure 61
0001
0010
0001
0100
,  // measure 62
0010
1000
0010
1000
,  // measure 63
0100
1000
0100
1000
,  // measure 64
0001
0001
1000
1000
,  // measure 65
0002
0000
0000
0000
,  // measure 66
2003
0000
0000
0001
,  // measure 67
3001
0010
1000
0010
,  // measure 68
1000
0010
1000
0010
,  // measure 69
1000
0100
0001
0100
,  // measure 70
0001
0100
0001
2000
,  // measure 71
0000
0000
0000
0000
,  // measure 72
0000
3000
0000
0000
1001
0000
0010
0000
,  // measure 73
1001
0000
0000
0000
;

//---------------dance-single - ----------------
#NOTES:
     dance-single:
     :
     Medium:
     6:
     0.445,0.448,0.178,0.044,0.000: // measure 1
0000
0000
0000
0000
,  // measure 2
0010
0000
0010
1000
0010
0000
0010
0100
,  // measure 3
0010
0000
0010
1000
0010
0000
0001
0000
,  // measure 4
0100
0000
0100
0001
0100
0000
0100
0010
,  // measure 5
0000
1000
0001
0000
0001
0000
0001
0000
,  // measure 6
1001
0100
0010
0001
,  // measure 7
1000
0000
0100
0000
0010
0100
0010
0000
,  // measure 8
1001
0010
0100
1000
,  // measure 9
0001
0000
0010
0000
0100
0010
0100
0000
,  // measure 10
1001
0100
0010
0001
,  // measure 11
1000
0000
0100
0000
0010
0100
0010
0000
,  // measure 12
1001
0010
0100
1000
,  // measure 13
0001
0010
0100
0110
,  // measure 14
1000
0000
0100
0000
0010
0001
1000
0000
,  // measure 15
0001
0000
0010
0000
0100
1000
0001
0000
,  // measure 16
1000
0000
0100
0000
0010
0001
1000
0000
,  // measure 17
0001
0000
0010
0000
0100
1000
0001
0000
,  // measure 18
1000
0000
0010
0000
0100
0001
1000
0000
,  // measure 19
0001
0000
0100
0000
0010
1000
0001
0000
,  // measure 20
1000
0000
0010
0000
0100
0001
1000
0000
,  // measure 21
0001
0001
0000
1000
1000
0000
0010
0010
,  // measure 22
0000
0000
0000
0000
,  // measure 23
1001
0010
0100
0010
,  // measure 24
0001
1000
0100
0010
,  // measure 25
0100
1000
0001
0010
,  // measure 26
1000
0000
0001
0000
1000
0000
0001
0010
,  // measure 27
1000
1000
0100
0100
,  // measure 28
0001
0001
0010
0010
,  // measure 29
1000
0001
1000
0001
1000
0000
0100
0000
,  // measure 30
0011
1000
0011
1000
,  // measure 31
1001
0100
0010
0100
,  // measure 32
1000
0001
0010
0100
,  // measure 33
0010
0001
1000
0100
,  // measure 34
0001
0000
1000
0000
0001
0000
1000
0100
,  // measure 35
0001
0001
0010
0010
,  // measure 36
2000
0001
0001
3001
,  // measure 37
0002
0000
1000
0000
1000
0000
1003
0100
,  // measure 38
0001
0000
0100
0001
0100
0000
0100
0010
,  // measure 39
0100
0000
0100
0001
0100
0000
1000
0000
,  // measure 40
0010
0000
0010
1000
0010
0000
0010
0100
,  // measure 41
0000
0001
1000
0000
1000
0000
1000
0000
,  // measure 42
1001
0000
1000
0010
0100
0000
0010
0100
,  // measure 43
0010
0000
0100
0010
1000
0000
1000
0000
,  // measure 44
1001
0000
0001
0100
0010
0000
0100
0010
,  // measure 45
0100
0000
0010
0100
0001
0000
0001
0000
,  // measure 46
1001
0000
1000
0100
0010
0000
0100
0010
,  // measure 47
0100
0000
0010
0100
1000
0000
1000
0000
,  // measure 48
1001
0000
0001
0010
0100
0010
0100
0000
,  // measure 49
0010
0000
0100
0010
0100
0010
0001
0000
,  // measure 50
1000
1000
0000
0000
0001
0001
0000
0000
,  // measure 51
0000
0000
0000
0000
,  // measure 52
1001
0010
0100
0010
,  // measure 53
0001
1000
0100
0010
,  // measure 54
0100
1000
0001
0010
,  // measure 55
1000
0000
0001
0000
1000
0000
0001
0010
,  // measure 56
1000
1000
0100
0100
,  // measure 57
0001
0001
0010
0010
,  // measure 58
1000
0001
1000
0001
1000
0000
0100
0000
,  // measure 59
0011
1000
0011
1000
,  // measure 60
1001
0100
0010
0100
,  // measure 61
1000
0001
0010
0100
,  // measure 62
0010
0001
1000
0100
,  // measure 63
0001
0000
1000
0000
0001
0000
1000
0100
,  // measure 64
0001
0001
0010
0010
,  // measure 65
2000
0001
0001
3001
,  // measure 66
0002
0000
1000
0000
1000
0000
1003
0100
,  // measure 67
0001
0000
0100
0010
0100
0000
0100
0010
,  // measure 68
1000
0000
0010
0100
0010
0000
1000
0000
,  // measure 69
1001
0000
0010
0100
0010
0000
0010
0100
,  // measure 70
0001
0000
0100
0010
0100
0000
0002
0000
,  // measure 71
0000
0000
0000
0000
,  // measure 72
0000
1003
1000
1000
0010
0000
0110
0000
,  // measure 73
1001
0000
0000
0000
;

//---------------dance-single - ----------------
#NOTES:
     dance-single:
     :
     Hard:
     8:
     0.629,0.576,0.471,0.044,0.196: // measure 1
0000
0000
0000
0000
,  // measure 2
1001
0000
0000
0001
1000
0000
0100
0000
0001
0000
0000
0000
1000
0000
0100
0000
,  // measure 3
0001
0000
1000
0100
0001
1000
0001
0000
,  // measure 4
1001
0000
0000
1000
0001
0000
0010
0000
1000
0000
0000
0000
0010
0000
0100
0000
,  // measure 5
0000
0000
0001
0000
0001
0000
0001
0000
1000
0010
0000
0000
0110
0000
0000
0000
,  // measure 6
0001
0000
0000
0000
0010
0000
0000
0001
0010
0000
0000
0000
0100
0000
0000
1000
,  // measure 7
0100
0000
0000
0000
0010
0000
0000
0001
0010
0000
0100
0000
0010
0000
0000
0000
,  // measure 8
0001
0000
0000
0000
0100
0000
0000
0001
1000
0000
0100
0000
1000
0000
0100
0000
,  // measure 9
1000
0000
0010
0100
0001
0000
0001
1000
,  // measure 10
0001
0000
0000
0000
0100
0000
0000
0001
0100
0000
0000
0000
0010
0000
0000
1000
,  // measure 11
0010
0000
0100
0001
1000
0000
1001
0000
,  // measure 12
0001
0000
0000
0000
0100
0000
0000
0001
1000
0000
0100
0000
1000
0000
0100
0000
,  // measure 13
1000
0001
0010
0100
0010
0000
0110
0000
,  // measure 14
1000
0000
0000
0010
0100
0000
0000
0010
0100
0000
0001
0000
0010
0000
0000
0000
,  // measure 15
0001
0000
0000
0100
0010
0000
0000
0100
0010
0000
1000
0000
0100
0000
0000
0000
,  // measure 16
1000
0000
0000
0010
0100
0000
0000
0010
0100
0000
0001
0000
0010
0000
0000
0000
,  // measure 17
0001
0000
0000
0100
0010
0000
0000
0100
0010
0000
1000
0000
0100
0000
0000
0000
,  // measure 18
1000
0000
0000
0010
0100
0000
0000
0010
0100
0000
0001
0000
0100
0000
0000
0000
,  // measure 19
0001
0000
0000
0100
0010
0000
0000
0100
0010
0000
1000
0000
0010
0000
0000
0000
,  // measure 20
1000
0000
0000
0010
0100
0000
0000
0010
0100
0000
0001
0000
0100
0000
0010
0000
,  // measure 21
1000
0100
0000
0001
0100
0000
1000
0100
,  // measure 22
0000
0220
0000
0000
0000
0000
0330
0000
,  // measure 23
1001
0000
1000
0010
0000
0010
1000
0000
,  // measure 24
0001
0010
0001
0010
0100
1000
0100
1000
,  // measure 25
0010
0100
0001
0100
0000
0100
0001
0000
,  // measure 26
1000
0100
1000
0100
0010
0001
0010
0001
,  // measure 27
0101
0101
0110
0110
,  // measure 28
1010
1010
0110
0110
,  // measure 29
0100
0001
1000
0100
0010
0001
1000
0001
,  // measure 30
1000
0010
0000
0000
0100
0001
0000
0000
0100
0000
0001
0000
1000
0000
1000
0000
,  // measure 31
1001
0000
0001
0100
0000
0100
0001
0000
,  // measure 32
1000
0010
1000
0010
0100
0001
0100
0001
,  // measure 33
0100
0010
1000
0010
0000
0010
1000
0000
,  // measure 34
0001
0010
0001
0010
0100
1000
0100
1000
,  // measure 35
1010
1010
0110
0110
,  // measure 36
0001
0100
0001
0100
0001
0100
0001
0100
,  // measure 37
1000
0000
0010
0000
1000
0000
0000
0010
1000
0000
0010
0000
1000
0000
0100
0000
,  // measure 38
0110
0000
0000
1000
0001
0000
0010
0000
1000
0000
0000
0000
0001
0000
0010
0000
,  // measure 39
1000
0000
0001
0010
1000
0001
1000
0000
,  // measure 40
1001
0000
0000
0001
1000
0000
0100
0000
0001
0000
0000
0000
0100
0000
0010
0000
,  // measure 41
0000
0000
1000
0000
1000
0000
1000
0000
0001
0100
0000
0000
0110
0000
0000
0000
,  // measure 42
1001
0000
0000
0000
1000
0000
0000
0100
1000
0000
0000
0000
0001
0000
0000
0010
,  // measure 43
0001
0000
0000
0000
0100
0000
0000
0001
1000
0000
0000
0000
1100
0000
0000
0000
,  // measure 44
1001
0000
0000
0000
0001
0000
0000
0010
0001
0000
1000
0000
0100
0000
0010
0000
,  // measure 45
0001
0000
0100
0001
1000
0000
1100
0000
,  // measure 46
1001
0000
0000
0000
0001
0000
0000
0010
0001
0000
0000
0000
1000
0000
0000
0100
,  // measure 47
1000
0000
0010
1000
0001
0000
0011
0000
,  // measure 48
1002
0000
0000
0000
1000
0000
0000
1003
0010
0000
0100
0000
0010
0000
0000
0000
,  // measure 49
2001
0000
0000
0000
0001
0000
0000
3001
0100
0000
0010
0000
0100
0000
0000
0000
,  // measure 50
0101
0101
0000
0000
1100
1100
0000
0000
,  // measure 51
0000
0000
0000
0000
,  // measure 52
1001
0000
1000
0100
0000
0100
1000
0000
,  // measure 53
0001
0100
0001
0100
0010
1000
0010
1000
,  // measure 54
0010
0100
0001
0010
0000
0010
0001
0000
,  // measure 55
1000
0010
1000
0010
0100
0001
0100
0001
,  // measure 56
0011
0011
0110
0110
,  // measure 57
1100
1100
0110
0110
,  // measure 58
0010
1000
0001
0010
0100
1000
0001
0010
,  // measure 59
0001
0100
0000
0000
0010
1000
0000
0000
0010
0000
0100
0000
0001
0000
0001
0000
,  // measure 60
1001
0000
1000
0100
0000
0100
1000
0000
,  // measure 61
0001
0010
0001
0010
0100
1000
0100
1000
,  // measure 62
0010
0100
0001
0010
0000
0010
0001
0000
,  // measure 63
1000
0010
1000
0010
0100
0001
0100
0001
,  // measure 64
0011
0011
0110
0110
,  // measure 65
1000
0100
1000
0100
1000
0100
1000
0100
,  // measure 66
0001
0000
0010
0000
0001
0000
0000
0010
0001
0000
0010
0000
0001
0000
0100
0000
,  // measure 67
0110
0000
0000
0001
1000
0000
0100
0000
0001
0000
0000
0000
1000
0000
0100
0000
,  // measure 68
0001
0000
1000
0100
0001
1000
0001
0000
,  // measure 69
1001
0000
0000
1000
0001
0000
0010
0000
1000
0000
0000
0000
0001
0000
0010
0000
,  // measure 70
1000
0000
0001
0010
1000
0001
0200
0000
,  // measure 71
0000
0000
0000
0000
,  // measure 72
0000
0000
0301
0000
0001
0000
0001
0000
1000
0100
0000
0000
0110
0000
0000
0000
,  // measure 73
1001
0000
0000
0000
;

//---------------dance-single - ----------------
#NOTES:
     dance-single:
     :
     Beginner:
     2:
     0.100,0.192,0.071,0.000,0.000: // measure 1
0000
0000
0000
0000
,  // measure 2
1000
0000
0000
0000
,  // measure 3
0000
0000
0000
0000
,  // measure 4
0000
0000
0000
0000
,  // measure 5
0000
0000
0000
0000
,  // measure 6
0001
0000
0001
0000
,  // measure 7
0001
0000
0000
0000
,  // measure 8
1000
0000
1000
0000
,  // measure 9
1000
0000
0000
0000
,  // measure 10
0001
0000
0001
0000
,  // measure 11
0001
0000
0000
0000
,  // measure 12
1000
0000
1000
0000
,  // measure 13
1000
0000
0000
0000
,  // measure 14
0010
0000
0000
0000
,  // measure 15
0100
0000
0000
0000
,  // measure 16
0010
0000
0000
0000
,  // measure 17
0100
0000
0000
0000
,  // measure 18
0001
0000
0000
0000
,  // measure 19
1000
0000
0000
0000
,  // measure 20
0001
0000
0000
0000
,  // measure 21
1001
0000
0000
0000
,  // measure 22
0000
0000
0000
0000
,  // measure 23
0001
0000
0000
0000
,  // measure 24
0000
0000
0000
0000
,  // measure 25
0100
0000
0000
0000
,  // measure 26
0000
0000
0000
0000
,  // measure 27
0010
0000
0000
0000
,  // measure 28
0000
0000
0000
0000
,  // measure 29
1000
0000
0000
0000
,  // measure 30
1000
0000
0000
0000
,  // measure 31
1001
0000
0000
0000
,  // measure 32
0010
0000
0000
0000
,  // measure 33
0100
0000
0000
0000
,  // measure 34
0001
0000
0000
0000
,  // measure 35
0001
0000
1000
0000
,  // measure 36
0001
0000
0000
0000
,  // measure 37
0001
0000
0000
0000
,  // measure 38
1001
0000
1000
0000
,  // measure 39
1000
0000
1000
0000
,  // measure 40
0001
0000
0001
0000
,  // measure 41
0000
0000
0000
0000
,  // measure 42
0110
0000
0000
0000
,  // measure 43
0000
0000
0000
0000
,  // measure 44
0100
0000
0000
0000
,  // measure 45
0000
0000
0000
0000
,  // measure 46
0010
0000
0000
0000
,  // measure 47
0000
0000
0000
0000
,  // measure 48
0100
0000
0000
0000
,  // measure 49
0001
0000
0000
0000
,  // measure 50
1001
0000
0000
0000
,  // measure 51
0000
0000
0000
0000
,  // measure 52
1000
0000
0000
0000
,  // measure 53
0010
0000
0000
0000
,  // measure 54
0100
0000
0000
0000
,  // measure 55
0001
0000
0000
0000
,  // measure 56
1000
0000
0000
0000
,  // measure 57
0001
0000
0000
0000
,  // measure 58
0001
0000
0000
0000
,  // measure 59
1000
0000
0000
0000
,  // measure 60
1001
0000
0000
0000
,  // measure 61
0010
0000
0000
0000
,  // measure 62
0100
0000
0000
0000
,  // measure 63
0010
0000
0000
0000
,  // measure 64
0010
0000
0010
0000
,  // measure 65
0010
0000
0000
0000
,  // measure 66
0100
0000
0000
0000
,  // measure 67
1001
0000
0001
0000
,  // measure 68
0001
0000
0001
0000
,  // measure 69
1000
0000
1000
0000
,  // measure 70
1000
0000
0010
0000
,  // measure 71
0000
0000
0000
0000
,  // measure 72
0000
0000
0000
0000
,  // measure 73
1001
0000
0000
0000
;
