#TITLE:ナビカスタマイザー;
#SUBTITLE:;
#ARTIST:青木佳乃;
#TITLETRANSLIT:NAVI CUSTOMIZER;
#SUBTITLETRANSLIT:;
#ARTISTTRANSLIT:YOSHINO AOKI;
#CREDIT:DMAxel;
#BANNER:NAVI CUSTOMIZER.png;
#BACKGROUND:NAVI CUSTOMIZER-bg.png;
#LYRICSPATH:;
#CDTITLE:DMAxel original simfile.png;
#MUSIC:Navi Customizer.mp3;
#OFFSET:-6.840;
#SAMPLESTART:32.819;
#SAMPLELENGTH:12.000;
#SELECTABLE:YES;
#BPMS:0.000=153.360;
#STOPS:;
#BGCHANGES:;

//---------------dance-single - ----------------
#NOTES:
     dance-single:
     :
     Easy:
     3:
     0.195,0.245,0.010,0.000,0.000: // measure 1
0001
0000
0000
0000
,  // measure 2
0000
0000
0000
0000
,  // measure 3
1000
0000
0000
0000
,  // measure 4
0000
0000
0000
0000
,  // measure 5
0001
0000
0010
0000
,  // measure 6
0001
0000
0000
0000
,  // measure 7
1000
0000
0010
0000
,  // measure 8
1000
0000
0000
0000
,  // measure 9
0001
0000
1000
0000
,  // measure 10
0001
0000
0000
0000
,  // measure 11
1000
0000
0010
0000
,  // measure 12
0100
0000
0000
0000
,  // measure 13
0001
0000
0010
0000
,  // measure 14
0100
0000
1000
0000
,  // measure 15
0100
0000
0010
0000
,  // measure 16
0001
0000
1000
0000
,  // measure 17
0001
0000
0000
0000
,  // measure 18
1000
0100
1000
1000
,  // measure 19
0000
0001
0010
0001
,  // measure 20
0000
0100
0010
1000
,  // measure 21
0000
0100
0010
0001
,  // measure 22
0000
0001
0100
0001
,  // measure 23
0000
1000
0100
1000
,  // measure 24
0000
0001
0010
0100
,  // measure 25
0000
1000
0010
0100
,  // measure 26
0001
0010
0100
1000
,  // measure 27
0001
0000
0000
0000
,  // measure 28
1000
0100
0010
0001
,  // measure 29
1000
0000
0000
0000
,  // measure 30
0001
0010
0100
1000
,  // measure 31
0001
0000
0000
0000
,  // measure 32
1000
0010
1000
0001
,  // measure 33
0010
0000
0000
0000
,  // measure 34
0001
0010
0001
1000
,  // measure 35
0010
0000
0000
0000
,  // measure 36
1000
0001
0010
0100
,  // measure 37
1000
0000
0000
0000
,  // measure 38
0001
1000
0100
0010
,  // measure 39
0001
0000
0000
0000
,  // measure 40
0100
0001
0010
0100
,  // measure 41
1000
0010
1000
0001
,  // measure 42
0010
0010
0001
0000
,  // measure 43
0100
0100
0010
0000
,  // measure 44
1000
1000
0100
0000
,  // measure 45
1001
1000
0001
0010
,  // measure 46
0000
0001
0010
0001
,  // measure 47
0000
0100
0001
1000
,  // measure 48
0000
0100
1000
0100
,  // measure 49
0000
1000
0001
0010
,  // measure 50
0000
0001
0100
0001
,  // measure 51
0000
0100
0001
0010
,  // measure 52
0000
0100
1000
0010
,  // measure 53
0100
0010
1000
0100
,  // measure 54
0001
0000
0000
0000
,  // measure 55
0100
0010
0100
0001
,  // measure 56
0010
1000
0100
0010
,  // measure 57
0001
0000
0000
0000
;

//---------------dance-single - ----------------
#NOTES:
     dance-single:
     :
     Challenge:
     8:
     0.547,0.491,0.331,0.156,0.088: // measure 1
1001
0000
0010
1000
0100
0100
1000
1000
,  // measure 2
0000
1001
0000
0100
0010
0010
0001
0000
,  // measure 3
1001
0000
0100
0001
0010
0010
0001
0001
,  // measure 4
0000
1001
0000
0010
0100
0100
1000
0000
,  // measure 5
0200
0000
0000
2300
0001
0001
0000
3002
,  // measure 6
0000
0103
0010
0000
0010
0100
0001
0000
,  // measure 7
0020
0000
0000
0032
1000
1000
0000
2003
,  // measure 8
0000
3010
0100
0000
0100
0010
1000
0000
,  // measure 9
0020
0000
0000
2030
0001
0001
0000
3002
,  // measure 10
0000
0103
0010
0000
0010
0100
0001
0000
,  // measure 11
0200
0000
0000
0302
1000
1000
0000
2003
,  // measure 12
0000
0000
3001
0010
0100
1000
0001
0001
,  // measure 13
1000
0100
0001
0100
0010
0100
0001
0100
,  // measure 14
1000
0010
0000
1000
0100
0010
0001
1000
,  // measure 15
0001
0000
0000
0000
0011
0000
0000
0001
1000
0000
0100
0000
1000
0000
0000
0000
,  // measure 16
0010
0100
0010
1000
0100
0010
0001
0000
,  // measure 17
0011
0000
1001
0000
0010
1000
0100
0010
,  // measure 18
0001
0000
0000
0000
0011
0000
0000
0001
1000
0000
0100
0000
0100
0000
0000
0000
,  // measure 19
1000
0000
0000
0000
1100
0000
0000
1000
0001
0000
0010
0000
0010
0000
0000
0000
,  // measure 20
0001
0000
0000
0000
0011
0000
0000
0001
1000
0000
0100
0000
0100
0000
0000
0000
,  // measure 21
1000
0000
0000
0000
1100
0000
0000
1000
0001
0000
0010
0000
0010
0000
0000
0000
,  // measure 22
0101
0000
0000
0000
1000
0000
0000
0010
1000
0000
0100
0000
0100
0000
0000
0000
,  // measure 23
1010
0000
0000
0000
0001
0000
0000
0100
0001
0000
0010
0000
0010
0000
0000
0000
,  // measure 24
0011
0000
0000
0000
1000
0000
0000
0010
1000
0000
0100
0000
0100
0000
0000
0000
,  // measure 25
1100
0000
0000
0000
0001
0000
0000
0100
0001
0000
0010
0000
0010
0000
0000
0000
,  // measure 26
0001
0010
1000
0010
0100
0010
1000
0010
,  // measure 27
0100
0001
0000
0100
0001
0010
0100
1000
,  // measure 28
0010
0010
0100
0001
0001
0010
0100
1000
,  // measure 29
0000
0001
0000
1000
0010
0100
0010
0000
,  // measure 30
0100
0100
0010
1000
1000
0100
0010
0001
,  // measure 31
0000
1000
0000
0001
0100
0010
0100
0001
,  // measure 32
2000
0000
0000
3001
0010
0010
0000
0101
,  // measure 33
0000
1001
0000
0000
0100
0001
1000
0000
,  // measure 34
0020
0000
0000
1030
0100
0100
0000
1010
,  // measure 35
0000
1001
0000
0000
0010
1000
0001
0000
,  // measure 36
0020
0000
0000
0031
0100
0100
0000
1100
,  // measure 37
0000
1001
0000
0001
0010
0100
1000
0000
,  // measure 38
0200
0000
0000
1300
0010
0010
0000
0011
,  // measure 39
0000
1001
0000
0000
0100
0010
0100
0001
,  // measure 40
1000
0100
0001
0100
0010
0100
0001
0100
,  // measure 41
1000
0010
0010
0000
0100
0001
0010
0000
,  // measure 42
1001
0000
0000
0000
1100
0000
0000
1000
0001
0000
0010
0000
0010
0000
0001
0000
,  // measure 43
1000
0010
1000
0100
0010
0001
1000
0010
,  // measure 44
1000
1100
1001
0000
,  // measure 45
1001
0000
0000
0000
0011
0000
0000
0001
1000
0000
0100
0000
0100
0000
1000
0000
,  // measure 46
0001
0000
0000
0000
0001
0000
0000
1000
0001
0000
0010
0000
0010
0000
0001
0000
,  // measure 47
1000
0000
0000
0000
1000
0000
0000
0010
1000
0000
0100
0000
0100
0000
1000
0000
,  // measure 48
0001
0000
0000
0000
0001
0000
0000
0100
0001
0000
0010
0000
0010
0000
0000
0000
,  // measure 49
1001
0000
0000
0000
1010
0000
0000
0100
1000
0000
0010
0000
0010
0000
1000
0000
,  // measure 50
0001
0000
0000
0000
0101
0000
0000
0010
0001
0000
0100
0000
0100
0000
0001
0000
,  // measure 51
1000
0000
0000
0000
1001
0000
0000
0010
1000
0000
0100
0000
0100
0000
1000
0000
,  // measure 52
0001
0000
0000
0000
1001
0000
0000
0100
0001
0000
0010
0000
0010
0000
0000
0000
,  // measure 53
0001
0010
1000
0010
0100
0010
1000
0010
,  // measure 54
0001
0100
0100
0001
0000
0010
0100
0000
,  // measure 55
1000
1000
0100
0010
0010
0001
1000
0010
,  // measure 56
1000
1000
0001
0000
0100
0001
0010
0100
,  // measure 57
1000
0000
0000
0000
;

//---------------dance-single - ----------------
#NOTES:
     dance-single:
     :
     Medium:
     5:
     0.352,0.354,0.175,0.156,0.000: // measure 1
0001
0000
1000
0000
0010
1000
0000
0001
,  // measure 2
0000
0001
0000
1000
0010
1000
0001
0000
,  // measure 3
1000
0000
0001
0000
0100
0001
0000
1000
,  // measure 4
0000
1000
0000
0001
0100
0001
1000
0000
,  // measure 5
0002
0000
0000
0203
0000
0000
0001
0000
,  // measure 6
0000
0000
0300
0001
,  // measure 7
2000
0000
0000
3020
0000
0000
1000
0000
,  // measure 8
0000
0000
0030
1000
,  // measure 9
0002
0000
0000
0023
0000
0000
0001
0000
,  // measure 10
0000
0000
0030
0001
,  // measure 11
2000
0000
0000
3200
0000
0000
1000
0000
,  // measure 12
0000
0000
0300
1000
,  // measure 13
0001
0100
0001
0000
1000
0100
0000
1000
,  // measure 14
0000
1000
0000
0000
0000
0001
1000
0000
,  // measure 15
0001
0000
0010
0000
0100
0010
0000
0001
,  // measure 16
0000
0001
0000
0000
0000
1000
0001
0000
,  // measure 17
1000
0010
0110
0000
,  // measure 18
0001
0000
1001
0000
1000
0001
1000
0000
,  // measure 19
1000
0000
1001
0000
0001
1000
0001
0000
,  // measure 20
0100
0000
0110
0000
0100
0010
0100
0000
,  // measure 21
0010
0000
0110
0000
0010
0100
0010
0000
,  // measure 22
1000
0000
1010
0000
1000
0010
1000
0000
,  // measure 23
0001
0000
0101
0000
0001
0100
0001
0000
,  // measure 24
1000
0000
1100
0000
1000
0100
1000
0000
,  // measure 25
0001
0000
0011
0000
0001
0010
0001
0000
,  // measure 26
1000
0000
0010
0000
1000
0001
0000
1000
,  // measure 27
0000
1000
0000
0001
0000
0001
0000
0000
,  // measure 28
1000
0000
0010
1000
0000
0001
0010
0000
,  // measure 29
0001
1000
0000
0000
,  // measure 30
0001
0000
0100
0001
0000
1000
0100
0000
,  // measure 31
1000
0001
0000
1000
,  // measure 32
0020
0000
0000
2030
0000
0000
0000
0000
,  // measure 33
0000
0000
0000
3001
,  // measure 34
0020
0000
0000
0032
0000
0000
0000
0000
,  // measure 35
0000
0000
1003
0100
,  // measure 36
2000
0000
0000
3020
0000
0000
0000
0000
,  // measure 37
0000
0000
0000
1030
0100
0010
0001
0000
,  // measure 38
2000
0000
0000
3020
0000
0000
0000
0000
,  // measure 39
0000
0000
1030
0001
,  // measure 40
0100
0000
0001
0000
1000
0100
0000
1000
,  // measure 41
0000
0001
0000
0010
0000
0001
1000
0000
,  // measure 42
0010
0000
1000
0000
0001
0010
0000
0001
,  // measure 43
0000
1000
0000
0100
0000
1000
0001
0000
,  // measure 44
0100
0010
0110
0000
,  // measure 45
0001
0000
0101
0000
1000
0100
1000
0000
,  // measure 46
0001
0000
0101
0000
1000
0100
1000
0000
,  // measure 47
1000
0000
1010
0000
0001
0010
0001
0000
,  // measure 48
1000
0000
1010
0000
0001
0010
0001
0000
,  // measure 49
0001
0000
0011
0000
1000
0010
1000
0000
,  // measure 50
0001
0000
0011
0000
1000
0010
1000
0000
,  // measure 51
1000
0000
1100
0000
0001
0100
0001
0000
,  // measure 52
1000
0000
1100
0000
0001
0100
0001
0000
,  // measure 53
1000
0010
1000
0001
0010
0000
0010
0001
,  // measure 54
0010
0000
0001
1000
,  // measure 55
0001
0100
0001
1000
0100
0000
0100
1000
,  // measure 56
0100
0000
0000
0000
1000
0000
0001
0010
,  // measure 57
0100
0000
0000
0000
;

//---------------dance-single - ----------------
#NOTES:
     dance-single:
     :
     Hard:
     7:
     0.479,0.409,0.351,0.156,0.010: // measure 1
1000
0000
0001
0100
0001
1000
0200
0000
,  // measure 2
0000
1300
0000
1000
0001
0010
0100
0000
,  // measure 3
1000
0000
0001
0100
0001
1000
0200
0000
,  // measure 4
0000
1300
0000
1000
0001
0010
0100
1000
,  // measure 5
0002
0000
0000
1003
0100
1000
0000
0001
,  // measure 6
0000
0100
0000
0000
0001
0000
1000
0000
,  // measure 7
0200
0000
0000
1300
0100
1000
0000
0001
,  // measure 8
0000
0100
0000
0000
0001
1000
0001
1000
,  // measure 9
0020
0000
0000
1030
0010
1000
0000
0001
,  // measure 10
0000
0010
0001
0000
1000
0001
1000
0001
,  // measure 11
0020
0000
0000
0031
0100
0001
0000
1000
,  // measure 12
0000
0100
1000
0000
0001
1000
0001
0000
,  // measure 13
1000
0100
0010
0001
1000
0010
0000
0100
,  // measure 14
0000
0001
0000
1000
0000
1000
0001
0000
,  // measure 15
1100
0000
0000
0000
0001
0000
0000
0001
1000
0000
0100
0000
0000
0000
1000
0000
,  // measure 16
0000
0010
0000
0100
0000
0001
1000
0100
,  // measure 17
0010
0101
0110
0000
,  // measure 18
1000
0000
0001
0100
0000
0100
0001
1000
,  // measure 19
0001
0000
1000
0010
0000
0010
1000
0100
,  // measure 20
0010
0000
0001
1000
0000
1000
0010
1000
,  // measure 21
0001
0000
1000
0010
0000
0010
1000
0100
,  // measure 22
0010
0101
1100
1001
,  // measure 23
0001
1100
0101
1001
,  // measure 24
1000
0101
1100
1001
,  // measure 25
0001
1100
0101
1001
,  // measure 26
1000
0100
0010
0001
1000
0010
0000
0100
,  // measure 27
0000
0001
0000
1000
0000
1000
0001
0000
,  // measure 28
1000
0001
0010
0100
1000
0001
0000
0100
,  // measure 29
0000
0001
1000
0000
0100
0010
0001
1000
,  // measure 30
0001
0000
0100
0001
0000
1000
0000
0100
,  // measure 31
0000
1000
0001
0000
0010
0100
1000
0001
,  // measure 32
2000
0000
0000
3002
0100
0100
0000
0103
,  // measure 33
0000
0101
0000
0010
1000
0100
0010
0000
,  // measure 34
0002
0000
0000
2003
0010
0010
0000
3010
,  // measure 35
0000
1010
0000
0100
0001
0010
0100
0000
,  // measure 36
2000
0000
0000
3002
0010
0010
0000
0013
,  // measure 37
0000
0011
0000
0100
1000
0100
0010
0000
,  // measure 38
0002
0000
0000
2003
0100
0100
0000
3100
,  // measure 39
0000
1100
0000
0010
0001
0010
0100
0000
,  // measure 40
1000
0100
0010
0001
1000
0010
0000
0100
,  // measure 41
0001
1000
0000
0001
0000
0001
1000
0000
,  // measure 42
0001
0000
0000
0000
0101
0000
0000
0001
1000
0000
0100
0000
0000
0000
1000
0000
,  // measure 43
0000
0001
0000
0100
0001
1000
0100
0010
,  // measure 44
0001
0101
0110
0000
,  // measure 45
2000
0000
0000
3010
0000
0010
1000
0001
,  // measure 46
0010
0000
0001
0010
0000
0010
0001
0010
,  // measure 47
0200
0000
0000
1300
0000
0100
1000
0100
,  // measure 48
0010
0000
0001
1000
0000
1000
0100
0010
,  // measure 49
0001
0011
1010
1001
,  // measure 50
0001
1010
0011
1001
,  // measure 51
1000
0011
1010
1001
,  // measure 52
0001
1010
0011
1001
,  // measure 53
0001
0010
0100
1000
0001
0010
0100
1000
,  // measure 54
0010
0000
0000
1000
0100
0010
0001
0000
,  // measure 55
1010
0000
0001
1000
0001
0010
0000
0001
,  // measure 56
0000
1000
0000
0010
1000
0100
0010
0000
,  // measure 57
1001
0000
0000
0000
;

//---------------dance-single - ----------------
#NOTES:
     dance-single:
     :
     Beginner:
     1:
     0.058,0.105,0.049,0.000,0.000: // measure 1
1000
0000
0000
0000
,  // measure 2
0000
0000
0000
0000
,  // measure 3
0001
0000
0000
0000
,  // measure 4
0000
0000
0000
0000
,  // measure 5
1000
0000
0000
0000
,  // measure 6
0000
0000
0000
0000
,  // measure 7
1000
0000
0000
0000
,  // measure 8
0000
0000
0000
0000
,  // measure 9
0001
0000
0000
0000
,  // measure 10
0000
0000
0000
0000
,  // measure 11
0001
0000
0000
0000
,  // measure 12
0000
0000
0000
0000
,  // measure 13
1001
0000
0000
0000
,  // measure 14
0000
0000
0000
0000
,  // measure 15
1000
0000
0000
0000
,  // measure 16
0000
0000
0000
0000
,  // measure 17
1000
0000
0000
0000
,  // measure 18
0001
0000
0000
0000
,  // measure 19
0010
0000
0000
0000
,  // measure 20
0001
0000
0000
0000
,  // measure 21
0010
0000
0000
0000
,  // measure 22
0001
0000
0000
0000
,  // measure 23
1000
0000
0000
0000
,  // measure 24
0010
0000
0000
0000
,  // measure 25
1000
0000
0000
0000
,  // measure 26
1001
0000
0000
0000
,  // measure 27
0000
0000
0000
0000
,  // measure 28
1000
0000
0000
0000
,  // measure 29
0000
0000
0000
0000
,  // measure 30
0001
0000
0000
0000
,  // measure 31
0000
0000
0000
0000
,  // measure 32
1000
0000
0000
0000
,  // measure 33
0000
0000
0000
0000
,  // measure 34
1000
0000
0000
0000
,  // measure 35
0000
0000
0000
0000
,  // measure 36
0001
0000
0000
0000
,  // measure 37
0000
0000
0000
0000
,  // measure 38
0001
0000
0000
0000
,  // measure 39
0000
0000
0000
0000
,  // measure 40
1001
0000
0000
0000
,  // measure 41
0000
0000
0000
0000
,  // measure 42
0001
0000
0000
0000
,  // measure 43
0000
0000
0000
0000
,  // measure 44
0001
0000
0000
0000
,  // measure 45
1001
0000
0000
0000
,  // measure 46
1000
0000
0000
0000
,  // measure 47
0001
0000
0000
0000
,  // measure 48
1000
0000
0000
0000
,  // measure 49
0100
0000
0000
0000
,  // measure 50
1000
0000
0000
0000
,  // measure 51
0100
0000
0000
0000
,  // measure 52
1000
0000
0000
0000
,  // measure 53
1001
0000
0000
0000
,  // measure 54
0000
0000
0000
0000
,  // measure 55
0001
0000
0000
0000
;
