#TITLE:My Name When I'm Asleep;
#SUBTITLE:;
#ARTIST:Speaking Cursive;
#TITLETRANSLIT:;
#SUBTITLETRANSLIT:;
#ARTISTTRANSLIT:;
#CREDIT:DMAxel;
#BANNER:My Name When I'm Asleep.png;
#BACKGROUND:My Name When I'm Asleep-bg.png;
#LYRICSPATH:;
#CDTITLE:DMAxel original simfile.png;
#MUSIC:My Name When I'm Asleep.mp3;
#OFFSET:-8.200;
#SAMPLESTART:62.994;
#SAMPLELENGTH:12.000;
#SELECTABLE:YES;
#DISPLAYBPM:166.000;
#BPMS:0.000=166.000,104.000=83.000,108.000=166.000,116.000=83.000,120.000=166.000,220.000=83.000,221.500=166.000,225.500=83.000,227.500=166.000,231.500=83.000,233.500=166.000;
#STOPS:190.000=0.361
,193.000=0.361
,200.000=0.361
,211.000=0.361
,214.000=0.361
;
#BGCHANGES:;

//---------------dance-single - ----------------
#NOTES:
     dance-single:
     :
     Easy:
     4:
     0.272,0.316,0.150,0.038,0.000: // measure 1
0001
0000
1000
0000
,  // measure 2
0100
0000
1000
0000
,  // measure 3
1001
0000
0001
0000
,  // measure 4
1000
0000
0001
0000
,  // measure 5
0010
0000
0001
0000
,  // measure 6
1000
0001
1000
0000
,  // measure 7
0100
0000
0010
0000
,  // measure 8
0100
0000
1000
0000
,  // measure 9
0001
0000
0010
0000
,  // measure 10
0100
0000
0010
0000
,  // measure 11
0001
0000
1000
0001
,  // measure 12
1000
0000
0100
0000
,  // measure 13
0010
0000
0001
1000
,  // measure 14
0001
0000
1000
0000
,  // measure 15
1000
0001
1000
0000
,  // measure 16
0010
0000
0100
0010
,  // measure 17
0100
0001
0000
0001
,  // measure 18
0000
0001
0010
0100
,  // measure 19
1000
0001
0000
1000
,  // measure 20
0001
1000
0000
0010
,  // measure 21
0000
0010
0100
0010
,  // measure 22
0000
1000
0100
0010
,  // measure 23
0001
1000
0010
0000
,  // measure 24
0100
0001
0100
0000
,  // measure 25
0001
1000
0001
0010
,  // measure 26
0100
1000
0001
1000
,  // measure 27
0010
0010
0100
0100
,  // measure 28
0010
0100
0010
0000
,  // measure 29
1000
0001
1000
0100
,  // measure 30
0010
0010
0100
0100
,  // measure 31
1000
0001
0100
0000
,  // measure 32
0010
1000
0001
0010
,  // measure 33
0100
1000
1000
0001
,  // measure 34
0001
1000
0100
0000
,  // measure 35
1000
0100
0010
0001
,  // measure 36
1000
1000
0001
0001
,  // measure 37
0101
1000
0100
0010
,  // measure 38
0001
0100
1000
0100
,  // measure 39
1100
0001
0010
0100
,  // measure 40
1000
0100
0001
0100
,  // measure 41
1000
1000
1001
0000
,  // measure 42
0001
0001
1001
0000
,  // measure 43
0101
1000
0100
0010
,  // measure 44
2002
0000
0000
3003
,  // measure 45
0010
1000
0001
0001
,  // measure 46
0100
0010
1000
1000
,  // measure 47
0001
0010
0100
1000
,  // measure 48
0101
1000
0010
0101
,  // measure 49
0001
0100
1010
1000
,  // measure 50
0010
0000
0100
0001
,  // measure 51
1001
1000
0100
0010
,  // measure 52
0001
0100
1000
0100
,  // measure 53
0001
0010
0100
1000
,  // measure 54
0001
0001
1000
1000
,  // measure 55
0001
0010
0100
1000
,  // measure 56
1001
0000
0000
0000
,  // measure 57
0000
0000
0000
0110
0000
0000
0000
1001
,  // measure 58
0000
0000
0000
0000
0000
0000
0000
1001
,  // measure 59
0000
0000
0000
0001
0000
0000
1000
0000
,  // measure 60
0000
0000
0000
2002
0000
0000
0000
0000
,  // measure 61
0000
0000
0000
0000
,  // measure 62
0000
3003
0000
0000
;

//---------------dance-single - ----------------
#NOTES:
     dance-single:
     :
     Hard:
     9:
     0.602,0.573,0.169,0.113,0.136: // measure 1
0001
0000
1000
0000
0010
0000
1000
0001
,  // measure 2
0000
0001
0100
0000
0001
0100
0001
0000
,  // measure 3
1000
0000
1000
0000
1001
0000
0001
1000
,  // measure 4
0000
1000
0010
0000
0101
0000
0000
0000
,  // measure 5
0001
1000
0001
0000
1001
0000
1001
0000
,  // measure 6
1000
0010
1000
0000
0001
0010
0100
0000
,  // measure 7
1001
0000
0001
0100
0001
1000
0100
0000
,  // measure 8
1000
0100
1000
0100
0010
0001
1000
0000
,  // measure 9
1000
0010
1000
0001
0010
0000
0001
0010
,  // measure 10
0001
1000
0010
0000
1000
0100
0010
0001
,  // measure 11
1000
0000
0001
0100
0001
1000
0100
0000
,  // measure 12
0010
0100
1000
0000
0100
0010
0001
1000
,  // measure 13
0001
1000
0001
0100
0000
0100
0001
0000
,  // measure 14
1000
0000
0100
0000
0010
0000
0001
0000
2000
0000
0000
0000
3001
0000
0000
0100
,  // measure 15
0000
0001
1000
0100
1000
0100
0000
1000
,  // measure 16
0001
0100
0001
0100
0002
1000
1003
0000
,  // measure 17
1000
0100
1000
0100
1000
0001
0100
0001
,  // measure 18
0001
0010
0100
1000
0002
0000
1003
0000
,  // measure 19
1000
1000
0001
0010
0100
0010
1001
0000
,  // measure 20
0001
0001
1000
0100
0010
0100
1001
0000
,  // measure 21
0001
0100
0001
1000
1000
0010
0010
1000
,  // measure 22
0100
0010
0001
1000
0020
0000
1030
0000
,  // measure 23
0100
0001
1000
0100
1000
0001
0010
0001
,  // measure 24
0001
1000
1000
0001
0200
0000
0301
0000
,  // measure 25
1000
0010
0000
1000
0010
0000
0100
0000
0001
0000
0010
0000
0100
0000
1000
0000
,  // measure 26
0010
0100
0010
1000
0001
0010
0100
1000
,  // measure 27
1001
0000
0011
0000
1010
0010
1001
1000
,  // measure 28
0001
0100
0001
1000
0100
1000
0001
0010
,  // measure 29
0100
1000
0001
0001
1000
0010
0100
0001
,  // measure 30
1001
0000
0011
0000
1010
0010
1001
0001
,  // measure 31
1000
0010
1000
0001
0010
0001
1000
0100
,  // measure 32
0010
0000
0001
0000
1000
0000
1000
0000
0010
0000
0100
0000
0001
1000
0000
0001
,  // measure 33
1000
0010
0010
1000
0001
0010
0100
1000
,  // measure 34
0001
0100
0100
0001
1000
0100
0010
0001
,  // measure 35
1000
0000
0000
0001
0100
0000
0001
0000
0100
0000
0010
0000
1000
0000
0100
0000
,  // measure 36
0010
0001
0100
1000
0001
0001
2000
0000
,  // measure 37
3001
0000
0000
1000
0010
0000
1000
0000
0010
0000
0100
0000
0001
0000
0010
0000
,  // measure 38
0100
0000
1000
0000
0100
0000
0001
0000
1000
0000
0100
0000
1000
0100
1000
0000
,  // measure 39
0002
0000
0000
0000
1003
0000
0000
0000
1000
0000
0100
0000
0010
0000
0001
0100
,  // measure 40
0001
0000
0000
1000
0100
0000
1000
0000
0001
0000
0100
0001
0100
0000
0001
0100
,  // measure 41
0001
0010
0100
1000
0002
0000
1003
0100
,  // measure 42
0010
0001
1000
0100
0010
0001
1000
0000
,  // measure 43
0001
0000
0000
0100
0010
0000
0100
0000
0001
0000
1000
0000
0100
0000
1000
0000
,  // measure 44
0001
0010
0100
1000
0001
0000
1001
0000
,  // measure 45
0001
0100
0001
0000
1000
0000
0100
0000
0010
0000
0100
0000
0010
0000
0001
0000
,  // measure 46
1000
0010
1000
0000
0001
0000
0010
0000
0100
0000
0010
0000
0100
0000
1000
0000
,  // measure 47
0001
0100
0001
0000
1000
0000
0100
0000
0010
0000
0100
0000
0010
0000
0001
0000
,  // measure 48
1000
0010
1000
0000
0001
0000
0010
0000
0100
0000
1000
0000
0010
0100
0010
0000
,  // measure 49
1000
0000
0100
0000
0010
0000
0001
0000
0100
0010
0100
0000
0001
0000
1000
0000
,  // measure 50
0100
0010
0000
0100
0000
0000
1000
0000
0001
0100
0001
0000
0010
0000
0100
0000
,  // measure 51
1000
0000
0001
0000
1000
0100
1000
0000
0001
0000
0010
0000
0100
0000
1000
0000
,  // measure 52
0010
0100
0001
0100
0010
1000
0100
0001
,  // measure 53
0100
1000
0001
0001
1000
0100
0010
0001
,  // measure 54
0100
0010
0100
0000
0001
0000
0010
0000
0100
0000
1000
0000
0010
0100
0010
0000
,  // measure 55
1000
0000
0100
0000
0010
0000
0001
0000
0100
0000
1000
0000
0010
0100
0010
0000
,  // measure 56
1000
0000
0000
0002
0000
0000
0000
0000
,  // measure 57
0000
0000
0000
0000
0000
0000
1003
1000
0000
0000
0000
0000
0000
0000
0200
0000
,  // measure 58
0000
0000
0000
0000
0000
0000
0000
0000
0000
0000
0000
0000
0000
0000
0310
0010
,  // measure 59
0000
0000
0000
0000
0000
0000
1000
0000
0001
0000
0000
0000
0100
0000
0000
0010
,  // measure 60
0000
0100
0000
1001
2002
0000
0000
0000
,  // measure 61
0000
0000
0000
0000
,  // measure 62
0000
3003
0000
0000
0000
0000
0000
0000
;

//---------------dance-single - ----------------
#NOTES:
     dance-single:
     :
     Challenge:
     10:
     0.740,0.718,0.253,0.084,0.511:
1000
0000
0001
0100
0001
1000
0100
0010
,
0000
0010
0100
0000
1000
0100
0010
0001
,
1001
0000
1001
0000
0001
0100
0100
0001
,
1000
0100
0010
0000
1001
1000
0010
0000
,
0100
0000
0000
0010
0000
0000
1000
0000
0001
0000
1000
0000
1000
0000
0001
0000
,
0001
0000
0010
0000
0100
1000
0100
0000
0010
0000
0001
0000
2000
0000
0000
0000
,
3001
0000
1000
1000
0010
0100
0001
0010
,
0000
0100
0010
0001
2000
0000
3001
0000
,
0001
0000
0001
0000
0100
0000
0010
0000
1000
0100
1000
0000
0001
0000
0010
0000
,
0100
0000
0010
0000
0001
0000
1000
0000
0010
0000
1000
0001
1000
0000
0000
0000
,
0110
0000
0110
0000
0100
1000
0001
0001
,
1000
0010
1000
0000
0001
0000
0000
0000
0001
0010
0001
0000
1000
0000
0000
0000
,
0100
0000
0010
0000
0001
0000
1000
0010
1000
0000
0010
1000
0010
0000
0000
0000
,
1000
0000
0001
0000
1000
0000
0100
0000
0020
0000
0100
0000
0130
0000
0000
0001
,
0100
0010
0100
0000
0001
0010
0100
0010
,
0000
0000
0100
0000
1000
0000
1000
0000
0001
0000
0100
0001
0100
0000
0000
0000
,
0001
0100
0001
0001
1000
0010
1000
0010
,
0001
0000
0100
0000
1000
0000
0010
0000
0100
0001
0100
0001
0100
0000
0000
0000
,
0010
1000
0000
0010
1000
0000
0001
0000
0010
0000
0100
0000
1000
0000
0001
0000
,
0100
0001
0000
0100
0001
0000
1000
0000
0100
0000
0010
0000
0001
0000
0000
0000
,
1000
1000
0001
0200
0010
0320
1000
1030
,
0001
0000
0010
0000
0100
0000
1000
0000
0001
0100
0001
0000
1001
0000
0000
1000
,
0010
0100
0010
1000
1000
0001
0001
0010
,
0100
0000
0010
0000
0000
0000
0001
0000
1000
0000
0010
1000
0010
0000
0000
0000
,
0100
0000
0001
0100
0001
0000
1000
0000
0100
0000
0010
0000
0001
1000
0001
1000
,
0001
0000
1000
0000
0100
0000
1000
0100
1000
0100
1000
0001
0100
0001
0100
0000
,
1001
0000
0001
0000
0011
0000
0100
0000
1100
0000
1100
0000
1001
0000
1000
0100
,
0010
0000
0001
0100
0001
0000
1000
0000
1000
0000
0100
0000
0010
0001
0010
0000
,
0001
0010
0000
0001
0010
0000
0100
0000
1000
0000
0001
0000
0100
0001
0100
0000
,
1001
0000
0001
0000
1100
0000
0001
0000
0011
0000
0011
0000
1001
0000
0001
0010
,
0100
0000
1000
0010
1000
0000
0001
0000
0001
0000
0010
0000
0100
0000
1000
0001
,
1000
0000
0100
0000
0010
0100
0000
0010
0100
0000
0010
0000
1000
0010
0000
0100
,
0010
0000
1000
0000
0100
0010
0000
0001
0010
0000
0100
0000
1000
0010
1000
0010
,
1000
0000
0001
0000
0010
0100
0000
1000
0100
0000
0010
0000
0001
1000
0001
0000
,
1000
0000
0010
1000
0010
0000
1000
0000
0100
0000
0010
0000
0001
0000
1000
0000
,
0001
0100
0001
0000
0010
0000
0100
0000
1000
0000
0001
0000
1000
0010
1000
0010
,
1000
0001
0000
0001
0100
0000
0010
1000
0100
0000
0010
0000
0001
0000
0100
0001
,
0100
0000
0001
0000
0010
0000
0100
1000
0100
0000
1000
0000
0001
0100
0000
0100
,
0001
0000
1000
0100
1000
0000
0001
0000
0001
0000
0010
0100
1000
0000
0010
0100
,
0010
1000
0000
1000
0010
0000
0100
0000
0001
0100
0001
0100
0001
0010
0100
0000
,
1000
0000
0100
0000
0001
0000
1000
0000
0010
0100
0010
0100
0010
0000
1000
0000
,
0001
0100
1000
0100
0001
0010
0100
1000
,
0001
0100
0000
0001
0100
0000
0010
1000
0001
0010
0001
0010
0001
0000
1000
0000
,
0001
0010
0100
1000
0001
0000
1001
0000
,
1000
0010
1000
0010
1000
0000
0001
0000
0001
0000
0010
0000
0100
0000
1000
0000
,
0001
0100
0001
0100
0001
0000
1000
0000
1000
0000
0100
0000
0010
0000
0001
0000
,
0100
0001
0100
0001
1000
0000
0100
0000
0010
0000
0001
0000
0100
0000
1000
0000
,
0100
1000
0100
1000
0001
0000
0010
0000
0100
0000
1000
0100
1000
0100
0010
0000
,
0001
0000
1000
0000
0010
0000
1000
0010
1000
0010
0100
0000
0001
0000
0100
0000
,
0010
0100
0000
0010
0000
0000
0100
0001
0100
0001
0010
0000
0100
0000
1000
0000
,
0010
0000
0100
0001
0100
0001
0010
0000
0100
0000
1000
0000
0010
0000
0100
0001
,
0010
0001
0010
0000
0100
1000
0100
1000
0001
0000
0010
0000
0100
1000
0100
1000
,
0001
0000
0100
0000
0010
1000
0010
1000
0001
0000
1000
0000
1001
0000
0001
0000
,
0010
0100
0010
0100
1000
0000
0001
0000
1000
0000
0100
0010
0100
0010
0001
0000
,
1000
0000
0010
0000
0100
0001
0100
0001
0010
0000
0100
0000
1000
0100
1000
0100
,
0010
0000
0000
0012
0000
0000
0000
0000
,
0000
0000
0000
0000
0000
0000
1003
0010
0000
0000
0000
0000
0000
0000
1020
0000
,
0000
0000
0000
0000
0000
0000
0000
0000
0000
0000
0000
0000
0000
0000
0130
0001
,
0000
0000
0000
0000
0000
0000
0101
0000
1001
0000
0000
0000
1100
0000
0000
0101
,
0000
1100
0000
1010
2002
0000
0000
0000
,
0000
0000
0000
0000
,
0000
3003
0000
0000
;

//---------------dance-single - ----------------
#NOTES:
     dance-single:
     :
     Medium:
     7:
     0.473,0.430,0.113,0.084,0.000: // measure 1
1000
0001
1000
0001
,  // measure 2
1000
0100
0010
0100
,  // measure 3
1000
0000
1001
0000
0001
0000
1000
0010
,  // measure 4
1000
0010
1000
0000
0001
0000
0010
0000
,  // measure 5
0100
0000
0010
0001
1000
0000
1000
0000
,  // measure 6
0001
0000
0100
0010
0100
0001
1000
0000
,  // measure 7
1000
0000
0100
1000
0100
0000
1000
0010
,  // measure 8
1000
0000
0001
0010
0001
0010
0001
0000
,  // measure 9
1000
0000
0001
0010
0001
0000
0100
0001
,  // measure 10
0100
0001
1000
0000
0010
0100
0010
0000
,  // measure 11
1000
0000
1000
0000
0001
0000
0001
0100
,  // measure 12
0001
0100
0010
0000
1000
0010
1000
0000
,  // measure 13
0001
0000
0100
0001
0000
0001
1000
0000
,  // measure 14
0010
1000
0010
1000
0100
0000
1000
0000
,  // measure 15
0001
0000
0100
0000
0001
0100
0001
0000
,  // measure 16
1000
0100
1000
0000
0100
0010
0001
0000
,  // measure 17
1000
0010
1000
0000
0001
0010
0001
0000
,  // measure 18
0010
0100
1000
0001
1000
0000
1001
0000
,  // measure 19
0001
0010
0100
0000
0010
0000
0001
0000
,  // measure 20
1000
0100
0010
0000
0100
0000
1000
0000
,  // measure 21
0001
0100
0001
1000
0100
1000
0100
0000
,  // measure 22
1000
0100
0010
0001
,  // measure 23
0100
0001
1000
0000
0100
1000
0100
0000
,  // measure 24
1000
0001
0000
0001
0100
0000
0110
0000
,  // measure 25
1000
0100
0010
0000
0001
0100
1000
0000
,  // measure 26
0100
0010
0100
1000
0001
1000
0001
1000
,  // measure 27
0001
0000
0011
0000
1000
1000
0010
0000
,  // measure 28
0100
0000
0001
0100
0000
0001
1000
0000
,  // measure 29
0010
0100
0010
0100
0010
0000
1000
0100
,  // measure 30
0001
0000
1100
0000
0001
0001
0100
0000
,  // measure 31
0010
0000
1000
0010
0000
1000
0001
0100
,  // measure 32
0001
0000
0100
0001
1000
0100
1000
0000
,  // measure 33
0010
0100
0010
0100
0010
1000
0100
0000
,  // measure 34
1000
0100
0010
0000
0001
0000
0101
0000
,  // measure 35
0100
0010
0100
0010
0100
0001
0010
0000
,  // measure 36
0001
0010
0100
0000
1000
0000
1010
0000
,  // measure 37
0100
0001
0010
0000
0100
1000
0100
0000
,  // measure 38
1000
0001
1000
0001
1000
0001
1000
0100
,  // measure 39
0020
0000
0130
1000
0001
0100
0001
0000
,  // measure 40
0100
0001
1000
0000
0100
0010
0001
0000
,  // measure 41
0100
0001
0100
0001
2000
0000
0000
3010
,  // measure 42
1000
0010
1000
0001
0010
0001
0010
0000
,  // measure 43
0001
0010
0100
0000
1100
0000
0001
0000
,  // measure 44
2002
0000
3003
1001
,  // measure 45
1000
0010
1000
0000
0100
0010
0100
1000
,  // measure 46
0001
0100
0010
0000
0100
0010
0100
0000
,  // measure 47
0001
0100
0010
0000
0100
0010
0100
0000
,  // measure 48
0001
0010
0100
1000
0001
0000
1000
0100
,  // measure 49
0010
0001
1000
0000
0001
0010
0100
1000
,  // measure 50
0001
0000
0000
0001
1000
0100
0010
0001
,  // measure 51
1000
0000
0001
0010
0100
0000
1000
0100
,  // measure 52
0010
0100
1000
0010
0100
0000
0001
0010
,  // measure 53
0100
0010
0001
0100
0010
0000
1001
0000
,  // measure 54
0001
0010
0100
1000
0001
0000
1000
0100
,  // measure 55
0010
0001
1000
0010
1000
0010
0100
0001
,  // measure 56
0100
0000
0000
0002
0000
0000
0000
0000
,  // measure 57
0000
0000
0000
1003
0000
0000
0000
0020
,  // measure 58
0000
0000
0000
0000
0000
0000
0000
0130
,  // measure 59
0000
0000
0000
0001
1000
0000
0020
0000
,  // measure 60
0000
0130
0000
1000
2002
0000
0000
0000
,  // measure 61
0000
0000
0000
0000
,  // measure 62
0000
3003
0000
0000
0000
0000
0000
0000
;

//---------------dance-single - ----------------
#NOTES:
     dance-single:
     :
     Beginner:
     2:
     0.103,0.195,0.075,0.000,0.000: // measure 1
0000
0000
0000
0000
,  // measure 2
0000
0000
0000
0000
,  // measure 3
0001
0000
0000
0000
,  // measure 4
0000
0000
0000
0000
,  // measure 5
1000
0000
0000
0000
,  // measure 6
0000
0000
0000
0000
,  // measure 7
0001
0000
0000
0000
,  // measure 8
1000
0000
0000
0000
,  // measure 9
0010
0000
0000
0000
,  // measure 10
0100
0000
0000
0000
,  // measure 11
0010
0000
0000
0000
,  // measure 12
0000
0000
0000
0000
,  // measure 13
1000
0000
0000
0000
,  // measure 14
0000
0000
0000
0000
,  // measure 15
0001
0000
0000
0000
,  // measure 16
0000
0000
0000
0000
,  // measure 17
1000
0000
0000
0000
,  // measure 18
0000
0000
0000
0000
,  // measure 19
1001
0000
0000
0000
,  // measure 20
0001
0000
0000
0000
,  // measure 21
1000
0000
0000
0000
,  // measure 22
1000
0000
0000
0000
,  // measure 23
0001
0000
0000
0000
,  // measure 24
0001
0000
0000
0000
,  // measure 25
1000
0000
0000
0000
,  // measure 26
1000
0000
0000
0000
,  // measure 27
1001
0000
0000
0000
,  // measure 28
0001
0000
1000
0000
,  // measure 29
0001
0000
0001
0000
,  // measure 30
1001
0000
0000
0000
,  // measure 31
1000
0000
0001
0000
,  // measure 32
1000
0000
1000
0000
,  // measure 33
0001
0000
0100
0000
,  // measure 34
0001
0000
0100
0000
,  // measure 35
0001
0000
1000
0000
,  // measure 36
0001
0000
1000
0000
,  // measure 37
0010
0000
1000
0000
,  // measure 38
0010
0000
1000
0000
,  // measure 39
0001
0000
0010
0000
,  // measure 40
0100
0000
1000
0000
,  // measure 41
0001
0000
1001
0000
,  // measure 42
1000
0000
1001
0000
,  // measure 43
0001
0000
1000
0000
,  // measure 44
0010
0000
0000
0000
,  // measure 45
0110
0000
0000
0000
,  // measure 46
1000
0000
0000
0000
,  // measure 47
1001
0000
0000
0000
,  // measure 48
0001
0000
0000
1000
,  // measure 49
0000
0000
0001
0000
,  // measure 50
0000
0000
1000
0000
,  // measure 51
0000
0001
0000
0000
,  // measure 52
0000
1000
0000
0000
,  // measure 53
0000
0010
0000
0000
,  // measure 54
0010
0000
0000
0010
,  // measure 55
0000
0100
0000
0100
,  // measure 56
0000
0000
0000
0000
,  // measure 57
0000
0000
0000
0001
0000
0000
0000
0000
,  // measure 58
0000
0000
0000
0000
0000
0000
0000
1000
,  // measure 59
0000
0000
0000
0001
0000
0000
0000
0000
,  // measure 60
0000
0000
1001
0000
;
