#TITLE:Muscination KaxX;
#SUBTITLE:;
#ARTIST:DJ Gen;
#TITLETRANSLIT:;
#SUBTITLETRANSLIT:;
#ARTISTTRANSLIT:;
#CREDIT:DMAxel;
#BANNER:Muscination KaxX.png;
#BACKGROUND:Muscination KaxX-bg.png;
#LYRICSPATH:;
#CDTITLE:BEMANI game remix.png;
#MUSIC:Muscination KaxX.mp3;
#OFFSET:-5.165;
#SAMPLESTART:50.690;
#SAMPLELENGTH:12.500;
#SELECTABLE:YES;
#DISPLAYBPM:*;
#BPMS:0.000=100.000,7.000=-100.000,12.000=100.000,18.000=200.000,34.000=399.998,49.000=100.000,70.000=200.000,102.000=399.998,166.000=200.000,168.000=399.998,184.000=200.000,185.000=399.998,196.000=137.500,197.000=399.998,214.000=199.999,215.000=399.997,224.000=99.999,240.000=199.999,336.000=24.999,337.000=199.999,353.000=12.499,354.000=399.997,434.000=99.999,438.000=199.999,446.000=399.997,476.000=-100.002,484.000=99.998,493.000=399.997,495.000=800.001,551.000=399.997;
#STOPS:49.000=1.370
;
#BGCHANGES:7.000=Muscination KaxX-bg4.png=1.000=0=0=1,
18.000=Muscination KaxX-bg2.png=1.000=1=0=1,
49.000=Muscination KaxX-bg3.png=1.000=1=0=1,
50.000=Muscination KaxX-bg.png=1.000=1=0=1,
70.000=Muscination KaxX-bg5.png=1.000=1=0=1,
100.000=Muscination KaxX-bg3.png=1.000=1=0=1,
102.000=Muscination KaxX-bg.png=1.000=1=0=1,
145.000=Muscination KaxX-bg3.png=1.000=1=0=1,
168.000=Muscination KaxX-bg5.png=1.000=1=0=1,
224.000=Muscination KaxX-bg3.png=1.000=1=0=1,
240.000=Muscination KaxX-bg.png=1.000=1=0=1,
336.000=Muscination KaxX-bg5.png=1.000=1=0=1,
337.000=Muscination KaxX-bg.png=1.000=1=0=1,
353.000=Muscination KaxX-bg4.png=1.000=1=0=1,
354.000=Muscination KaxX-bg.png=1.000=1=0=1,
435.500=Muscination KaxX-bg3.png=1.000=1=0=1,
439.000=Muscination KaxX-bg.png=1.000=1=0=1,
493.000=Muscination KaxX-bg3.png=1.000=0=0=1,
551.000=Muscination KaxX-bg.png=1.000=0=0=1,
99999=-nosongbg-=1.000=0=0=0 // don't automatically add -songbackground-
;

//---------------dance-single - ----------------
#NOTES:
     dance-single:
     :
     Challenge:
     10:
     0.786,1.000,0.282,0.071,0.543: // measure 1
0001
0000
0010
0000
0100
0000
1000
0001
1000
0000
0010
0000
0100
0010
0100
0000
,  // measure 2
0001
0000
0010
0000
0100
0000
1000
0001
1000
0000
0010
0000
1001
0000
0000
0000
,  // measure 3
0000
0000
0000
0000
,  // measure 4
0000
0000
0000
0000
,  // measure 5
0000
0000
0000
0000
1000
0010
1000
0000
,  // measure 6
0001
0100
0001
0000
0100
0010
0100
0000
,  // measure 7
0001
0100
0001
0000
1000
0100
1000
0010
,  // measure 8
0000
1001
0000
0010
0100
0000
0001
0010
,  // measure 9
0001
1001
0010
1000
,  // measure 10
0010
1000
0100
0010
,  // measure 11
0001
1000
0001
0100
,  // measure 12
0001
0100
0010
1000
,  // measure 13
0001
0000
0000
0000
1001
0000
0000
0000
0101
0000
0010
1000
0000
0010
1000
0001
,  // measure 14
0100
0000
0001
1000
0001
0000
0100
0000
0001
1000
0100
1000
0001
0100
0010
0000
,  // measure 15
1000
0000
0001
0010
0000
0100
1000
0000
0010
0000
1000
0010
0000
0100
0001
0000
,  // measure 16
0010
0001
0010
0000
1100
0000
0110
0000
0001
0100
0001
0100
0001
0000
0100
0010
,  // measure 17
1000
0000
0010
0100
0010
0000
1001
0000
1000
0100
1000
0000
0001
0100
0001
0000
,  // measure 18
1000
0100
0010
0001
0010
0100
1000
0010
0100
0000
0001
0000
0100
0000
0010
0000
,  // measure 19
1000
0000
0010
0000
1000
0000
0000
0000
0001
1000
0000
0000
0010
0000
0000
0000
,  // measure 20
1000
0001
0000
0000
0100
0000
0000
0000
0010
0000
1000
0000
0010
0000
0100
0000
,  // measure 21
0001
0000
0100
0000
0001
0000
0000
0000
1000
0010
0000
0000
0100
0000
0000
0000
,  // measure 22
0001
0100
0000
0000
0010
0000
0000
0000
1000
0000
0100
0000
1000
0000
0010
0000
,  // measure 23
0100
0001
0100
0010
2000
0001
3001
0000
,  // measure 24
0200
0010
0310
0000
0001
0100
0010
0100
,  // measure 25
0001
1000
0010
1000
0100
0010
0001
1000
,  // measure 26
0001
0010
1000
0100
1001
0000
0100
0000
,  // measure 27
0010
1000
0010
1000
,  // measure 28
0001
0100
0010
0100
,  // measure 29
0010
0100
0001
1000
,  // measure 30
0001
0100
0001
0100
,  // measure 31
0010
1000
0001
0100
,  // measure 32
0010
1000
0001
0100
,  // measure 33
0010
1000
0001
0100
,  // measure 34
0001
0100
0010
1000
,  // measure 35
0010
1000
0001
0010
,  // measure 36
0100
1000
0001
0100
,  // measure 37
0001
0100
0010
1000
,  // measure 38
0010
0100
0001
0010
,  // measure 39
0001
0010
0100
1000
,  // measure 40
0100
1000
0001
0010
,  // measure 41
0100
1000
0100
0010
,  // measure 42
0001
0000
1000
0000
0010
0100
0010
0000
,  // measure 43
1001
0000
0100
0010
0100
0000
0010
0000
,  // measure 44
1000
0010
1000
0000
0010
0000
0100
0001
,  // measure 45
0100
0000
0010
0000
1000
0001
1000
0000
,  // measure 46
0010
0100
0010
0000
1000
0001
1000
0000
,  // measure 47
0010
0000
1001
0000
0010
0100
0010
0000
,  // measure 48
1000
0000
0001
0100
0001
0000
0100
0000
,  // measure 49
0010
1000
0010
0000
1000
0001
1000
0001
,  // measure 50
1000
0000
0110
0000
0001
1000
0001
0000
,  // measure 51
1000
0000
0010
0100
0010
0000
0100
0000
,  // measure 52
0001
0010
0001
0000
1000
0000
0100
1000
,  // measure 53
0100
0000
1000
0000
0001
0100
0001
0000
,  // measure 54
0100
0000
0010
0100
0010
0000
0100
0000
,  // measure 55
0001
1000
0001
0000
0100
0000
0010
1000
,  // measure 56
0010
0000
0100
0000
0001
0100
0001
0000
,  // measure 57
0200
0000
0000
0000
0000
0000
0001
0000
0301
0000
0000
1000
0010
1000
0000
0010
,  // measure 58
0200
0000
0000
0010
0000
0000
0010
0000
0000
0000
0000
0000
0301
0000
1000
0000
0100
0000
1000
0000
0001
0000
0100
0000
,  // measure 59
0020
0000
0000
0000
0000
0000
0000
0000
0000
0000
0000
0000
1000
0000
0000
0000
0000
0000
0030
0000
0000
0000
0000
0000
1000
0000
0000
0000
0100
0000
0000
0000
0010
0000
0000
0000
0001
0000
0000
1000
0000
0000
0010
0000
0000
1000
0000
0000
,  // measure 60
0001
0000
0000
0000
0100
0000
0000
0000
0010
0000
0000
0000
1000
0000
0000
0000
0100
0000
0000
0000
0010
0000
0000
0000
0001
0000
0000
0100
0000
0000
0001
0000
0000
0000
0000
0000
1000
0000
0000
0001
0000
0000
1000
0000
0000
0001
0000
0000
,  // measure 61
1000
0100
0000
0000
0100
0010
0000
0000
0010
0001
0000
0000
0001
0100
0000
0000
,  // measure 62
0100
0010
0000
0000
0010
1000
0000
0000
1000
0001
0000
0000
0100
0000
0001
0000
,  // measure 63
1000
0100
0000
0000
0100
0010
0000
0000
0010
0001
0000
0000
0001
1000
0000
0000
,  // measure 64
0010
0100
0000
0000
0010
1000
0000
0000
0010
0100
0000
0000
0001
0000
1000
0000
,  // measure 65
0100
1000
0000
0000
1000
0100
0000
0000
0100
0010
0000
0000
0010
1000
0000
0000
,  // measure 66
1000
0010
0000
0000
0010
0001
0000
0000
0001
0000
1000
0000
0001
0000
0000
0000
,  // measure 67
0010
1000
0000
0000
1000
0100
0000
0000
0100
1000
0000
0000
1000
0010
0000
0000
,  // measure 68
0010
0100
0000
0000
0100
0001
0000
0000
0001
0100
0000
0000
0100
0000
0010
0000
,  // measure 69
1000
0010
0000
0000
0010
0100
0000
0000
0100
0001
0000
0000
0001
1000
0000
0000
,  // measure 70
1000
0010
0000
0000
0010
0000
1000
0000
0001
0100
0000
0000
0100
0010
0000
0000
,  // measure 71
0010
1000
0000
0000
1000
0100
0000
0000
0100
0001
0000
0000
0001
0100
0000
0000
,  // measure 72
0100
1000
0000
0000
1000
0001
0000
0000
0001
0000
1000
0000
0001
0000
1000
0000
,  // measure 73
0001
0100
0000
0000
0100
0010
0000
0000
0010
1000
0000
0000
0100
1000
0000
0000
,  // measure 74
0010
0100
0000
0000
0001
0010
0000
0000
0001
1000
0000
0000
0001
0000
0100
0000
,  // measure 75
0001
0000
0000
0000
0100
0010
0000
0000
1000
0100
0000
0000
0010
0001
0000
0000
,  // measure 76
0100
0010
0000
0000
1000
0001
0000
0000
0100
0000
0010
0000
0100
0000
0000
0000
,  // measure 77
1000
0001
0000
0000
0100
0010
0000
0000
1000
0001
0000
0000
1000
0000
0100
0000
,  // measure 78
0010
0000
0001
0000
1000
0010
0000
0000
1000
0100
0000
0000
1000
0010
0000
0000
,  // measure 79
0100
0001
0000
0000
0100
0000
0010
0000
0100
0000
0000
0000
0010
1000
0000
0000
,  // measure 80
0010
0000
0100
0000
0010
0000
0000
0000
1000
0100
0000
0000
0010
0000
0001
0000
,  // measure 81
0010
0000
0000
0000
0001
0100
0000
0000
0010
1000
0000
0000
0100
1000
0000
0000
,  // measure 82
0001
0100
0000
0000
0010
0000
1000
0000
0001
0000
0010
0000
0100
0000
1000
0000
,  // measure 83
0100
1000
0000
0000
0010
0100
0000
0000
0001
0010
0000
0000
0001
0000
1000
0000
,  // measure 84
0010
0000
0100
0000
0001
1000
0000
0000
1000
0000
0100
0000
0010
0000
0001
0000
,  // measure 85
0100
0000
0000
0010
0000
0000
0100
0000
0000
0010
0000
0000
1000
0000
0000
0000
0010
0000
0000
0000
0100
0000
0000
0000
0001
0000
0000
0000
0100
0000
0000
0000
0010
0000
0000
0000
1000
0000
0000
0000
0001
0000
0000
0000
0100
0000
0000
0000
,  // measure 86
0010
1000
0010
0100
0010
1000
0001
1000
0010
0100
0001
1000
,  // measure 87
0100
0010
0001
0000
0000
0000
1000
0010
1000
0001
0100
0010
,  // measure 88
1000
0010
0100
0001
0010
0001
1000
0100
1000
0001
0010
0100
,  // measure 89
1000
0000
0000
0000
0000
0000
0000
0000
0000
0000
0000
0000
0000
0000
0000
0000
0010
0000
0000
0000
0000
0000
0000
0000
0000
0000
0000
0000
0000
0000
0000
0000
0100
0000
0000
0000
0000
0000
0000
0000
0000
0000
0000
0000
0000
0000
0000
0000
0002
0000
0000
0000
0000
0000
1000
0000
0000
0000
0000
0000
1000
0000
0000
0000
0000
0000
1000
0000
0000
0000
0000
0000
1000
0000
0000
0000
0000
0000
1000
0000
0000
0000
0000
0000
1000
0000
0000
0000
0000
0000
1000
0000
0000
0000
0000
0000
1003
0000
0000
0000
0000
0000
0000
0000
0000
0000
0000
0000
0000
0000
0000
0000
0000
0000
0000
0000
0000
0000
0000
0000
0000
0000
0000
0000
0000
0000
0000
0000
0000
0000
0000
0000
0000
0000
0000
0000
0000
0000
0000
0000
0000
0000
0000
0000
0000
0000
0000
0000
0000
0000
0000
0000
0000
0000
0000
0000
0000
0000
0000
0000
0000
0000
0000
0000
0000
0000
0000
0000
0000
0000
0000
0000
0000
0000
0000
0000
0000
0000
0000
0000
0000
0000
0000
0000
0000
0000
0000
0000
0000
0000
0000
0000
,  // measure 90
0001
1000
0001
1000
0001
0000
1000
0000
,  // measure 91
0001
0100
0001
0000
1000
0000
0010
0000
,  // measure 92
1000
0100
1000
0000
0001
0000
0100
0000
,  // measure 93
0001
0010
0001
0000
0100
0000
0010
0000
,  // measure 94
1000
0001
1000
0000
0001
0000
0100
0000
,  // measure 95
0010
0000
0100
0000
0001
0010
0100
1000
,  // measure 96
0100
0010
0001
0000
1000
0001
1000
0000
,  // measure 97
0010
0100
1001
0010
,  // measure 98
1000
0101
1000
0100
,  // measure 99
0011
0100
0001
1010
,  // measure 100
0001
1000
0110
0001
,  // measure 101
0010
0101
1000
0010
,  // measure 102
0100
1001
0001
0010
,  // measure 103
1100
0010
1000
0101
,  // measure 104
0010
0100
1001
0100
,  // measure 105
0001
1010
0001
1000
,  // measure 106
0100
0011
1000
0010
,  // measure 107
0101
1000
0001
0110
,  // measure 108
0001
0000
1000
0000
0001
0010
0100
1000
,  // measure 109
0100
0010
0001
1000
0002
0000
0000
2003
,  // measure 110
0000
0000
0000
0010
3010
0000
0100
0010
,  // measure 111
1000
0010
0000
0010
1000
0000
0001
0100
,  // measure 112
0010
0100
0010
0000
1000
0000
0001
1000
,  // measure 113
0001
0100
1010
1010
,  // measure 114
0100
0000
0001
0100
0010
0000
1000
0000
,  // measure 115
0001
0100
0101
0110
,  // measure 116
1010
0220
0000
0000
,  // measure 117
0330
0000
1010
0110
,  // measure 118
0101
1001
0000
0000
,  // measure 119
0000
0000
0000
0000
,  // measure 120
0000
0000
0000
0000
,  // measure 121
0000
0000
0000
0000
,  // measure 122
0000
0000
0000
0000
,  // measure 123
0000
0000
0000
0000
,  // measure 124
0000
0110
0110
1001
,  // measure 125
0000
0000
0000
0000
,  // measure 126
0000
0000
0000
0000
,  // measure 127
0000
0000
0000
0000
,  // measure 128
0000
0000
0000
0000
,  // measure 129
0000
0000
0000
0000
,  // measure 130
0000
0000
0000
0000
,  // measure 131
0000
0000
0000
0000
,  // measure 132
0000
0000
0000
0000
,  // measure 133
0000
0000
0000
0000
,  // measure 134
0000
0000
0000
0000
,  // measure 135
0000
0000
0000
0000
,  // measure 136
0000
0000
0000
0000
,  // measure 137
0000
0000
0000
0000
,  // measure 138
0000
0000
0000
1001
;

//---------------dance-single - ----------------
#NOTES:
     dance-single:
     :
     Hard:
     9:
     0.582,1.000,0.353,0.007,0.116:
1000
0100
0010
0001
1000
0001
1001
0000
,
0001
0010
0100
1000
0001
1000
1001
0000
,
0000
0000
0000
0000
,
0000
0000
0000
0000
,
0000
0000
0001
1000
,
0010
1000
0001
0010
,
0100
0000
1000
0000
0001
1000
0001
0100
,
0000
0010
0000
0100
0000
0001
1000
0000
,
0011
1001
1000
0001
,
1000
0001
1000
0001
,
1000
0001
1000
0010
,
0100
0010
0100
0010
,
0100
0000
0010
0000
0100
0100
0001
0010
,
1000
0010
0010
1000
0100
1000
0010
1000
,
0100
0010
0001
0010
0001
0001
0100
0010
,
1000
0100
1000
0100
0010
0001
0010
0001
,
1000
0010
0100
0100
0001
0100
1000
0010
,
0100
0001
1000
0100
1000
0000
0010
0000
,
1000
0001
1000
0000
0010
1000
0001
0000
,
1000
0010
0100
0000
0001
0000
1000
0000
,
0001
1000
0001
0000
0010
0001
0100
0000
,
0010
1000
0100
0000
1000
0000
1001
0000
,
0010
0100
0010
0000
0100
0010
1000
0000
,
0001
0100
0010
0000
0100
0000
1001
0000
,
0010
0100
0010
0000
1000
0001
1001
0000
,
0010
0100
0010
1000
0001
0000
0010
0000
,
0100
1000
0010
0000
,
0010
0000
1000
0100
,
0010
0001
1000
0000
,
1000
0000
0001
1000
,
0001
1000
0010
1000
,
0010
0000
1000
0001
,
0010
0100
1000
0000
,
1000
0000
0001
0010
,
0100
1000
0100
0010
,
0001
0000
1000
0100
,
0010
0001
0010
0100
,
1000
0000
0010
1000
,
0010
1000
0001
0010
,
0001
0000
1000
0001
,
1000
0000
0001
1000
,
0001
0000
0110
0110
,
1000
0100
0010
0001
,
0010
0100
1000
0100
,
0010
0001
0010
0100
,
1000
0100
0010
0001
,
1000
0001
0010
0100
,
1000
0100
0010
0001
,
0010
0100
1000
0100
,
0010
0001
0100
0010
,
1000
0001
1000
0010
,
0100
0001
0100
0010
,
0100
0001
1000
0010
,
1000
0001
0100
1001
,
0100
0001
1000
0010
,
0100
0001
0100
0010
,
1001
0000
0000
0000
0000
0000
0010
0000
0100
0000
0000
0010
0010
0000
0000
1000
,
1001
0000
0000
0010
0000
0000
0010
0000
0000
0000
0000
0000
0000
0000
1000
0000
0010
0000
0000
0000
0010
0000
1000
0000
,
1001
0000
0000
0000
0000
0000
0000
0000
0000
0000
0000
0000
0010
0000
0000
0000
0000
0000
0000
0000
0000
0000
0000
0000
1000
0000
0000
0000
0100
0000
0000
0000
0010
0000
0000
0000
0001
0000
0000
1000
0000
0000
0001
0000
0000
1000
0000
0000
,
0001
0000
0000
0000
0010
0000
0000
0000
0100
0000
0000
0000
1000
0000
0000
0000
0100
0000
0000
0000
0010
0000
0000
0000
0001
0000
0000
0100
0000
0000
0001
0000
0000
0100
0000
0000
0001
0000
0000
0010
0000
0000
0100
0000
0000
1000
0000
0000
,
0010
1001
0010
1001
,
0100
0000
1000
0000
0001
0000
1000
0010
,
1000
0011
1010
0100
,
0011
0000
0001
0000
1000
0000
0010
1000
,
0010
0000
0100
0000
0001
0010
0100
1000
,
0010
0101
0010
1100
,
0001
0000
0010
0000
0100
0000
1000
0010
,
0100
0001
0110
1000
,
0010
0000
1001
0000
1000
0010
0100
0001
,
1000
0001
1000
0110
,
0001
0000
0010
0100
1000
0000
1010
0000
,
0100
0000
0001
0000
0010
0100
1000
0010
,
0100
0101
0010
1100
,
0010
0000
0101
0000
0010
0000
1000
0010
,
0100
1010
0100
0001
,
0010
0001
0100
0001
0010
0001
0100
0000
,
0010
1000
0010
0100
0010
1000
0010
0100
,
0010
0000
1100
0000
1001
0000
0010
0001
,
1000
0011
1001
0010
,
0101
1001
0100
1010
,
1001
0000
0001
0010
0100
1000
0010
0000
,
1000
0000
0011
0000
0001
0010
1000
0000
,
0010
0000
1100
0000
1000
0010
0001
0000
,
0100
0010
0100
0000
0011
0000
1100
0000
,
1001
0000
0000
0001
0000
0010
0000
0100
0000
1000
0000
0100
,
0000
0010
0000
0001
0000
0010
0000
0100
0000
1000
0000
0100
,
0000
0011
0000
0000
0000
0000
1000
0000
0100
0000
0010
0000
,
0001
0000
0010
0000
0100
0000
1000
0000
0100
0000
0010
0000
,
0001
0000
1100
0000
0000
0000
0000
0000
0000
0000
0000
0000
,
0000
0000
1000
0001
,
0010
0001
1000
0010
,
1000
0000
0001
1000
,
0010
1000
0010
0100
,
0010
0000
0100
0001
,
0100
0001
0100
0010
,
0100
0000
0001
1000
,
0001
0000
1000
0100
,
0010
0001
0010
0100
,
1000
0001
0010
0100
,
1000
0100
0010
0001
,
0100
0010
1000
0010
,
0100
0010
1000
0010
,
0100
0010
0100
0001
,
0010
0001
0100
0001
,
0010
0001
1000
0010
,
0100
0010
1000
0010
,
0100
0001
1000
0010
,
0100
0001
0100
0010
,
1000
0000
0010
0000
0100
0000
0000
0002
,
0000
0000
0000
0000
1003
0000
0001
1000
,
0000
1010
0000
0101
0000
0000
1001
0000
,
0110
1001
0100
0001
,
0100
0000
0010
1000
,
0000
0001
0010
0000
,
1000
0001
0010
0100
,
1000
0001
1000
0000
,
0000
0000
0001
0100
,
0010
1000
0000
0000
,
0000
0000
0000
0000
,
0000
0000
0000
0000
,
0000
0000
0000
0000
,
0000
0000
0000
0000
,
0000
0000
0000
0000
,
0000
0001
0001
1001
,
0000
0000
0000
0000
,
0000
0000
0000
0000
,
0000
0000
0000
0000
,
0000
0000
0000
0000
,
0000
0000
0000
0000
,
0000
0000
0000
0000
,
0000
0000
0000
0000
,
0000
0000
0000
0000
,
0000
0000
0000
0000
,
0000
0000
0000
0000
,
0000
0000
0000
0000
,
0000
0000
0000
0000
,
0000
0000
0000
0000
,
0000
0000
0000
1001
;

//---------------dance-single - ----------------
#NOTES:
     dance-single:
     :
     Medium:
     7:
     0.459,0.729,0.409,0.071,0.000:
1000
0000
0001
0000
0100
0100
0100
0000
,
0001
0000
1000
0000
0010
0010
0010
0000
,
0000
0000
0000
0000
,
0000
0000
0000
0000
,
0000
0000
1000
0000
,
0010
0000
1000
0000
,
0001
0000
0010
0000
,
0001
0100
0001
0000
,
1000
0001
1000
0000
,
0100
0000
1000
0000
,
0100
0000
0010
0000
,
0001
0000
0010
0001
,
1000
0001
1000
0001
,
0100
0010
0100
0000
0001
0000
0010
0000
,
0100
1000
0010
0100
,
0001
1000
0001
0000
0010
0000
0001
0000
,
0010
0000
0100
0000
1000
0010
1000
0000
,
0001
0100
0001
0001
1001
0000
1000
0000
,
0001
0000
1100
0000
,
1100
0000
0001
0001
,
1000
0000
0011
0000
,
0011
0000
0100
0010
,
0100
0000
1100
0000
,
0101
0000
0001
0100
,
0010
0000
1000
0001
,
0200
0000
0310
0000
,
1000
0000
0010
0000
,
1000
0010
1000
0001
,
0100
0000
0001
0000
,
0010
0000
0001
0100
,
0001
0100
0010
0000
,
1000
0000
0010
0000
,
1000
0010
0100
0010
,
1000
0000
0001
1000
,
0000
0001
0000
0010
,
0001
0100
0001
0010
,
0001
0100
0001
0000
,
1000
0000
0010
1000
,
0010
1000
0001
0100
,
0001
0100
0010
0100
,
0010
1000
0001
1000
,
0001
1000
0002
1000
,
1003
0000
0100
0000
,
0010
0000
0001
0000
,
1000
0001
1000
0001
,
1000
0100
0010
0001
,
1000
1000
0001
1000
,
0001
0010
0100
1000
,
0001
1000
0100
0010
,
0001
0001
1000
0001
,
1000
0100
0010
0001
,
0100
0001
0010
0001
,
1000
0001
0010
0100
,
1000
0001
0001
1000
,
0001
1000
0001
0100
,
0010
0100
0001
1000
,
0002
0000
0000
0010
0010
0000
0000
0000
,
0203
0010
0010
0000
0000
0000
0010
0000
,
0302
0000
1000
1003
,
0020
0000
0000
0000
0100
0000
0130
0100
,
0100
0010
0100
0010
,
1000
0001
0100
0001
,
0010
0001
0010
0100
,
1000
0001
0100
0010
,
0100
0001
0010
0001
,
1000
0101
0010
0100
,
1010
0100
0001
0100
,
0010
1000
0001
0100
,
0010
1100
0010
0100
,
0011
0100
0010
1000
,
0001
0010
0100
1000
,
0100
0010
0001
0100
,
0001
1100
0010
0101
,
0100
1010
0001
0110
,
1000
0101
0010
1000
,
0010
0100
0001
0100
,
1010
0110
0101
0001
,
0100
0010
1000
0001
,
2001
0001
3001
0210
,
0010
0310
1002
1000
,
1003
0011
0110
1100
,
1001
0010
1000
0001
,
1100
0110
0011
0100
,
1000
0001
0100
0010
,
0100
1001
0010
0100
,
1000
0100
0010
0001
,
0100
0000
1001
0010
,
0100
1000
0100
0010
,
0001
0100
0000
0000
,
0000
0000
0001
0100
,
0001
0000
1000
0010
,
1000
0000
0010
0100
,
0010
0000
1000
0100
,
1000
0001
0010
0001
,
1000
0000
0100
0000
,
0010
0000
0001
0010
,
0100
1000
0011
0000
,
0110
0000
1100
0000
,
1001
0000
1010
0000
,
0110
0000
0101
0000
,
1001
0000
0110
0000
,
1001
0000
1100
0000
,
0110
0000
0011
0000
,
0110
0000
1100
0000
,
0101
0000
0110
0000
,
1010
0000
1000
0100
,
1000
0001
0010
0001
,
0100
0010
1000
0100
,
1000
0000
0001
0000
1000
0000
0000
0002
,
0000
0000
0000
0000
1003
0000
0000
0011
,
0000
1100
0000
1001
0000
0000
1010
0000
,
0101
1001
0010
0100
,
0010
0000
0010
1000
,
0000
1000
0001
0000
,
1000
0001
1000
0010
,
0100
0000
1001
0000
,
0000
0000
0010
0100
,
0010
1000
0000
0000
,
0000
0000
0000
0000
,
0000
0000
0000
0000
,
0000
0000
0000
0000
,
0000
0000
0000
0000
,
0000
0000
0000
0000
,
0000
0001
0000
1001
,
0000
0000
0000
0000
,
0000
0000
0000
0000
,
0000
0000
0000
0000
,
0000
0000
0000
0000
,
0000
0000
0000
0000
,
0000
0000
0000
0000
,
0000
0000
0000
0000
,
0000
0000
0000
0000
,
0000
0000
0000
0000
,
0000
0000
0000
0000
,
0000
0000
0000
0000
,
0000
0000
0000
0000
,
0000
0000
0000
0000
,
0000
0000
0000
1001
;

//---------------dance-single - ----------------
#NOTES:
     dance-single:
     :
     Easy:
     5:
     0.289,0.583,0.155,0.042,0.000:
1000
1000
1000
0110
,
0001
0001
0001
1001
,
0000
0000
0000
0000
,
0000
0000
0000
0000
,
0000
0000
1000
0000
,
1000
0000
0010
0000
,
1000
0000
0001
0000
,
0100
0000
0001
0000
,
1000
0000
0010
0000
,
1000
0000
0010
0000
,
0000
0000
1000
0000
,
0001
0000
1000
0000
,
0000
0001
1000
0100
,
0010
0001
1000
0001
,
0100
0010
0100
0000
0001
0000
0010
0000
,
0100
0000
1000
0000
0001
1000
0001
0000
,
1000
0010
1000
0000
0001
0100
0001
0000
,
0100
0010
0100
0000
1001
0000
0000
0000
,
1000
0000
0010
0000
,
0010
0000
1000
0000
,
1001
0000
0100
0000
,
0100
0000
0001
0000
,
1001
0000
0010
0000
,
0010
0000
1000
0000
,
1001
0000
0100
0010
,
0200
0000
0301
0000
,
1000
0000
0001
0000
,
1000
0000
0001
0000
,
0100
0000
0010
0000
,
0100
0000
0010
0000
,
1000
0000
0001
0000
,
1000
0000
0001
0000
,
0100
0000
0010
0000
,
0100
0000
0001
0000
,
0010
0000
0001
0000
,
1000
0000
0100
0000
,
1000
0000
0001
0000
,
0010
0000
0001
0000
,
1000
0000
0100
0000
,
1000
0000
1100
0000
,
0000
0000
0101
0000
,
0000
0000
1001
0000
,
1000
0000
0001
0000
,
1000
0000
0001
0000
,
1000
0000
0010
0000
,
0100
0000
0010
0000
,
0100
0100
0000
0001
,
0000
0100
0000
0010
,
0000
1000
0000
0001
,
1000
1000
0000
0010
,
0000
1000
0000
0100
,
0000
1000
0000
0001
,
0000
0010
0000
0001
,
0000
0100
0000
0000
,
0010
0000
0100
0000
,
0010
0000
1000
0000
,
1001
0001
0001
0001
,
0110
1000
1000
1000
,
0101
0010
0010
0010
,
1010
0100
0100
0100
,
1001
0000
1000
0000
,
0001
0000
0100
0001
,
0100
0000
0010
0000
,
1000
0000
0001
0000
,
0100
0000
0010
0000
,
1000
0010
0100
0000
,
0010
0000
0100
0000
,
0010
0000
0100
0000
,
0001
0000
0100
0010
,
1000
0000
0100
0000
,
1000
0000
0100
0000
,
0010
0000
0001
0100
,
0010
1001
0000
1000
,
0000
0001
0000
1000
,
0000
0010
0000
0100
,
0010
0100
0001
0100
,
0010
0100
0010
1000
,
0001
0010
0001
0000
,
1001
0000
0000
0110
,
0000
0000
1001
0000
,
0000
1000
0010
0010
,
1001
0100
0000
0100
,
0001
0010
0001
1000
,
0100
1000
0001
0100
,
0010
2002
0000
0000
,
0000
0000
0000
0000
,
3003
0010
2002
0000
,
0000
0000
0000
0000
,
3003
0100
0000
0000
,
0000
0000
0010
0000
,
0000
0000
1000
0000
,
0000
0000
0010
0000
,
0000
0000
0100
0000
,
0000
0000
0010
0000
,
0000
0000
0100
0000
,
0000
0000
0001
0000
,
1000
0000
0001
0000
,
0010
0000
0001
0000
,
0010
0000
0001
0000
,
0100
0000
0001
0000
,
1000
0000
0100
0000
,
1000
0000
0010
0000
,
1000
0000
0001
0000
,
1000
0000
0010
0000
,
0100
0000
0001
0000
,
1000
0000
0001
0000
,
0010
0000
0100
0000
,
1000
0000
0010
0000
,
0100
0000
1001
0000
,
0000
0000
0010
0000
,
1000
0000
0000
0010
,
0100
0010
1000
0000
,
0000
0000
1000
0000
,
0000
0000
0010
0000
,
0000
0000
1000
0000
,
0001
0000
1000
0000
,
0000
0000
0001
0000
,
0100
0010
0000
0000
,
0000
0000
0000
0000
,
0000
0000
0000
0000
,
0000
0000
0000
0000
,
0000
0000
0000
0000
,
0000
0000
0000
0000
,
0000
2000
0000
3001
,
0000
0000
0000
0000
,
0000
0000
0000
0000
,
0000
0000
0000
0000
,
0000
0000
0000
0000
,
0000
0000
0000
0000
,
0000
0000
0000
0000
,
0000
0000
0000
0000
,
0000
0000
0000
0000
,
0000
0000
0000
0000
,
0000
0000
0000
0000
,
0000
0000
0000
0000
,
0000
0000
0000
0000
,
0000
0000
0000
0000
,
0000
0000
0000
0001
;

//---------------dance-single - ----------------
#NOTES:
     dance-single:
     :
     Beginner:
     3:
     0.146,0.291,0.092,0.000,0.000:
0000
0000
0000
0000
,
0000
0000
0000
0000
,
0000
0000
0000
0000
,
0000
0000
0000
0000
,
0000
0000
0000
0000
,
0000
0000
0000
0000
,
0000
0000
1000
0000
,
0000
0000
0000
0000
,
0000
0000
0001
0000
,
0000
0000
0000
0000
,
0000
0000
0000
0000
,
1000
0000
0000
0000
,
0000
0010
0000
0000
,
0100
0000
0100
0000
,
0100
0000
0001
0000
,
0001
0000
1000
0000
,
1000
0000
0010
0000
,
0010
0000
1001
0000
,
0000
0000
1000
0000
,
0000
0000
0001
0000
,
0000
0000
1000
0000
,
0000
0000
0001
0000
,
0000
0000
0100
0000
,
0000
0000
0100
0000
,
0000
0000
0010
0000
,
0000
0000
1001
0000
,
0100
0000
0000
0000
,
1000
0000
0000
0000
,
0100
0000
0000
0000
,
1000
0000
0000
0000
,
0001
0000
0000
0000
,
0010
0000
0000
0000
,
0001
0000
0000
0000
,
0010
0000
0000
0000
,
0001
0000
0000
0000
,
1000
0000
0000
0000
,
0001
0000
0000
0000
,
1000
0000
0000
0000
,
0001
0000
0000
0000
,
0100
0000
0000
0000
,
0010
0000
0000
0000
,
1000
0000
0000
0000
,
0010
0000
0000
0000
,
0100
0000
0000
0000
,
0010
0000
0000
0000
,
1000
0000
0000
0000
,
0001
0000
0000
1000
,
0000
0000
0000
0001
,
0000
0000
0000
0100
,
0000
0000
0000
0010
,
0000
0000
0000
0100
,
0000
0000
0000
0010
,
0000
0000
0000
0100
,
0000
0000
0000
0000
,
0001
0000
0000
0000
,
1001
0000
0000
0000
,
1000
0000
0000
0000
,
0001
0000
0000
0000
,
1000
0000
0000
0000
,
0010
0000
0000
0000
,
0100
0000
0000
0010
,
0000
0010
0000
0010
,
0000
1000
0000
1000
,
0000
1000
0000
0001
,
0000
0001
0000
0001
,
0000
0100
0000
0100
,
0000
0100
0000
0010
,
0000
0010
0000
0010
,
0000
1000
0000
0100
,
0000
1000
0000
0100
,
0000
0010
0000
0001
,
0000
0010
0000
0001
,
0000
1001
0000
0100
,
0000
1000
0000
0010
,
0000
1000
0000
0010
,
0000
0010
0000
0010
,
0000
0010
0000
0100
,
0000
0100
0000
0000
,
1001
0000
0000
0010
,
0000
0000
1001
0000
,
0000
0000
0000
0000
,
0000
0100
0000
0100
,
0000
0001
0000
0001
,
0000
1000
0000
0001
,
0000
1001
0000
0000
,
0000
0000
0000
0000
,
0000
0000
1001
0000
,
0000
0000
0000
0000
,
0000
0000
0000
0000
,
0000
0000
0000
0000
,
0100
0000
0000
0000
,
0010
0000
0000
0000
,
1000
0000
0000
0000
,
0010
0000
0000
0000
,
1000
0000
0000
0000
,
0001
0000
0000
0000
,
0100
0000
0000
0000
,
0001
0000
0000
0000
,
1000
0000
0000
0000
,
0010
0000
0000
0000
,
1000
0000
0000
0000
,
0001
0000
0000
0000
,
1000
0000
0000
0000
,
0001
0000
0000
0000
,
1000
0000
0000
0000
,
0010
0000
0000
0000
,
1000
0000
0000
0000
,
0010
0000
0000
0000
,
0100
0000
1001
0000
,
0000
0000
0000
0000
,
1100
0000
0000
0101
,
0000
0000
1001
0000
,
0000
0000
0010
0000
,
0000
0000
0100
0000
,
0000
0000
0001
0000
,
0000
0000
1000
0000
,
0000
0000
0001
0000
,
0000
1001
0000
0000
,
0000
0000
0000
0000
,
0000
0000
0000
0000
,
0000
0000
0000
0000
,
0000
0000
0000
0000
,
0000
0000
0000
0000
,
0000
0000
0000
0000
,
0000
0000
0000
0000
,
0000
0000
0000
0000
,
0000
0000
0000
0000
,
0000
0000
0000
0000
,
0000
0000
0000
0000
,
0000
0000
0000
0000
,
0000
0000
0000
0000
,
0000
0000
0000
0000
,
0000
0000
0000
0000
,
0000
0000
0000
0000
,
0000
0000
0000
0000
,
0000
0000
0000
0000
,
0000
0000
0000
0000
,
0000
0000
0000
1000
;
