#TITLE:Morning Music;
#SUBTITLE:;
#ARTIST:Bubble System;
#TITLETRANSLIT:;
#SUBTITLETRANSLIT:;
#ARTISTTRANSLIT:;
#CREDIT:DMAxel;
#BANNER:Morning Music.png;
#BACKGROUND:Morning Music-bg.png;
#LYRICSPATH:;
#CDTITLE:KEYBOARDMANIA.png;
#MUSIC:Morning Music.mp3;
#OFFSET:-12.100;
#SAMPLESTART:0.740;
#SAMPLELENGTH:12.000;
#SELECTABLE:YES;
#BPMS:0.000=90.000,112.000=84.000,116.000=42.000,118.000=32.000,118.500=72.000;
#STOPS:;
#BGCHANGES:-18.000=Morning Music.AVI=1.000=1=1=0,
127.500=Morning Music-bg.png=1.000=1=0=1,
99999=-nosongbg-=1.000=0=0=0 // don't automatically add -songbackground-
;

//---------------dance-single - ----------------
#NOTES:
     dance-single:
     :
     Medium:
     4:
     0.243,0.247,0.204,0.184,0.005:
1000
0010
0100
0000
0002
0000
0000
0100
,
0103
0000
1100
0000
2000
0000
0000
0010
,
3010
0011
0011
1001
,
0000
0000
1000
0000
0001
0000
0000
0010
0200
0000
0000
0000
0010
0000
0000
0000
,
0310
0001
0010
0100
2000
0000
0010
0000
,
3010
1000
0100
0010
0002
0000
0100
0000
,
0103
0001
0010
0100
1000
0000
0000
0100
,
1000
0001
0001
1000
0100
0000
0000
0010
,
0001
1000
1000
0001
0010
0000
1010
0000
,
0100
0001
0010
0100
2000
0000
0000
0010
,
3020
0000
0000
0000
,
0200
0000
0330
0000
,
0000
0101
0101
0000
,
0000
1100
1100
0000
,
0000
0000
0110
0000
0110
0000
0000
0001
,
2000
0000
0000
3100
0020
0000
0000
0031
,
0100
0000
1001
0000
0000
0010
1000
0001
,
0001
0000
1001
0000
0000
0100
0001
1000
,
0100
0010
0001
1000
0001
0000
0000
0100
,
0002
1000
1003
0000
,
1100
0000
1100
0000
1100
0000
0000
0001
,
1000
0010
0010
1000
0002
0000
1003
0000
,
0011
0000
0011
0000
0011
0000
0000
1000
,
0001
0100
0002
0000
2000
0000
0000
3003
,
0000
0100
1000
0001
0010
0000
0000
0100
,
0010
0001
1000
0010
1000
0000
0000
0100
,
0010
0001
1000
0010
1000
0000
1001
0000
,
0000
0001
0200
0000
0020
0000
0330
0000
,
0000
1000
0100
0010
0001
0000
1001
0000
,
0000
0100
0020
0000
0100
0130
0000
0000
,
0000
0002
0000
0000
0000
0000
0000
2000
,
0000
0000
0000
0000
0000
0000
0000
3003
;

//---------------dance-single - ----------------
#NOTES:
     dance-single:
     :
     Hard:
     7:
     0.358,0.356,0.116,0.243,0.121: // measure 1
0001
0000
1000
0000
0100
0000
0010
0000
0002
0000
0000
0000
0000
0000
0103
0001
,  // measure 2
0100
0000
0001
0000
0010
0000
0100
0000
2000
0000
0000
0000
0000
0000
3010
1000
,  // measure 3
0010
1000
0100
0010
0001
0000
1001
0000
,  // measure 4
1000
0000
0100
1000
0100
0000
0000
1000
0001
0000
0010
0000
0100
0000
1000
0000
,  // measure 5
0001
0100
0001
1000
0100
0001
0100
1000
,  // measure 6
0001
0010
0100
1000
0100
0001
0100
1000
,  // measure 7
0001
0100
0001
1000
0200
0000
0000
0310
,  // measure 8
0100
1000
0100
0010
0002
0000
0000
0013
,  // measure 9
0100
0010
0001
1000
0100
0001
0100
1000
,  // measure 10
0001
0010
0100
1000
0002
0000
0000
0100
,  // measure 11
0103
0000
0010
1000
0010
1000
0001
0010
0001
0000
0010
0000
0100
0000
1000
0000
,  // measure 12
0020
0000
0000
0000
0000
0000
0000
0000
0030
0000
0000
0000
1000
0100
0010
0001
,  // measure 13
1000
0000
1000
0000
1100
0000
0100
0000
1001
0000
0000
0000
0001
0010
0100
1000
,  // measure 14
0001
0000
0001
0000
0101
0000
0100
0000
1001
0000
0000
0000
1000
0100
0010
0001
,  // measure 15
1000
1000
1010
0010
1002
0000
0000
1000
,  // measure 16
2003
0000
0000
0000
0000
0000
3010
0100
0002
0000
0000
0000
0000
0000
0103
0010
,  // measure 17
1000
0000
1002
0000
0000
1003
0100
0010
,  // measure 18
0001
0000
2001
0000
0000
3001
0010
0100
,  // measure 19
1000
0100
0001
0100
2000
0000
0000
0100
,  // measure 20
3100
1000
0100
0010
0002
0000
1000
0000
,  // measure 21
1003
0000
1000
0000
0001
0000
0010
0000
0200
0000
0000
0000
1000
0000
1300
0001
,  // measure 22
1000
0000
0001
0000
0100
0000
1000
0000
0010
0000
0000
0100
0001
0000
1000
0000
,  // measure 23
0001
0001
1000
0100
0020
0000
0001
0031
,  // measure 24
1000
0000
0001
0000
0100
0000
0000
0010
1000
0000
0010
0100
0020
0000
0000
0000
,  // measure 25
1000
0000
1030
0000
0001
0000
0010
0000
0200
0000
0000
0000
1000
0000
1300
0001
,  // measure 26
0100
0000
0001
0000
1000
0000
0100
0000
0020
0000
0000
0000
0001
0000
0031
1000
,  // measure 27
0010
1000
0001
0100
1000
0000
1002
0000
,  // measure 28
0103
0000
0100
0001
1000
0000
0000
0010
1000
0000
0100
0000
0010
0000
0001
0000
,  // measure 29
0100
1000
0100
0010
0001
0000
2001
0000
,  // measure 30
3010
0000
0010
1000
0002
0000
0000
0000
2003
0000
3010
0000
1000
0000
0001
0000
,  // measure 31
0010
0000
0100
0000
0010
0000
0002
0000
0000
0103
0000
0000
0000
0000
2002
0000
,  // measure 32
0000
0000
0000
0000
0000
0000
0000
3003
;

//---------------dance-single - ----------------
#NOTES:
     dance-single:
     :
     Easy:
     2:
     0.157,0.150,0.058,0.213,0.000:
0001
0010
0002
0000
,
1003
0100
2000
0000
,
3001
0100
0001
1001
,
0000
0010
2000
0001
,
3001
0010
0200
0000
,
1300
0100
0020
0000
,
0031
0010
0200
0000
,
1300
0010
0200
0000
,
0301
0100
0010
1000
,
0002
0000
1003
0000
,
0010
1000
0100
0010
,
0002
0000
0003
0000
,
0000
0100
0101
0000
,
0000
1000
1100
0000
,
0000
0001
1001
0000
,
0200
0000
0302
0000
,
1003
1001
0000
1000
,
0001
1001
0000
0001
,
1000
0010
0200
0000
,
0002
0000
0000
0303
,
1000
0010
0200
0000
,
0301
0010
0100
1000
,
0001
0100
0020
0000
,
1030
0100
0010
0000
,
0001
1000
0020
0000
,
0130
0010
2000
0000
,
3100
0010
0001
2000
,
0000
3010
0200
0000
,
0301
0010
0100
2000
,
0000
0000
3002
0000
0000
2000
0000
0000
,
0000
0000
0000
0000
0000
0000
0000
3003
;

//---------------dance-single - ----------------
#NOTES:
     dance-single:
     :
     Beginner:
     1:
     0.043,0.057,0.000,0.000,0.000:
1000
0000
0000
0000
,
0000
0000
0000
0000
,
0001
0000
0000
0000
,
0000
0001
0000
0000
,
0100
0000
0000
0000
,
0100
0000
0000
0000
,
0010
0000
0000
0000
,
0010
0000
0000
0000
,
1000
0000
0001
0000
,
1000
0000
0000
0000
,
1000
0000
0000
0000
,
0000
0000
0000
0000
,
0000
0001
0001
0000
,
0000
1000
1000
0000
,
0000
0001
0001
0000
,
0100
0000
0000
0000
,
0010
0000
0000
0000
,
0100
0000
0000
0000
,
0010
0000
0000
0000
,
1000
0000
0000
0000
,
0001
0000
0000
0000
,
0001
0000
0000
0000
,
1000
0000
0000
0000
,
1000
0000
0000
0000
,
0100
0000
0000
0000
,
0000
0000
0000
0000
,
0010
0000
0000
0000
,
0000
0000
0000
0000
,
0100
0000
0000
0000
,
1000
0000
0000
0000
0000
0001
0000
0000
;
