#TITLE:Moonlight;
#SUBTITLE:;
#ARTIST:BanYa;
#TITLETRANSLIT:;
#SUBTITLETRANSLIT:;
#ARTISTTRANSLIT:;
#CREDIT:DMAxel;
#BANNER:Moonlight.png;
#BACKGROUND:Moonlight-bg.png;
#LYRICSPATH:;
#CDTITLE:PUMP IT UP.png;
#MUSIC:Moonlight.mp3;
#OFFSET:-0.160;
#SAMPLESTART:6.753;
#SAMPLELENGTH:12.000;
#SELECTABLE:YES;
#BPMS:0.000=180.000,128.000=45.000,145.500=90.000,150.000=180.000;
#STOPS:;
#BGCHANGES:3.160=Moonlight.avi=1.000=1=1=0,
99999=-nosongbg-=1.000=0=0=0 // don't automatically add -songbackground-
;

//---------------dance-single - ----------------
#NOTES:
     dance-single:
     :
     Easy:
     3:
     0.237,0.297,0.107,0.166,0.000: // measure 1
0000
0000
0000
0000
,  // measure 2
0000
0000
0000
0000
,  // measure 3
0000
0100
0000
0100
,  // measure 4
0000
0100
0000
0000
,  // measure 5
0020
0000
0000
0000
,  // measure 6
1030
0001
0000
1000
,  // measure 7
0000
0010
0000
0100
,  // measure 8
0000
0001
0000
1000
,  // measure 9
0000
0001
0000
0100
,  // measure 10
0000
0010
0000
0100
,  // measure 11
0000
0010
0000
1000
,  // measure 12
0000
0001
0010
1001
,  // measure 13
0100
0010
1000
1001
,  // measure 14
0020
0000
0000
0000
,  // measure 15
0230
0000
0000
0000
,  // measure 16
0302
0000
0000
0000
,  // measure 17
2003
0000
0000
0000
,  // measure 18
3100
0010
0001
0010
,  // measure 19
0100
1000
0000
0000
,  // measure 20
0002
0000
0000
0000
,  // measure 21
2003
0000
0000
0000
,  // measure 22
0000
0000
3001
1001
,  // measure 23
0002
0000
0000
0000
,  // measure 24
0000
0000
1003
1001
,  // measure 25
0200
0000
0000
0000
,  // measure 26
0000
0000
0000
0310
,  // measure 27
0100
0001
0010
0100
,  // measure 28
1000
0010
0100
0001
,  // measure 29
1000
0001
1000
0010
,  // measure 30
0100
0010
0100
0010
,  // measure 31
2002
0000
0000
0000
,  // measure 32
0000
0000
0000
0000
,  // measure 33
3003
0010
0000
0100
0000
0001
0000
1000
,  // measure 34
0000
0100
0000
0010
0000
0001
0000
0010
,  // measure 35
0000
0001
0000
0010
0000
0100
0000
1000
,  // measure 36
0000
0100
0000
1000
0000
0100
0000
1000
,  // measure 37
0000
0001
0000
0010
0000
0001
0000
0010
,  // measure 38
0000
0100
0000
1000
0000
0000
0001
0000
,  // measure 39
1000
0000
0010
0000
,  // measure 40
0100
0000
0010
0000
,  // measure 41
1000
0000
0001
0000
,  // measure 42
0010
0000
1001
0000
,  // measure 43
0100
0000
0010
0000
,  // measure 44
1000
0000
1001
0000
,  // measure 45
0010
0000
1001
0000
,  // measure 46
0100
0000
1001
0001
,  // measure 47
0010
0001
0010
0001
,  // measure 48
0100
0010
0100
0010
,  // measure 49
1000
0100
1000
0010
,  // measure 50
0100
0001
0010
0100
,  // measure 51
1000
0010
0100
0001
,  // measure 52
1000
0010
0100
0001
,  // measure 53
0010
0100
1000
0100
,  // measure 54
0010
0001
1000
0010
,  // measure 55
0100
0010
1000
0002
,  // measure 56
0000
0000
0000
2003
,  // measure 57
0000
0000
0000
3020
,  // measure 58
0000
0000
0000
2030
,  // measure 59
0000
0000
0000
3001
,  // measure 60
0000
0110
0000
2002
,  // measure 61
0000
0000
0000
3003
;

//---------------dance-single - ----------------
#NOTES:
     dance-single:
     :
     Hard:
     7:
     0.482,0.594,0.293,0.195,0.024:
0000
0000
0000
0000
,
0000
0000
0000
0000
,
1000
1100
0001
0011
,
0100
1000
0100
0010
0001
0100
0010
2002
,
0000
0000
0000
3003
,
0001
0100
0010
0100
,
0001
0000
1000
0000
0010
0100
0100
0000
,
0001
1000
0100
0010
,
0001
0000
0100
0000
0010
1000
1000
0000
,
0001
0100
0010
1000
,
0001
0000
0100
0000
0010
1000
1000
0000
,
0001
0000
0100
0000
0001
0100
0100
0010
,
1000
0000
0100
0000
1000
0010
0100
0010
,
0100
0010
1000
0000
0001
0100
0010
0000
,
1000
0010
0100
0000
0001
1000
0001
0000
,
1000
0001
1000
0000
0010
0100
0010
1000
,
0100
0010
0001
0100
0001
0100
1000
0000
,
0010
0100
0010
1000
0100
0010
0001
0100
,
0001
0100
1000
1000
1001
0000
0000
0000
,
0000
0000
0000
0000
,
0100
0010
0000
0010
0100
0000
0100
0001
,
0000
0001
1000
0000
0011
0000
1100
0000
,
0001
1000
0000
1000
0001
0000
0100
0010
,
0000
0010
0100
0000
1010
0000
0101
0000
,
1000
0001
0000
0001
0100
0000
0010
1000
,
0000
0001
0100
0000
1100
0000
0011
0000
,
0001
0100
0001
1000
,
0110
0100
0001
1000
,
1001
1000
0010
0100
,
0110
1000
0001
0100
,
2002
0000
0000
0000
,
3003
0010
0100
0002
,
1003
0000
0000
0000
0100
0000
0000
0010
0000
0000
0000
0000
0001
0000
0000
0000
0010
0000
0000
0000
0100
0000
0000
1000
0000
0000
0000
0000
0010
0000
0000
0000
,
0100
0000
0000
0000
0100
0000
0000
0001
0000
0000
0000
0000
0001
0000
0000
0000
1000
0000
0000
0000
1000
0000
0000
0010
0000
0000
0000
0000
0010
0000
0000
0000
,
0100
0200
0001
0001
0302
0000
2000
0003
,
3020
0230
0302
2003
,
0001
3000
0000
0000
0000
0000
0000
0000
0000
0000
0000
0000
0000
0000
0000
0000
0000
0000
0000
0000
0000
0000
0000
0000
1000
0000
0000
0000
0000
0000
0000
0000
0000
0000
0000
0000
0000
0000
0000
0000
0000
0000
0000
0000
0000
0000
0000
0000
0010
0000
0000
0000
0000
0000
0000
0000
0000
0000
0000
0000
0000
0000
0000
0000
0000
0000
0000
0000
0000
0000
0000
0000
0100
0000
0000
0000
0000
0000
0000
0000
0000
0000
0000
0000
0100
0000
0000
0000
0000
0000
0000
0000
0000
0000
0000
0000
0100
0000
0000
0000
0000
0000
0000
0000
0000
0000
0000
0000
0000
0000
0000
0000
0000
0000
0000
0000
0000
0000
0000
0000
0001
0000
0000
0000
0000
0000
0000
0000
0000
0000
0000
0000
0000
0000
0000
0000
0000
0000
0000
0000
0000
0000
0000
0000
0110
0000
0000
0000
0000
0000
0000
0000
0000
0000
0000
0000
0000
0000
0000
0000
0000
0000
0000
0000
0000
0000
0000
0000
1000
0000
0000
0000
0000
0000
0000
0000
0000
0000
0000
0000
0000
0000
0000
0000
0000
0000
0000
0000
0000
0000
0000
0000
,
0110
0001
0110
1000
0110
0000
0001
0000
,
0010
0001
0100
0010
,
0100
0000
0010
1000
1000
0000
0100
0000
,
1000
0001
0100
0010
,
0100
0000
0001
0100
0100
0000
0001
0000
,
0100
0010
0100
0001
,
1000
0000
0001
0100
0100
0000
0010
0000
,
0100
0000
0001
1000
0001
1000
0001
0000
,
1000
0000
0001
0001
1000
0010
1000
0100
,
0001
0000
0100
0010
1000
0010
0100
0001
,
0100
0010
1000
0001
0100
0000
0001
0010
,
1000
0000
1000
0010
0100
0010
1000
0001
,
0100
0010
1000
0000
0001
0010
1000
0000
,
0001
0100
0010
0100
0010
0100
0001
1000
,
0001
0100
0010
1000
0001
0000
1000
0010
,
0001
0000
0100
0010
1000
0100
0010
0001
,
0100
0001
0100
0010
1000
0000
0001
0000
,
0011
0010
0110
0100
,
1100
1000
1001
0010
,
0110
0100
1001
0001
,
0110
1000
0110
2002
,
0000
0000
3003
2200
,
3300
0022
0033
2002
,
0000
0000
0000
3003
;

//---------------dance-single - ----------------
#NOTES:
     dance-single:
     :
     Challenge:
     9:
     0.625,0.772,0.264,0.322,0.161:
0000
0000
0000
0000
,
0000
0000
0000
0000
,
0001
0011
1000
1100
,
0010
0001
0010
0100
1000
0010
0100
0001
,
0001
0100
0010
1000
1000
0010
0100
0001
,
1000
0100
0010
0001
0010
0100
1000
0100
,
0001
0100
1000
0100
0001
0010
0011
0000
,
1000
0100
0010
0001
0010
0100
1000
0010
,
0001
0010
1000
0010
0001
1000
1100
0000
,
0001
0010
0100
1000
0100
0010
0001
0010
,
1000
0010
0001
0010
1000
0001
0101
0000
,
1000
0100
0001
0100
1000
0010
0010
0100
,
0001
0010
0100
1000
0001
0100
0010
0100
,
0002
0000
1003
0100
1000
0010
0100
0001
,
0010
0100
1000
0100
0010
0001
1000
0010
,
0200
0000
0301
0010
0100
1000
0100
0010
,
0001
0100
0010
1000
0100
0010
0001
0100
,
0010
0000
0000
0010
1000
0000
0000
1000
0001
0000
0000
0001
0100
0000
0000
0010
,
1000
0100
0010
0001
1001
0000
0000
0000
,
0002
0000
2000
3003
,
0010
0100
0000
0100
0010
0000
0010
1000
,
0000
1000
0001
0000
1100
0000
0011
0000
,
1000
0001
0000
0001
1000
0000
0010
0100
,
0000
0100
0010
0000
0101
0000
1010
0000
,
0001
1000
0000
1000
0010
0000
0100
0001
,
0000
1000
0010
0000
0011
0000
1100
0000
,
1001
0020
2030
3002
,
0103
0020
2030
3002
,
1003
0002
0203
0320
,
0130
0002
2003
3010
,
2002
0000
0000
0000
,
3003
0100
0010
2000
,
3001
0000
0000
0000
0010
0100
0000
0010
0000
0000
0000
0000
1000
0000
0100
0000
1000
0000
0000
0000
0010
0000
0000
0000
0001
0000
0000
0000
0100
0000
0010
0000
,
0100
0000
0000
0000
0011
0000
0000
0000
1000
0000
0100
0000
1000
0000
0100
0010
0001
0000
0000
0000
0001
0000
0010
0100
1000
0000
0000
0000
0010
0000
0000
0000
,
0100
0000
0020
0000
1000
0000
1000
0000
2030
0000
0000
0001
0002
0000
3000
0000
,
0203
0000
0010
0000
0320
0000
1000
0000
1030
0100
0010
0001
0010
0100
1000
0001
,
1000
0000
0001
0000
0100
0000
0010
0010
0010
0000
1000
0000
0110
0000
0001
0000
,
0110
0000
1000
0100
0010
0001
0010
0100
2000
0000
0000
0000
3002
0000
0000
0000
,
0103
0010
1000
0010
0001
0100
0001
0010
,
1000
0010
0100
0001
1001
0000
0010
0100
,
0001
0100
1000
0010
1000
0100
0001
0100
,
0010
1000
0001
0010
1001
0000
1000
0100
,
0010
0001
0010
1000
0010
0001
0010
0100
,
1000
0100
0001
1000
1001
0000
0010
0100
,
0001
0000
0100
0000
1000
0000
0010
0100
0010
0000
1001
0000
0000
0000
0100
0000
,
0001
0000
0100
0000
0010
0000
1000
0001
1000
0000
0010
0000
0100
0000
0000
0000
,
0001
0100
1000
0100
0001
0100
0010
1000
,
0010
0100
0001
1000
0010
0000
1000
0100
,
0001
0000
0001
0100
0010
0100
0001
1000
,
0010
0100
0001
1000
0010
0000
1000
0100
,
0001
0000
0100
0010
0100
0010
1000
0001
,
1000
0010
0100
0001
1000
0000
0001
0100
,
1000
0000
0010
0100
0001
0010
0100
1000
,
0010
1000
0010
0100
0001
0000
1000
0000
,
1100
0000
0000
0000
0100
0000
0000
0000
0110
0000
0000
0000
0010
0000
0000
0010
,
0001
0000
0000
0001
0010
0000
0001
1000
0001
0000
0100
0000
0010
0000
0000
0010
,
0100
0000
0000
0100
0010
0000
1000
0001
1000
0000
0010
0000
0100
0000
0000
0001
,
1000
0000
0000
1000
0001
0000
0100
0010
1000
0000
0001
0000
2002
0000
0000
0000
,
0000
0000
3003
0022
,
0033
2200
3300
2002
,
0000
0000
0000
3003
;

//---------------dance-single - ----------------
#NOTES:
     dance-single:
     :
     Medium:
     6:
     0.419,0.504,0.215,0.195,0.005:
0000
0000
0000
0000
,
0000
0000
0000
0000
,
0000
1000
0100
0010
,
0001
0010
0100
1000
0010
0100
0010
2002
,
0000
0000
0000
3003
,
1000
0010
0100
0010
,
1000
0000
0001
0000
0100
0010
0010
0000
,
1000
0001
0010
0100
,
1000
0000
0010
0000
0100
0001
0001
0000
,
1000
0010
0100
0001
,
1000
0000
0010
0000
0100
0001
0001
0000
,
1000
0000
0010
0000
1000
0010
0010
0100
,
0001
0000
0010
0000
0001
0100
0010
0100
,
0010
0100
0001
0000
1000
0010
0100
0000
,
0001
0100
0010
0000
1000
0001
1000
0000
,
1001
0000
0001
0000
0100
0010
0100
0001
,
0010
0000
0100
1000
0100
0010
0001
0000
,
1000
0100
0010
0001
,
1000
0000
0001
0001
1001
0000
0000
0000
,
0000
0000
0000
0000
,
0010
0100
0000
0100
0010
0000
0010
1000
,
0000
1000
0001
0000
1100
0000
0011
0000
,
1000
0001
0000
0001
1000
0000
0010
0100
,
0000
0100
0010
0000
0101
0000
1010
0000
,
0001
1000
0000
1000
0010
0000
0100
0001
,
0000
1000
0010
0000
0011
0000
1100
0000
,
1000
0010
1000
0001
,
0100
0010
1000
0001
,
1000
0001
0100
0010
,
0100
0001
1000
0010
,
2002
0000
0000
0000
,
3003
0100
0010
2000
,
3001
0010
0000
1000
0000
0010
0000
0100
,
0010
0010
0000
1000
0000
0001
0000
0100
,
0100
0020
1000
1000
2030
0000
0002
3000
,
0203
0320
2030
3002
,
1000
0003
0000
0000
0000
0000
0000
0000
0000
0000
0000
0000
0000
0000
0000
0000
0000
0000
0000
0000
0000
0000
0000
0000
0001
0000
0000
0000
0000
0000
0000
0000
0000
0000
0000
0000
0000
0000
0000
0000
0000
0000
0000
0000
0000
0000
0000
0000
0100
0000
0000
0000
0000
0000
0000
0000
0000
0000
0000
0000
0000
0000
0000
0000
0000
0000
0000
0000
0000
0000
0000
0000
0010
0000
0000
0000
0000
0000
0000
0000
0000
0000
0000
0000
0010
0000
0000
0000
0000
0000
0000
0000
0000
0000
0000
0000
0010
0000
0000
0000
0000
0000
0000
0000
0000
0000
0000
0000
0000
0000
0000
0000
0000
0000
0000
0000
0000
0000
0000
0000
1000
0000
0000
0000
0000
0000
0000
0000
0000
0000
0000
0000
0000
0000
0000
0000
0000
0000
0000
0000
0000
0000
0000
0000
0001
0000
0000
0000
0000
0000
0000
0000
0000
0000
0000
0000
0000
0000
0000
0000
0000
0000
0000
0000
0000
0000
0000
0000
0010
0000
0000
0000
0000
0000
0000
0000
0000
0000
0000
0000
0000
0000
0000
0000
0000
0000
0000
0000
0000
0000
0000
0000
,
0100
1000
0100
0010
0001
0000
1000
0000
,
0100
1000
0010
0100
,
0010
0000
0100
0001
0001
0000
0010
0000
,
0001
1000
0010
0100
,
0010
0000
1000
0010
0010
0000
1000
0000
,
0010
0100
0010
1000
,
0001
0000
1000
0010
0010
0000
0100
0000
,
0010
0000
1000
0001
1000
0001
1000
0000
,
0001
0000
1000
1000
0001
0100
0001
0000
,
0010
0100
1000
0100
,
0010
0001
0010
0100
,
1000
0001
0100
0001
,
0100
0001
1000
0001
,
1000
0010
0100
0001
,
1000
0100
1000
0001
,
1000
0010
0100
0010
,
1000
0000
0010
0100
0001
0000
1000
0000
,
1100
0100
0110
0010
,
0011
0001
1001
0100
,
0110
0010
1001
1000
,
0110
0001
0110
2002
,
0000
0000
3003
0022
,
0033
2200
3300
2002
,
0000
0000
0000
3003
;

//---------------dance-single - ----------------
#NOTES:
     dance-single:
     :
     Beginner:
     2:
     0.109,0.146,0.147,0.000,0.000:
0000
0000
0000
0000
,
0000
0000
0000
0000
,
0000
0000
0000
0000
,
0000
0000
0000
0000
,
0000
0000
0000
0000
,
1001
0000
0000
0000
,
0000
0000
0000
0000
,
1001
0000
0000
0000
,
0000
0000
0000
0000
,
1001
0000
0000
0000
,
0000
0000
0000
0000
,
1001
0000
0000
0000
,
0010
0000
0000
0000
,
0100
0000
0000
0000
,
0010
0000
0000
0000
,
0100
0000
0000
0000
,
0010
0000
0000
0000
,
1000
0000
0000
0000
,
0001
0000
0000
0000
,
1001
0000
0000
0000
,
0010
0000
0000
0000
,
0000
0000
0000
0000
,
0001
0000
0000
0000
,
0000
0000
0000
0000
,
0100
0000
0000
0000
,
0000
0000
0000
0000
,
0010
0000
0000
0000
,
1000
0000
0000
0000
,
0100
0000
0000
0000
,
1000
0000
0000
0000
,
1001
0000
0000
0000
,
0000
0000
0000
0000
,
0010
0000
0000
0000
,
0100
0000
0000
0000
,
0010
0000
0000
0000
,
0100
0000
0000
0000
,
0001
0000
0000
1000
,
0001
1000
0000
0000
,
0010
0000
0100
0000
,
0010
0000
0000
0000
,
1000
0000
0001
0000
,
1000
0000
0000
0000
,
0001
0000
1000
0000
,
0001
0000
0000
1000
,
0000
0000
0000
0001
,
0000
0000
0000
0100
,
0000
0010
0000
0100
,
0000
0010
0000
1001
,
0000
0100
0000
0010
,
0000
0100
0000
1001
,
0000
0010
0000
0100
,
0000
0010
0000
1001
,
0000
1000
0000
0001
,
0000
1000
0000
1001
,
0000
0000
0000
1001
,
0000
0000
0000
1001
,
0000
0000
0000
1001
,
0000
0000
0000
1001
,
0000
0000
0000
0010
,
0000
0100
0000
1001
;
