#TITLE:モノクロームエフェクト;
#SUBTITLE:;
#ARTIST:Perfume;
#TITLETRANSLIT:Monochrome Effect;
#SUBTITLETRANSLIT:;
#ARTISTTRANSLIT:;
#CREDIT:DMAxel;
#BANNER:Monochrome Effect.png;
#BACKGROUND:Monochrome Effect-bg.png;
#LYRICSPATH:Monochrome Effect.lrc;
#CDTITLE:DMAxel Original Simfile.png;
#MUSIC:Monochrome Effect.mp3;
#OFFSET:-0.080;
#SAMPLESTART:77.404;
#SAMPLELENGTH:12.000;
#SELECTABLE:YES;
#BPMS:0.000=126.000;
#STOPS:28.000=0.476
,223.000=0.476
;
#BGCHANGES:;

//---------------dance-single - ----------------
#NOTES:
     dance-single:
     :
     Easy:
     2:
     0.135,0.172,0.051,0.017,0.000:
0000
0000
0000
0000
,
0000
0000
0000
0000
,
0000
0000
0000
0000
,
0000
0000
0000
0000
,
0000
0100
0000
0100
,
0000
0100
0000
0010
,
0000
0010
0000
0010
,
1001
0000
0000
0000
,
0100
0000
0001
0000
,
0100
0100
0000
0000
,
0010
0000
1000
0000
,
0010
0010
0000
0000
,
0100
0000
0010
0000
,
0100
0100
0000
0000
,
0001
0000
0000
0100
,
0010
0100
0010
1001
,
0000
0000
0000
0000
,
1000
0000
0010
0000
,
1000
0000
0001
0000
,
0100
0000
0001
0000
,
1000
0000
0001
0000
,
1000
0000
0010
0000
,
0100
0000
0010
0000
,
0100
0000
0010
0000
,
0000
0000
1000
0001
,
0001
0000
0000
0100
,
0100
0000
0000
0010
,
0010
0000
0000
1000
,
1000
0000
0000
0001
,
0001
0000
0000
0010
,
0010
0000
0000
0100
,
0100
0000
0000
1001
,
0000
0010
0100
0001
,
0001
1000
1000
0010
,
0000
0000
0000
1000
,
1000
0001
0001
0100
,
0000
0000
0000
0010
,
0010
0100
0100
0001
,
0000
0000
0000
0100
,
0100
0010
0010
0000
,
0000
0000
0000
0000
,
1000
0000
0001
0000
,
1000
1000
0000
0000
,
0001
0000
0100
0000
,
0001
0001
0000
0000
,
1000
0000
0010
0000
,
1000
1000
0000
0000
,
0010
0000
0000
0100
,
0010
0100
0010
1001
,
0000
0000
0000
0010
,
0000
0000
0000
0010
,
0000
0000
0000
0010
,
0000
0000
0000
0100
,
0000
0000
0000
0100
,
0000
0000
0000
0100
,
0000
0000
0000
1001
,
0000
0000
2002
0000
,
0000
0000
3003
0000
;

//---------------dance-single - ----------------
#NOTES:
     dance-single:
     :
     Medium:
     4:
     0.286,0.345,0.163,0.094,0.000: // measure 1
0000
0000
0000
0000
,  // measure 2
0000
0000
0000
0000
,  // measure 3
0000
0000
0000
0000
,  // measure 4
0000
0000
0000
0000
,  // measure 5
0000
0001
0000
1000
,  // measure 6
0010
0110
0000
0001
,  // measure 7
0100
0110
0000
0100
,  // measure 8
1001
0000
0000
0010
,  // measure 9
0001
0100
0001
0010
,  // measure 10
0001
1001
0000
1000
,  // measure 11
0100
1000
0010
0100
,  // measure 12
0001
1001
0000
0100
,  // measure 13
0010
0100
0001
1000
,  // measure 14
0010
0000
1001
0000
0000
0100
0000
0010
,  // measure 15
0200
0000
0000
0301
0000
1000
0000
0001
,  // measure 16
0010
0000
0001
0000
0100
0010
2000
0000
,  // measure 17
0000
0000
3000
0010
,  // measure 18
0100
0010
0100
0001
,  // measure 19
1000
0001
1000
0001
,  // measure 20
0010
0001
0010
0001
,  // measure 21
1000
0100
1000
0001
,  // measure 22
1000
0001
1000
0010
,  // measure 23
0100
0010
0100
0001
,  // measure 24
0100
0000
0001
0000
1000
0010
0000
0000
,  // measure 25
0100
0001
0000
0001
1000
0000
0020
0000
,  // measure 26
0130
1000
0100
2000
,  // measure 27
3001
0010
0001
0020
,  // measure 28
0031
0100
0010
0200
,  // measure 29
0310
1000
0100
2000
,  // measure 30
3100
0010
1000
0020
,  // measure 31
1030
0010
0100
0020
,  // measure 32
0130
0000
0001
0000
0100
0001
0000
0000
,  // measure 33
0100
0010
0000
0010
1000
0000
0100
0000
,  // measure 34
1000
0010
0100
0001
,  // measure 35
0100
0100
0000
1001
0000
0000
0010
0000
,  // measure 36
0001
0100
0010
1000
,  // measure 37
0001
0001
1000
0010
0010
0000
0100
0000
,  // measure 38
0010
0100
0010
1000
,  // measure 39
0100
0100
0000
1001
0000
0001
1000
0100
,  // measure 40
0000
0000
0010
0001
0000
1001
0000
0100
,  // measure 41
0110
0000
0000
0010
,  // measure 42
1000
0000
0001
0010
0001
0000
0100
0000
,  // measure 43
0010
1001
0000
0010
,  // measure 44
0100
0000
0001
0000
1000
0100
1000
0000
,  // measure 45
0010
0101
0000
0010
,  // measure 46
0100
0001
0100
0010
,  // measure 47
1000
0000
1010
0000
0000
0010
0000
0100
,  // measure 48
0002
0000
0000
0000
0000
0103
0000
0010
,  // measure 49
1000
0010
0100
0000
0001
0100
0010
0000
,  // measure 50
0010
0000
0010
0100
,  // measure 51
0001
0000
0001
0100
,  // measure 52
0010
0000
0010
1000
,  // measure 53
0100
0000
0100
1000
,  // measure 54
1001
0010
0101
0100
,  // measure 55
1010
0001
0011
1000
,  // measure 56
1100
0010
1001
0100
,  // measure 57
0001
1000
0010
0100
0020
0000
0000
0000
,  // measure 58
0000
0000
0030
0000
;

//---------------dance-single - ----------------
#NOTES:
     dance-single:
     :
     Challenge:
     7:
     0.451,0.419,0.180,0.120,0.086:
0000
0000
0000
0000
,
0000
0000
0000
0000
,
0000
0000
0000
0000
,
0000
0000
0000
0000
,
1001
0000
1000
0100
0010
0001
0010
0000
,
0101
0000
0001
0010
0100
1000
0100
0000
,
1010
0000
1000
0100
0010
0001
0010
0000
,
1001
0000
0010
1000
0100
0001
0000
0010
,
0001
0010
0100
1000
0010
0100
0000
0100
,
0010
0000
1001
0010
0100
0001
0000
0010
,
0001
0010
0100
1000
0010
0100
0000
0100
,
0010
0000
1001
0100
0010
1000
0000
0100
,
1000
0100
0010
0001
0100
0010
0000
0010
,
0100
0000
1001
0010
0100
0002
0000
0103
,
0020
0000
0000
0130
0010
1000
0000
1000
,
0010
0100
0001
0010
0100
0010
1002
0000
,
1000
0000
0000
0000
1003
0000
0010
0100
0010
0000
1000
0000
0001
0000
0010
0000
,
0001
0100
0001
0010
0001
0000
0100
0001
,
0100
0010
0100
1000
0100
0000
0010
0001
,
0010
0100
0010
1000
0010
0000
1000
0100
,
1000
0010
1000
0100
1000
0000
0010
0001
,
0010
0100
0010
1000
0010
0000
0100
0010
,
0100
0001
0100
1000
0100
0000
0001
0010
,
0001
0100
0010
0100
0001
0010
0000
0010
,
0001
0010
0000
0001
0010
0100
2000
0000
,
0010
0000
3010
0100
0000
0100
0002
0000
,
0100
0000
0103
0000
0010
0100
0020
0000
,
1000
0000
1030
0001
0000
0001
0200
0000
,
0010
0000
0310
0000
0100
0010
2000
0000
,
0100
0000
3100
1000
0000
1000
0002
0000
,
0010
0000
0013
0000
0001
0100
0020
0000
,
1000
0000
1030
0001
0000
1001
0000
0010
,
1000
0000
0100
0000
0000
0000
1000
0000
0010
0000
0100
0010
0100
0000
0001
0100
,
0000
0000
0001
0100
0000
0000
0010
1000
0000
0000
0010
1000
0000
0000
0100
1000
,
0000
0000
0010
1000
0000
0000
1001
0000
0000
0000
0001
0100
0000
0000
0010
0100
,
0000
0000
0001
0010
0000
0000
0001
0010
0000
0000
0001
1000
0000
0000
0001
1000
,
0000
0000
0001
0000
0010
0000
0100
0000
1000
0000
1000
0000
0010
0000
1000
0010
,
0000
0000
1000
0010
0000
0000
0100
0001
0000
0000
0100
0001
0000
0000
0010
0001
,
0000
0000
0100
0001
0000
0000
1001
0000
0000
0000
1000
0000
0010
0000
0100
0000
,
0000
0001
0010
0001
0100
1100
0000
0010
,
0011
0000
0010
1000
0100
0001
0000
1000
,
0100
0010
0001
0100
0010
1000
0000
1000
,
0010
0000
1001
0010
0100
0001
0000
0001
,
0010
0100
1000
0010
0100
0001
0000
0001
,
0100
0000
1001
0100
0010
1000
0000
1000
,
0010
0100
0001
0010
0100
1000
0000
1000
,
0001
0000
1001
0010
0100
0002
0000
0103
,
0020
0000
0000
1030
0010
0100
0000
0001
,
0100
0010
1000
0100
0001
0100
1000
0000
,
0100
0010
0001
1010
,
0010
1000
0010
0101
,
0100
0001
0100
1001
,
0100
1000
0010
1001
,
0010
0001
0010
0100
1000
0010
0100
0100
,
0010
1000
0100
0010
0001
0100
0010
0010
,
0100
0001
0010
0100
1000
0010
0100
0000
,
0001
0100
1000
0010
2002
0000
0000
0000
,
0000
0000
3003
0000
;

//---------------dance-single - ----------------
#NOTES:
     dance-single:
     :
     Hard:
     6:
     0.357,0.369,0.274,0.128,0.000:
0000
0000
0000
0000
,
0000
0000
0000
0000
,
0000
0000
0000
0000
,
0000
0000
0000
0000
,
1001
0001
1000
0001
,
0011
0010
0001
0010
,
1100
0100
1000
0100
,
1001
0000
0100
0001
0010
1000
0000
0100
,
1000
0000
0100
0000
1000
0010
0000
0010
,
0100
0000
1001
0000
0010
0000
0000
0100
,
0001
0000
0010
0000
0001
0100
0000
0100
,
0010
0000
1001
0000
0100
0000
0000
0010
,
1000
0000
0100
0000
1000
0100
0000
0100
,
1000
0000
1001
0000
0010
0100
0000
0100
,
0001
0000
0000
0100
0010
1000
0000
0001
,
0100
0010
1000
0100
0010
0100
2002
0000
,
0000
0000
3003
0010
,
0100
0010
1000
0100
,
0010
0001
0100
0001
,
1000
0010
0100
0010
,
1000
0100
0010
1001
,
0100
0001
1000
0010
,
0100
0001
0010
0100
,
1000
0010
0100
0010
,
1000
0010
0000
0001
0100
0000
0002
0000
,
0100
0103
0010
2000
,
0010
3010
0100
0200
,
0001
0301
1000
0020
,
0100
0130
0010
2000
,
0100
3100
1000
0002
,
0010
0013
0100
0020
,
1000
0000
1030
0001
0000
1001
0000
0100
,
0001
0010
0000
0001
0100
0010
1100
0000
,
1010
1100
1001
0100
,
0001
0010
0000
1001
0000
0100
0010
0000
,
1010
1100
0011
1001
,
0100
0010
1000
0100
0010
0001
0010
0000
,
0101
1010
1001
0010
,
0100
0001
0000
1001
0000
0001
0100
0010
,
0000
0000
1000
0010
0100
0100
0000
0010
,
1001
0000
0100
0001
0010
1000
0000
0001
,
0010
0100
1000
0000
0010
0100
0000
0100
,
0001
0000
1001
0000
0010
0000
0000
1000
,
0100
0010
0001
0000
1000
0010
0000
0010
,
0100
0000
1001
0000
0100
0000
0000
0001
,
0100
0010
1000
0000
0010
0100
0000
0100
,
0001
0000
1001
0100
0010
2000
0000
3010
,
0200
0000
0000
0301
0100
0010
0000
1000
,
0010
0100
0001
0010
0100
1000
0010
0000
,
0010
0010
0010
0100
,
0100
0100
0100
0001
,
0001
0001
0001
1000
,
1000
1000
1000
1001
,
0010
0100
0001
0012
,
0013
0100
0010
2100
,
3100
0100
0010
1001
,
1000
0010
0001
0100
2002
0000
0000
0000
,
0000
0000
3003
0000
;

//---------------dance-single - ----------------
#NOTES:
     dance-single:
     :
     Beginner:
     1:
     0.080,0.097,0.009,0.000,0.000:
0000
0000
0000
0000
,
0000
0000
0000
0000
,
0000
0000
0000
0000
,
0000
0000
0000
0000
,
0001
0000
0000
0000
,
0010
0000
0000
0000
,
0100
0000
0000
0000
,
1000
0000
0000
0000
,
0010
0000
0010
0000
,
0010
0000
0000
0000
,
0100
0000
0100
0000
,
0100
0000
0000
0000
,
0010
0000
0010
0000
,
0010
0000
0000
0000
,
1000
0000
0000
0000
,
0001
0000
0000
1000
,
0000
0000
0000
0000
,
0001
0000
0001
0000
,
0001
0000
0000
0000
,
1000
0000
1000
0000
,
1000
0000
0000
0000
,
0100
0000
0100
0000
,
0100
0000
0000
0000
,
0010
0000
0010
0000
,
0010
0000
0000
0001
,
0000
0000
0000
1000
,
0000
0000
0000
0001
,
0000
0000
0000
0010
,
0000
0000
0000
0001
,
0000
0000
0000
1000
,
0000
0000
0000
0100
,
0000
0000
0000
1000
,
0000
0000
0000
0010
,
0000
0000
0000
0010
,
0000
0000
0000
0010
,
0000
0000
0000
0100
,
0000
0000
0000
0100
,
0000
0000
0000
0100
,
0000
0000
0000
0001
,
0000
0000
0000
0001
,
0000
0000
0000
0000
,
1000
0000
1000
0000
,
1000
0000
0000
0000
,
0010
0000
0010
0000
,
0010
0000
0000
0000
,
0100
0000
0100
0000
,
0100
0000
0000
0000
,
0001
0000
0000
0000
,
1000
0000
0000
0001
,
0000
0000
0000
0010
,
0000
0000
0000
0100
,
0000
0000
0000
1000
,
0000
0000
0000
0010
,
0000
0000
0000
0100
,
0000
0000
0000
0010
,
0000
0000
0000
1000
,
0000
0000
1001
0000
;
