#TITLE:Missing Cat;
#SUBTITLE:;
#ARTIST:SAKURAI yasushi feat. KUDO;
#TITLETRANSLIT:;
#SUBTITLETRANSLIT:;
#ARTISTTRANSLIT:;
#CREDIT:DMAxel;
#BANNER:Missing Cat.png;
#BACKGROUND:Missing Cat-bg.png;
#LYRICSPATH:Missing Cat.lrc;
#CDTITLE:pop'n music.png;
#MUSIC:Missing Cat.mp3;
#OFFSET:0.380;
#SAMPLESTART:47.504;
#SAMPLELENGTH:12.000;
#SELECTABLE:YES;
#BPMS:0.000=135.000;
#STOPS:;
#BGCHANGES:;

//---------------dance-single - ----------------
#NOTES:
     dance-single:
     :
     Easy:
     2:
     0.147,0.166,0.057,0.082,0.000:
0000
0000
0000
0000
,
0000
0000
0000
0000
,
0000
0000
0000
0000
,
0000
0000
0000
0000
,
0000
0000
0000
0000
,
0000
0001
0000
0000
,
0000
0000
0000
0000
,
2000
0000
0000
0000
,
3020
0000
0000
0000
,
2030
0000
0000
0000
,
3002
0000
0000
0000
,
1003
0000
1000
0000
,
0001
0000
1001
0000
,
0001
0000
0010
0000
,
0001
0000
1000
0000
,
0200
0000
0000
0000
,
0320
0000
0000
0000
,
0031
0000
1000
0000
,
0100
0000
1000
0000
,
0002
0000
0000
0000
,
0023
0000
0000
0030
,
0001
0000
1000
0000
,
0001
0000
1000
0000
,
0100
0000
1000
0000
,
0001
0000
0010
0000
,
0001
0000
1000
0000
,
1001
0000
0000
0000
,
1000
0010
0000
0010
,
0000
1000
0000
0100
,
0000
0001
0000
0001
,
0000
0010
0000
0010
,
0000
0001
0000
0100
,
0000
1000
0000
1000
,
0000
0010
0000
0010
,
0000
1000
0000
0000
,
1001
0000
0000
0000
,
0000
0000
0000
0000
,
1000
0000
0000
0000
,
0000
0000
0000
0000
,
1000
0001
0000
0001
,
0000
0100
0000
0100
,
0000
0010
0000
0010
,
0000
1000
0000
0000
,
1001
0000
1000
0000
,
0001
0000
1000
0000
,
0100
0000
0010
0000
,
0001
0000
0010
0000
,
0100
0000
1000
0000
,
1001
0000
0000
0000
,
0001
1000
0000
1000
,
0000
0010
0000
0010
,
0000
0100
0000
0100
,
0000
0001
0000
1001
,
0000
1000
0000
1000
,
0000
0010
0000
0010
,
0000
1000
0000
1000
,
0000
0001
0000
0000
,
1000
0001
1000
0000
,
0001
0000
0001
0000
,
0100
0010
0100
0000
,
0001
0000
1000
0000
,
0001
1000
0001
0000
,
1000
0000
1000
0000
,
0010
0100
0010
0000
,
1000
0000
0001
0000
,
2000
0000
0000
0000
,
3020
0000
0000
0030
,
1001
0000
0000
0000
0000
0000
0000
0001
;

//---------------dance-single - ----------------
#NOTES:
     dance-single:
     :
     Challenge:
     7:
     0.489,0.498,0.122,0.098,0.029: // measure 1
0000
0000
0000
0000
,  // measure 2
0000
0000
0000
0000
,  // measure 3
0000
0000
0000
0000
,  // measure 4
0000
0000
0000
0000
,  // measure 5
0000
0000
0000
0000
,  // measure 6
0000
0000
0001
0010
0100
1000
0000
1010
,  // measure 7
0000
1010
0000
1100
0000
1000
0001
0000
,  // measure 8
0100
0001
0000
0022
0000
0000
0033
0100
,  // measure 9
0000
1000
0000
1010
0000
1001
0000
1000
,  // measure 10
0001
0000
0001
0200
0000
0000
0000
0000
,  // measure 11
0301
0000
1000
0010
0000
0010
1000
0000
,  // measure 12
1000
0001
0100
0001
0010
0100
1000
0000
,  // measure 13
0001
0000
1000
0000
0010
0000
1000
0000
0100
0000
0010
0000
0001
0000
1000
0010
,  // measure 14
1000
0010
1000
0001
0010
0001
1000
0000
,  // measure 15
1000
0100
0010
0001
1000
0001
0010
0100
,  // measure 16
2000
0010
0100
3010
,  // measure 17
0002
0100
0010
0103
,  // measure 18
0001
0100
0001
1000
0100
1000
0001
0000
,  // measure 19
0001
0010
0100
1000
0001
1000
0100
0010
,  // measure 20
0002
0100
0010
0103
,  // measure 21
2000
0010
0100
3010
,  // measure 22
1000
0010
0100
0000
0001
0100
0001
1000
,  // measure 23
0010
1000
0100
0010
0001
1000
0001
0000
,  // measure 24
1000
0010
1000
0001
0100
0001
1000
0100
,  // measure 25
0010
0001
1000
0010
0000
0010
1000
0000
,  // measure 26
0001
0010
0001
1000
0100
1000
0010
0100
,  // measure 27
0001
0000
0100
0000
0001
1000
0000
0000
0010
0000
1000
0000
0001
1000
0000
0000
,  // measure 28
1000
0001
0100
0000
0100
0010
0100
0001
,  // measure 29
0000
0001
0010
0100
1000
0001
0010
0000
,  // measure 30
0001
1000
0010
0000
0010
0100
0010
1000
,  // measure 31
0000
1000
0010
0001
0000
1000
0010
0001
,  // measure 32
1000
0010
0100
0000
0100
0010
0100
0001
,  // measure 33
0000
0001
0010
0100
1000
0001
0010
0000
,  // measure 34
0001
0100
0010
0000
0010
0100
0010
1000
,  // measure 35
0000
1000
0010
0001
0000
1000
0010
0100
,  // measure 36
1002
1000
1000
1000
,  // measure 37
1000
1000
1000
1000
,  // measure 38
2003
0001
0001
0001
,  // measure 39
0001
0000
0001
0000
3001
0100
0100
0001
,  // measure 40
1000
0000
1000
0010
0100
0100
0000
0001
,  // measure 41
0100
0001
1000
0100
0010
0001
1000
0100
,  // measure 42
1000
0000
0001
0100
0010
0010
0000
1000
,  // measure 43
0010
0000
1000
0000
0001
0000
0010
0000
0100
1000
0000
0000
0010
0100
0010
0000
,  // measure 44
1000
0100
1000
0001
0100
1000
0100
0001
,  // measure 45
0010
0100
1000
0001
0010
0100
1000
0000
,  // measure 46
0001
0010
0001
1000
0010
0001
0010
1000
,  // measure 47
0100
0010
0001
1000
0100
0010
0001
0000
,  // measure 48
1000
0010
1000
0001
0010
0100
1000
0010
,  // measure 49
1000
0000
0010
0000
1000
0001
0000
0000
0100
0000
0001
0000
1000
0001
0000
0000
,  // measure 50
1000
0001
0100
0001
0010
0100
1000
0010
,  // measure 51
0000
0010
0100
0001
1000
0100
0001
0000
,  // measure 52
1000
0001
0100
0001
0010
0100
1000
0001
,  // measure 53
0000
0001
0100
1000
0000
0001
0100
1000
,  // measure 54
0001
0100
0010
1000
0100
0010
0001
0100
,  // measure 55
0000
0100
0001
0010
0001
0100
1000
0000
,  // measure 56
1000
0010
0100
0001
0010
0100
1000
0001
,  // measure 57
0000
0001
0100
1000
0000
0001
0100
0010
,  // measure 58
1001
0000
1000
0100
0010
0001
0000
0101
,  // measure 59
0000
0011
0000
0001
1000
0010
0100
0000
,  // measure 60
0001
1000
0001
0200
0000
0000
0301
0000
,  // measure 61
1000
0001
0000
0001
0100
0000
0100
0000
,  // measure 62
1001
0000
0001
0010
0100
1000
0000
1010
,  // measure 63
0000
1100
0000
1000
0001
0100
0010
0000
,  // measure 64
1000
0001
0100
0000
0100
0001
1000
0000
,  // measure 65
0001
1000
0010
0000
0010
1000
0001
1000
,  // measure 66
0001
0010
0001
0200
0000
0000
0301
0000
,  // measure 67
1000
0100
1000
0020
0000
0000
1030
0000
,  // measure 68
1001
0000
0010
0001
0100
1000
0000
1001
;

//---------------dance-single - ----------------
#NOTES:
     dance-single:
     :
     Medium:
     4:
     0.311,0.360,0.343,0.204,0.000:
0000
0000
0000
0000
,
0000
0000
0000
0000
,
0000
0000
0000
0000
,
0000
0000
0000
0000
,
0000
0000
0000
0000
,
1000
0100
0100
0000
,
0001
0000
0010
0000
,
0200
0000
0000
0000
,
2300
0000
0000
0000
,
3002
0000
0000
0203
0000
0000
0000
0000
,
0320
0000
0000
0030
,
1000
0010
1000
0001
,
0010
0001
1000
0100
,
1000
0001
1000
0001
,
1000
0100
0010
0001
,
0200
0000
0010
0000
,
0320
0000
0100
0000
,
0130
0001
0100
0010
,
0100
0001
0010
0100
,
2000
0000
0001
0000
,
3002
0000
1000
0000
,
1003
0100
1000
0100
,
0001
0100
1000
0001
,
1000
0100
1000
0010
,
0001
0010
1000
0010
,
0100
0001
0100
0001
,
2002
0000
0000
3003
,
0101
0100
0010
0100
,
0001
0010
0100
1000
,
1010
0010
0100
0010
,
1000
0011
1000
0011
,
0101
0100
0010
0100
,
0001
0010
0100
1000
,
1010
0010
0100
0010
,
1000
0100
0010
0001
,
2002
0000
0000
0000
,
3003
0000
0000
0000
,
0220
0000
0000
0000
,
0330
0000
0001
0001
,
1001
0101
0010
1010
,
0100
1010
0010
0101
,
0010
0101
0100
1010
,
0100
1010
0010
0101
,
1001
1001
0010
0100
,
1000
0100
0001
0100
,
1000
0010
0100
0001
,
0010
1000
0010
0001
,
0010
0100
1000
1100
,
1001
0000
0000
0000
,
1001
1100
1000
0001
,
0010
1100
0010
1100
,
1001
0011
0100
1000
,
0100
0011
0100
0011
,
1001
0101
0010
1000
,
0010
0100
0010
1000
,
1001
1010
0100
0001
,
0100
0101
1001
0101
,
1001
1000
0100
0010
,
0001
0100
0001
1000
,
1020
0000
2030
0000
,
3002
0000
0203
0000
,
0300
0001
0010
0100
,
1000
0010
1000
0001
,
0021
0000
0032
0000
,
2003
0000
3200
0000
,
1300
0000
0001
0200
0000
0000
0000
0000
,
0320
0000
0000
0030
,
1001
0000
1000
0000
0010
0100
0000
1001
;

//---------------dance-single - ----------------
#NOTES:
     dance-single:
     :
     Hard:
     6:
     0.464,0.498,0.644,0.106,0.000:
0000
0000
0000
0000
,
0000
0000
0000
0000
,
0000
0000
0000
0000
,
0000
0000
0000
0000
,
0000
0000
0000
0000
,
0000
0000
0001
0100
0010
1000
0000
1000
,
0000
1000
0000
0001
0000
0001
0100
0000
,
0110
0000
0000
1010
0000
0000
0100
0000
,
0110
0000
0000
0101
0000
0101
0000
0010
,
1000
0000
1000
0200
0000
0000
1300
0000
,
0020
0000
0001
0000
0000
0001
0000
0000
,
0031
0010
0100
1000
0001
0010
1000
0000
,
0100
0010
0001
1000
0100
0010
0001
0000
,
0011
1001
0011
1001
,
0001
0010
0100
1000
0010
0100
0000
0100
,
0002
0000
0010
0000
0100
0000
1003
0001
,
2000
0100
0010
3001
,
1100
1001
1100
1001
,
1000
0100
0010
0001
0100
0010
0000
0010
,
2000
0000
0100
0000
0010
0000
3001
1000
,
0001
0000
0011
0000
1010
0000
1000
0001
,
0100
0010
0100
0000
0001
0100
0010
1000
,
0100
0010
0001
1000
0100
0010
0001
0000
,
1001
0000
0100
0010
0100
0001
0100
0020
,
0000
1030
0001
0200
0000
0301
1000
0000
,
1001
0000
0010
1000
0010
0000
1000
0002
,
0000
0100
0000
0100
0000
0000
0003
0000
,
1010
0011
1010
0011
,
1001
0000
0100
0010
0001
1000
0100
0000
,
0101
1100
0101
1100
,
1001
0000
0010
0100
1000
0001
0010
0000
,
1010
0011
1100
0101
,
1001
0000
0100
0010
0001
1000
0100
0000
,
0101
1100
0011
1010
,
1000
0010
0100
0001
0000
0001
1000
0100
,
2000
0010
0000
0010
,
0000
0010
0000
3010
,
0002
0100
0000
0100
,
0000
0100
0100
0103
,
1001
0000
1010
0000
0000
0110
0000
1000
,
0001
0000
0101
0000
0000
0110
0000
0001
,
1000
0100
0010
0001
1000
0100
0001
0000
,
0010
0100
1000
0000
1010
0000
0011
0000
,
1001
0011
1001
0011
,
1001
0000
0010
0100
1000
0001
0010
0100
,
1001
1100
1001
1100
,
1001
0000
0100
0010
0001
1000
0100
0010
,
1001
0000
0100
0010
0100
0000
0001
2000
,
0000
0010
0000
0010
0000
0000
3000
0000
,
1001
0011
1010
0011
,
1001
0000
0010
1000
0100
0001
0100
0000
,
1001
1100
0101
1100
,
1001
0000
0100
0001
0010
1000
0010
0000
,
1001
1010
0011
1010
,
1001
0000
0100
1000
0010
0001
0010
0000
,
1001
0101
1100
0101
,
1001
0000
0100
0001
0010
1000
0010
0000
,
1001
0000
1000
0010
0100
0001
0000
0001
,
0000
0001
0000
1000
0000
1000
0001
0000
,
0200
0000
0000
0001
0000
0000
0000
0320
,
0000
1000
0000
0000
1000
0000
0000
0000
,
0030
0000
0001
0100
0010
1000
0000
1000
,
0000
1000
0000
0001
0000
0001
1000
0000
,
0010
1000
0100
0000
1000
0010
0100
0000
,
0001
0100
0010
0000
0100
0001
0010
0000
,
0101
0000
0010
1000
0000
1000
0001
0000
,
1010
0000
0100
0001
0000
0001
1000
0000
,
1001
0000
1000
0100
0010
0001
0000
0011
;

//---------------dance-single - ----------------
#NOTES:
     dance-single:
     :
     Beginner:
     1:
     0.072,0.109,0.057,0.000,0.000:
0000
0000
0000
0000
,
0000
0000
0000
0000
,
0000
0000
0000
0000
,
0000
0000
0000
0000
,
0000
0000
0000
0000
,
0001
0000
0000
0000
,
0000
0000
0000
0000
,
1000
0000
0000
0000
,
0001
0000
0000
0000
,
1000
0000
0000
0000
,
0100
0000
0000
0000
,
1000
0000
0000
0000
,
0001
0000
0000
0000
,
1001
0000
0000
0000
,
0000
0000
0000
0000
,
0001
0000
0000
0000
,
0010
0000
0000
0000
,
0001
0000
0000
0000
,
0000
0000
0000
0000
,
1000
0000
0000
0000
,
0010
0000
0000
0000
,
1001
0000
0000
0000
,
0001
0000
0000
0000
,
1000
0000
0000
0000
,
0001
0000
0000
0000
,
1000
0000
0000
0000
,
0001
0000
0000
0000
,
1001
0000
0000
0000
,
1000
0000
0000
0000
,
0001
0000
0000
0000
,
1000
0000
0000
0000
,
0010
0000
0000
0000
,
0100
0000
0000
0000
,
0010
0000
0000
0000
,
1000
0000
0000
0000
,
1001
0000
0000
0000
,
0000
0000
0000
0000
,
0001
0000
0000
0000
,
0000
0000
0000
0000
,
0001
0000
0000
0000
,
0000
0010
0000
0000
,
0001
0000
0000
0000
,
1000
0000
0000
0000
,
1001
0000
0000
0000
,
1000
0000
0000
0000
,
0001
0000
0000
0000
,
1000
0000
0000
0000
,
0001
0000
0000
0000
,
1000
0000
0000
0000
,
1001
0000
0000
0000
,
0001
0000
0000
0000
,
1000
0000
0000
0000
,
0001
0000
0000
0000
,
1001
0000
0000
0000
,
1000
0000
0000
0000
,
0001
0000
0000
0000
,
1000
0000
0000
0000
,
0010
0000
0000
0000
,
0000
0000
0000
0000
,
0100
0000
0000
0000
,
0100
0000
0000
0000
,
0010
0000
0000
0000
,
0000
0000
0000
0000
,
0010
0000
0000
0000
,
0000
0000
0000
0000
,
0010
0000
0000
0000
,
1000
0000
0000
0000
,
0001
0000
0000
0000
;
