#TITLE:Mind Mapping;
#SUBTITLE:;
#ARTIST:Ryu☆;
#TITLETRANSLIT:;
#SUBTITLETRANSLIT:;
#ARTISTTRANSLIT:Ryu*;
#CREDIT:DMAxel;
#BANNER:Mind Mapping.png;
#BACKGROUND:Mind Mapping-bg.png;
#LYRICSPATH:;
#CDTITLE:beatmaniaIIDX.png;
#MUSIC:Mind Mapping.mp3;
#OFFSET:-0.400;
#SAMPLESTART:17.255;
#SAMPLELENGTH:12.000;
#SELECTABLE:YES;
#BPMS:0.000=128.000;
#STOPS:;
#BGCHANGES:-1.000=Mind Mapping.avi=1.000=1=1=0,
99999=-nosongbg-=1.000=0=0=0 // don't automatically add -songbackground-
;

//---------------dance-single - ----------------
#NOTES:
     dance-single:
     :
     Beginner:
     1:
     0.072,0.126,0.095,0.000,0.000:
0000
0000
0000
0000
,
0000
0000
0000
0000
,
0000
0000
0000
0000
,
0000
0000
0000
0000
,
0001
0000
0000
0000
,
1000
0000
0000
0000
,
0001
0000
0000
0000
,
1000
0000
0000
0000
,
1000
0000
0000
0000
,
1001
0000
0000
0000
,
1000
0000
0000
0000
,
0001
0000
0000
0000
,
1000
0000
0000
0000
,
0010
0000
0000
0000
,
0100
0000
0000
0000
,
0010
0000
0000
0000
,
0100
0000
0000
0000
,
1001
0000
0000
0000
,
0000
0000
0000
0000
,
0001
0000
0000
0000
,
0000
0000
0000
0000
,
1000
0000
0000
0000
,
0000
0000
0000
0000
,
0001
0000
0000
0000
,
0000
0000
0000
0000
,
1001
0000
0000
0000
,
0001
0000
0000
0000
,
1000
0000
0000
0000
,
0001
0000
0000
0000
,
1001
0000
0000
0000
,
1000
0000
0000
0000
,
1001
0000
0000
0000
,
1001
0000
0000
0000
,
0010
0000
0000
0000
,
0010
0000
0000
0000
,
0100
0000
0000
0000
,
0100
0000
0000
0000
,
1001
0000
0000
0000
,
0000
0000
0000
0000
,
0001
0000
0000
0000
,
0000
0000
0000
0000
,
1000
0000
0000
0000
,
0001
0000
0000
0000
,
1000
0000
0000
0000
,
0100
0000
0000
0000
,
1000
0000
0000
0000
,
0001
0000
0000
0000
,
0010
0000
0000
0000
,
0001
0000
0000
0000
,
1000
0000
0000
0000
,
1001
0000
0000
0000
,
0000
0000
0000
0000
,
0000
0000
0000
0000
,
1001
0000
0000
0000
,
1001
0000
0000
0000
,
0001
0000
0000
0000
,
1000
0000
0000
0000
,
0010
0000
0000
0000
,
1001
0000
0000
0000
;

//---------------dance-single - ----------------
#NOTES:
     dance-single:
     :
     Hard:
     8:
     0.496,0.535,0.355,0.243,0.160: // measure 1
0000
0000
0000
0000
,  // measure 2
0000
0000
0000
0000
,  // measure 3
0000
0000
0000
0000
,  // measure 4
0000
0000
0000
0000
,  // measure 5
0010
0000
0100
0000
1000
0000
0001
0100
,  // measure 6
0001
1000
0010
1000
0001
0000
1001
0000
,  // measure 7
0100
0000
0010
0000
0001
0000
0100
0010
,  // measure 8
2000
0000
0000
3000
,  // measure 9
1010
1010
1010
1001
,  // measure 10
1010
1000
0001
0010
1000
0000
0100
0010
,  // measure 11
0001
0010
1000
0010
0001
0000
1001
0000
,  // measure 12
0101
0001
1000
0100
0001
0000
0010
0100
,  // measure 13
2000
0000
0000
0001
3001
0000
0011
0000
,  // measure 14
1001
1000
0001
0100
0020
0000
0130
0001
,  // measure 15
1000
1000
0100
0010
0002
0000
1000
0000
,  // measure 16
1003
1000
0010
0100
0002
0000
0013
0100
,  // measure 17
1000
0001
0010
0100
1000
0001
1001
0000
,  // measure 18
0001
1000
0010
0200
0000
0301
0000
0101
,  // measure 19
0000
0101
0000
1010
0000
1100
0000
1001
,  // measure 20
0000
0001
0100
0020
0000
1030
0000
2010
,  // measure 21
0000
0000
0000
0002
0000
0000
3003
0000
,  // measure 22
1000
0001
0100
0020
0000
1030
0000
1010
,  // measure 23
0000
1010
0000
0101
0000
0011
0000
1001
,  // measure 24
1000
0010
0100
0002
0000
2003
0000
3001
,  // measure 25
0010
0100
1000
0001
0010
0100
1001
0000
,  // measure 26
0100
0000
1000
0000
0001
0000
1000
0100
0000
1000
0000
0100
1000
0000
0000
0000
,  // measure 27
0010
0000
0100
0000
0001
0000
0010
0001
0000
0010
0000
0001
0010
0000
0000
0000
,  // measure 28
0001
0000
1000
0000
0010
0000
1000
0100
0000
1000
0000
0100
1000
0000
0000
0000
,  // measure 29
0001
0000
1000
0000
0000
1000
0000
0000
0000
0000
0001
0000
0000
0001
0000
0000
,  // measure 30
0100
0000
0001
0000
1000
0000
0100
1000
0000
0100
1000
0100
1000
0000
0000
0000
,  // measure 31
0010
0000
1000
0000
0001
0000
0010
0001
0000
0010
0001
0010
0001
0000
0000
0000
,  // measure 32
1001
0000
0000
0000
0000
0000
0000
0000
0110
0000
0000
0110
0000
0000
0110
0000
,  // measure 33
2002
0000
3003
1001
,  // measure 34
0001
1000
0100
0001
1000
0001
0010
0100
,  // measure 35
1000
0001
0010
1000
0002
0000
1003
0000
,  // measure 36
1000
0001
0010
1000
0001
1000
0100
0010
,  // measure 37
0002
0000
0000
0000
0000
0000
1000
0000
1003
0000
0000
0000
0000
0001
0100
0001
,  // measure 38
0200
0001
0001
0001
,  // measure 39
1000
1000
1300
0001
,  // measure 40
0020
0001
0001
1000
,  // measure 41
1030
0100
0010
0001
,  // measure 42
1000
0000
0000
0010
0000
0000
0100
0000
0000
0001
0000
0000
1001
0000
0000
0000
,  // measure 43
1100
1000
0001
0010
0100
0000
1000
0100
,  // measure 44
0001
0000
0100
0000
1000
0000
0001
0000
0100
0000
0000
0000
0001
1000
0001
0000
,  // measure 45
0010
0100
1000
0001
0010
0000
0001
0010
,  // measure 46
2000
0000
0000
0000
0000
0000
0001
0000
3001
0000
0000
0000
1000
0001
1000
0000
,  // measure 47
0011
0001
1000
0100
0010
0000
0001
0010
,  // measure 48
1000
0000
0010
0000
0001
0000
1000
0000
0010
0000
0000
0000
1000
0001
1000
0000
,  // measure 49
0100
0010
0001
1000
0100
0000
1000
0100
,  // measure 50
0002
1000
1003
1001
,  // measure 51
0101
0100
0001
2000
0000
3001
0100
0020
,  // measure 52
0000
1030
0001
0200
0000
0301
0010
2000
,  // measure 53
0000
3100
0010
0002
0000
2003
0000
3001
,  // measure 54
0101
0000
0000
0101
0000
0000
1010
0000
1010
0000
1001
0000
0000
0001
0010
0001
,  // measure 55
0010
0000
0001
0000
1000
0000
0100
1000
0000
0100
1000
0010
0100
0000
0001
0000
,  // measure 56
1000
0000
0100
0000
0001
0000
0010
0001
0000
0010
0001
0100
0010
0000
1000
0000
,  // measure 57
0001
0000
0010
0000
1000
0000
0100
1000
0000
0100
1000
0010
0100
0000
0001
0000
,  // measure 58
1000
0100
0010
0001
0010
1000
0110
0010
,  // measure 59
2002
0000
0000
3003
;

//---------------dance-single - ----------------
#NOTES:
     dance-single:
     :
     Medium:
     5:
     0.360,0.427,0.251,0.243,0.078:
0000
0000
0000
0000
,
0000
0000
0000
0000
,
0000
0000
0000
0000
,
0000
0000
0000
0000
,
1000
0001
1000
0001
,
0100
0010
0100
0100
,
0001
1000
0001
0100
,
0200
0000
0000
0000
,
0010
0010
0310
1001
,
1000
0100
1000
0010
1000
0000
0100
0010
,
0001
0010
0001
0100
0001
0000
1001
0000
,
0001
0010
0001
0100
0001
0000
0010
0100
,
2000
0000
0000
0001
0002
0000
3003
0000
,
1001
0000
0101
0000
1001
0000
1000
0100
,
0010
0001
1000
0001
0010
0000
1001
0000
,
1001
0000
1010
0000
1001
0000
0010
0100
,
2000
0000
0000
3001
,
0001
1000
0100
0010
0000
0002
0000
0100
,
0000
0010
0000
0100
0000
0010
0000
0103
,
0000
0001
0100
0010
0000
2000
0000
0200
,
0000
3300
0000
2002
0000
0000
3003
0000
,
1000
0001
0010
0100
0000
2000
0000
0100
,
0000
0010
0000
0100
0000
3010
0000
1000
,
0100
0010
0001
0200
0000
0001
0000
1000
,
0000
0001
0000
1300
0000
0000
1001
0000
,
0001
0000
0100
0000
0000
0001
0000
0000
0000
0000
1000
0000
0000
0010
0000
1000
,
0000
0000
0100
0000
0000
1000
0000
0000
0000
0000
0001
0000
0000
0010
0000
0001
,
0000
0000
1000
0000
0000
0010
0000
0000
0000
0000
0100
0000
0000
0001
0000
0100
,
0000
0000
0001
0000
0000
0001
0000
0000
0000
0000
1000
0000
0000
1000
0000
0000
,
0001
0000
0100
0000
0000
0010
0000
0000
0000
0000
0100
0000
0000
0010
0000
1000
,
0000
0000
0001
0000
0000
0010
0000
0000
0000
0000
0100
0000
0000
1000
0000
0000
,
1001
0000
0000
0000
0000
0000
0000
0000
0010
0000
0000
0010
0000
0000
0010
0000
,
2002
0000
0000
3003
,
1001
0010
0100
1000
,
0001
0001
0002
1003
,
1000
0100
0010
0001
,
2000
0000
0000
0001
3001
0000
0000
0000
,
0022
0000
0000
0000
,
0000
0000
0000
0033
,
2200
0000
0000
3300
,
0022
0000
0000
0033
,
1000
0100
0010
0001
1000
0000
1001
0000
,
0001
0100
0010
1000
0001
0000
0010
0100
,
1000
0001
0010
0001
0010
0000
1001
0000
,
1000
0010
0100
0001
1000
0000
0100
0010
,
0002
0000
0000
1000
2000
0000
3003
0000
,
1001
0000
0101
0000
1001
0000
1000
0010
,
0100
0001
1000
0100
0001
0000
1001
0000
,
1001
0000
1100
0000
1001
0000
0001
0010
,
2000
0001
3001
1001
,
1000
0100
0010
0002
0000
0100
0000
0010
,
0000
0100
0000
0010
0000
0100
0000
0013
,
0000
1000
0100
0010
0000
0001
0000
1000
,
0010
0000
0000
0010
0000
0000
0010
0000
0010
0000
1001
0000
0000
0000
0000
0000
,
0001
0010
0100
2000
0000
0100
0000
0010
,
0000
0100
0000
0010
0000
3100
0000
0001
,
1000
0100
0010
0002
0000
0100
0000
0010
,
0000
0100
0000
0020
0000
0000
0033
0000
,
1001
0000
0000
0000
;

//---------------dance-single - ----------------
#NOTES:
     dance-single:
     :
     Easy:
     3:
     0.245,0.327,0.130,0.147,0.000:
0000
0000
0000
0000
,
0000
0000
0000
0000
,
0000
0000
0000
0000
,
0000
0000
0000
0000
,
1000
0001
1000
0001
,
1000
0001
1000
0001
,
0100
0010
0100
0010
,
0200
0000
0000
0000
,
0310
0000
0000
1001
,
0010
0100
0010
1000
,
0100
0010
0001
0001
,
0010
0001
0100
0010
,
0200
0000
0310
0000
,
0002
0100
0203
0010
,
0320
1000
2030
0100
,
3200
1000
2300
0010
,
3010
0000
0000
1001
,
0001
0000
1000
0001
0000
1000
0000
0100
,
0000
1000
0000
0001
0000
0010
0000
0001
,
0000
1000
0000
1000
0000
0001
0000
0200
,
0000
0000
0000
0310
0000
0000
0000
0000
,
1000
0000
0001
1000
0000
0001
0000
0010
,
0000
0001
0000
1000
0000
0100
0000
1000
,
0002
0000
0000
0000
,
1003
0000
0000
1001
,
1000
1000
0100
0010
,
0001
0001
0010
0100
,
1000
1000
0100
0010
,
0001
0001
0010
0100
,
1001
0001
1000
1000
,
0010
0100
0001
0001
,
1001
0000
0110
0000
,
1001
0000
0000
1001
,
0002
0000
2003
0000
,
3020
0000
0000
0030
,
2000
0000
3002
0000
,
0203
0000
0000
0300
,
1001
0000
0000
0000
,
0000
0000
0000
0000
,
0100
0000
0000
0000
,
0100
0000
0000
0000
,
0110
0000
0000
1001
,
0010
0100
0001
0010
,
0010
0001
0100
0010
,
1000
1000
0100
1000
,
0020
0000
0130
0000
,
1001
0010
1000
0100
,
0100
1000
0010
0010
,
0100
0001
0010
0001
,
1000
0000
0000
1000
,
1001
0000
1001
0000
0000
0010
0000
0100
,
0000
0010
0000
0100
0000
0010
0000
0100
,
0000
0001
0000
1000
0000
0001
0000
1000
,
0010
0000
0000
0000
,
1000
0001
0000
1000
0000
0001
0000
1000
,
0000
0010
0000
0100
0000
0010
0000
1000
,
0000
0001
0000
1000
0000
0100
0000
0010
,
0000
0001
0000
1000
0000
0000
0001
0000
,
1001
0000
0000
0000
;
