#TITLE:Midnight Yoghurt;
#SUBTITLE:(女SPY☆お色気ゴーゴー脱出大作戦);
#ARTIST:SIMON MAN;
#TITLETRANSLIT:;
#SUBTITLETRANSLIT:(ONNA SPY OIROKE GO-GO DASSHUTSU DAISAKUSEN);
#ARTISTTRANSLIT:;
#CREDIT:DMAxel;
#BANNER:Midnight Yoghurt (ONNA SPY OIROKE GO-GO DASSHUTSU DAISAKUSEN).png;
#BACKGROUND:Midnight Yoghurt (ONNA SPY OIROKE GO-GO DASSHUTSU DAISAKUSEN)-bg.png;
#LYRICSPATH:;
#CDTITLE:pop'n music.png;
#MUSIC:Midnight Yoghurt (ONNA SPY OIROKE GO-GO DASSHUTSU DAISAKUSEN).mp3;
#OFFSET:-6.500;
#SAMPLESTART:6.472;
#SAMPLELENGTH:13.000;
#SELECTABLE:YES;
#BPMS:0.000=181.900;
#STOPS:;
#BGCHANGES:;

//---------------dance-single - ----------------
#NOTES:
     dance-single:
     :
     Hard:
     7:
     0.537,0.534,0.519,0.140,0.005: // measure 1
1100
0000
1001
0000
,  // measure 2
1010
0000
0000
0001
1000
0100
0010
0001
,  // measure 3
1000
0010
0200
0000
0001
0000
0000
0001
,  // measure 4
0000
0301
0000
1000
0100
0000
0000
0000
,  // measure 5
0101
0000
1001
0000
,  // measure 6
0011
0000
0000
1000
0001
0010
0100
1000
,  // measure 7
0001
0100
0020
0000
1000
0000
0000
1000
,  // measure 8
0000
1030
0000
0001
0010
0000
0100
0000
,  // measure 9
1100
0000
1001
0000
,  // measure 10
1010
0000
0000
0001
1000
0100
0010
0001
,  // measure 11
1000
0010
0200
0000
0001
0000
0000
0001
,  // measure 12
0000
0301
0000
1000
0100
0000
0010
0000
,  // measure 13
0101
0000
1001
0000
,  // measure 14
0011
0000
0000
1000
0001
0010
0100
1000
,  // measure 15
0001
0100
0020
0000
1000
0000
0000
1000
,  // measure 16
0000
1030
0000
0001
0010
0000
0000
0000
,  // measure 17
1002
0000
0000
1000
0000
0000
0000
0100
,  // measure 18
0000
0100
0000
0000
1003
0000
0000
0000
,  // measure 19
2000
0000
0000
0000
0001
0000
0000
0100
,  // measure 20
0000
3100
0000
1100
0000
0011
0000
1001
,  // measure 21
0000
1002
0000
0013
,  // measure 22
0100
0000
1000
0000
0010
0100
0001
0000
,  // measure 23
0100
0001
0100
0001
1000
0100
1000
0001
,  // measure 24
0100
0000
1001
0000
0000
0000
0100
0001
,  // measure 25
0010
0000
0000
0001
1000
0000
0000
1000
,  // measure 26
0001
0000
0000
0001
1000
0100
0010
0000
,  // measure 27
0101
0101
0000
1100
,  // measure 28
1100
0000
1001
1001
,  // measure 29
0110
0000
0110
0000
0000
0000
0001
1000
,  // measure 30
0000
1000
0000
0001
0010
0100
1000
0001
,  // measure 31
1000
0000
0001
0100
0000
0001
0100
0000
,  // measure 32
0010
1000
0000
0010
0000
1001
0000
0000
,  // measure 33
0100
0001
0100
0000
0010
1000
0010
0000
,  // measure 34
0100
0001
1000
0000
0100
1000
0001
0000
,  // measure 35
0001
0000
1000
0100
0000
1000
0100
0000
,  // measure 36
0010
0001
0000
0010
0000
1001
0000
1001
,  // measure 37
0000
0001
0100
0001
0000
1000
0100
0000
,  // measure 38
1000
0001
0000
0100
0000
0001
0000
0100
,  // measure 39
0010
0100
0000
0010
0000
1000
0000
0001
,  // measure 40
1000
0001
0010
0100
1000
0001
0100
0010
,  // measure 41
0100
0001
1000
0000
1001
0000
0010
0001
,  // measure 42
1000
0000
0010
1000
0001
0000
0010
0001
,  // measure 43
1000
0100
0010
0001
1000
0010
2000
0000
,  // measure 44
0001
0000
0000
0001
0000
3001
0000
0100
,  // measure 45
0010
0000
0100
0000
1001
0000
0100
1000
,  // measure 46
0001
0000
0100
0001
1000
0000
0100
1000
,  // measure 47
0001
0010
0100
1000
0001
0100
0002
0000
,  // measure 48
1000
0000
0000
1000
0000
1003
0000
0010
,  // measure 49
0100
0000
0010
0100
0010
0000
0100
0001
,  // measure 50
1000
0000
0100
1000
0001
0000
0100
0001
,  // measure 51
1000
0100
0010
0001
1000
0100
2000
0000
,  // measure 52
0001
0000
0000
0001
0000
3001
0000
0100
,  // measure 53
0010
0000
0100
0000
1001
0000
0010
1000
,  // measure 54
0001
0000
0010
0001
1000
0000
0010
1000
,  // measure 55
0001
0010
0100
1000
0001
0010
0002
0000
,  // measure 56
1000
0000
0000
1000
0000
1003
0000
0010
,  // measure 57
0100
0010
0101
0011
,  // measure 58
1001
0000
1010
1100
,  // measure 59
1001
0000
1001
1100
,  // measure 60
0101
1010
0011
0110
,  // measure 61
1100
0000
0000
0000
1001
0000
0000
0000
0101
0000
0000
0000
0000
0000
0010
0100
,  // measure 62
0010
0220
0000
0330
;

//---------------dance-single - ----------------
#NOTES:
     dance-single:
     :
     Medium:
     6:
     0.461,0.527,0.335,0.140,0.000: // measure 1
0200
0000
0301
1000
,  // measure 2
0001
0000
1000
0100
,  // measure 3
0010
0000
0001
0000
0100
0010
0000
0010
,  // measure 4
0000
0010
0000
1000
0002
0000
0100
0000
,  // measure 5
0103
0001
0010
0000
,  // measure 6
0001
0100
0010
1000
,  // measure 7
0001
1000
0001
0000
0100
0010
0000
0010
,  // measure 8
0000
0010
0000
1000
0002
0000
0100
0000
,  // measure 9
0103
0001
1000
0000
,  // measure 10
0100
1000
0001
0000
,  // measure 11
0100
0000
0001
0000
0010
0100
0000
0100
,  // measure 12
0000
0100
0000
1000
0002
0000
1000
0000
,  // measure 13
1003
0010
0100
0000
,  // measure 14
0010
0100
0001
1000
,  // measure 15
0100
0010
0100
0000
1000
0010
0000
0010
,  // measure 16
0000
0010
0000
0100
0010
0000
1000
0001
,  // measure 17
2000
0000
0001
0000
,  // measure 18
3002
0000
1000
0000
,  // measure 19
2003
0000
0001
0000
,  // measure 20
3001
0101
1000
1100
,  // measure 21
1001
0000
0001
0100
0001
0000
1000
0000
,  // measure 22
0100
0010
0001
0010
,  // measure 23
0001
1000
0001
0000
1000
0001
1000
0000
,  // measure 24
0010
0000
1001
0000
0000
0000
1000
0001
,  // measure 25
2000
0000
0100
0000
,  // measure 26
0001
0000
0000
0000
3100
0010
0100
0000
,  // measure 27
1000
0001
2000
0000
0000
0000
3001
1000
,  // measure 28
0002
0000
0103
0110
,  // measure 29
1000
0001
2000
0000
0000
0000
3001
1000
,  // measure 30
0000
0001
0000
0100
0010
0100
0010
0000
,  // measure 31
1001
0000
0000
1000
0000
0010
0100
0000
,  // measure 32
0001
1000
0000
1000
0001
1000
0000
1001
,  // measure 33
0000
0000
0100
0010
0100
0000
0001
1000
,  // measure 34
0001
0000
0100
0010
0100
0000
0001
0000
,  // measure 35
1001
0000
0000
0001
0000
0100
0010
0000
,  // measure 36
1000
0001
0000
0001
1000
0001
0000
1001
,  // measure 37
0000
0000
0010
0100
0010
0000
1000
0000
,  // measure 38
2001
0100
0100
3100
,  // measure 39
1002
0010
0010
0013
,  // measure 40
1001
0110
1001
0110
,  // measure 41
1001
0000
1000
0001
0100
0000
0000
0000
,  // measure 42
0010
0100
0001
1001
,  // measure 43
0001
0000
0100
0000
0010
1000
0001
0000
,  // measure 44
0010
0001
0000
1000
0000
1000
0000
0001
,  // measure 45
1000
0000
0010
0000
1000
0000
0001
0100
,  // measure 46
0001
1000
0010
0100
,  // measure 47
0001
0000
0010
0000
0100
1000
0010
0000
,  // measure 48
1000
0001
0000
1000
0000
1000
0000
0001
,  // measure 49
1000
0000
1000
0001
1000
0000
0010
0000
,  // measure 50
0101
0010
0110
0100
,  // measure 51
0110
0001
1010
0100
,  // measure 52
0001
0100
0001
0000
1000
0001
0100
0000
,  // measure 53
0110
0001
1001
0010
,  // measure 54
0100
0000
1000
0000
0010
0000
0100
0010
,  // measure 55
0100
0010
1000
0000
0100
0000
0010
0000
,  // measure 56
0001
0100
0001
0100
,  // measure 57
0110
0000
1100
0000
,  // measure 58
1001
0000
0011
0000
,  // measure 59
1001
0000
1010
0000
,  // measure 60
1001
0000
0000
0000
0100
0001
0010
0001
,  // measure 61
1000
0100
0010
0001
0000
0000
0000
1000
,  // measure 62
1001
0000
0000
0000
;

//---------------dance-single - ----------------
#NOTES:
     dance-single:
     :
     Easy:
     3:
     0.250,0.330,0.281,0.000,0.000: // measure 1
1001
0000
0000
0000
,  // measure 2
0000
1000
0001
1000
,  // measure 3
0100
0010
0000
0000
,  // measure 4
0000
0000
0000
0001
,  // measure 5
1001
0000
0000
0000
,  // measure 6
0000
0001
1000
0001
,  // measure 7
0010
0100
0000
0000
,  // measure 8
0000
0000
0000
1000
,  // measure 9
1001
0000
0000
0000
,  // measure 10
0000
0010
0001
0010
,  // measure 11
0100
1000
0000
0000
,  // measure 12
0000
0000
0000
0001
,  // measure 13
1001
0000
0000
0000
,  // measure 14
0000
0100
1000
0100
,  // measure 15
0010
0001
0000
0000
,  // measure 16
0000
0000
1000
0000
,  // measure 17
1001
0000
0010
0000
,  // measure 18
0100
0000
0001
0000
,  // measure 19
0010
0000
0100
0000
,  // measure 20
1001
0000
1001
0000
,  // measure 21
1001
0000
0000
0100
,  // measure 22
0001
0100
0001
0100
,  // measure 23
0001
0010
0100
1000
,  // measure 24
0010
0110
0000
0000
,  // measure 25
1000
0000
0100
0000
,  // measure 26
0010
0000
0001
0100
,  // measure 27
0001
0000
0000
0110
,  // measure 28
0000
0000
1001
0000
,  // measure 29
0110
0000
0000
1001
,  // measure 30
0000
0000
0000
0000
,  // measure 31
0001
0000
0010
0000
,  // measure 32
0100
0000
1000
0000
,  // measure 33
1000
0000
0100
0000
,  // measure 34
0010
0000
0001
0000
,  // measure 35
0001
0000
0010
0000
,  // measure 36
0100
0000
1000
0000
,  // measure 37
1001
0000
0100
0000
,  // measure 38
0110
0000
0110
0000
,  // measure 39
1001
0000
1001
0000
,  // measure 40
0110
0000
0110
0000
,  // measure 41
1001
0000
1001
0000
,  // measure 42
0010
0000
1000
0000
,  // measure 43
0100
0000
0010
0001
,  // measure 44
0010
0000
0001
1000
,  // measure 45
0001
0000
1001
0000
,  // measure 46
0001
0000
0010
0000
,  // measure 47
0100
1000
0100
0000
,  // measure 48
1000
0001
1000
0001
,  // measure 49
1000
0000
1001
0000
,  // measure 50
1000
0000
0100
0000
,  // measure 51
0010
0000
0001
0010
,  // measure 52
0001
0000
1000
0001
,  // measure 53
1000
0000
0010
0000
,  // measure 54
0100
0000
0001
1000
,  // measure 55
0001
0000
0100
0000
,  // measure 56
0110
0000
1000
0001
,  // measure 57
0010
0000
0001
1000
,  // measure 58
0001
0000
0100
0010
,  // measure 59
0100
0000
0001
0100
,  // measure 60
0010
1000
0010
0100
,  // measure 61
0010
0100
0010
0000
,  // measure 62
1001
0000
0000
0000
;

//---------------dance-single - ----------------
#NOTES:
     dance-single:
     :
     Challenge:
     8:
     0.633,0.700,0.281,0.119,0.113: // measure 1
1100
0010
0110
0001
,  // measure 2
1001
0000
0100
0001
0010
0100
1000
0001
,  // measure 3
0100
0010
1000
0000
0001
0200
0000
0001
,  // measure 4
0000
0301
0000
1000
0100
0000
1000
0000
,  // measure 5
0011
0100
0110
1000
,  // measure 6
1001
0000
0010
1000
0100
0010
0001
1000
,  // measure 7
0010
0100
0001
0000
1000
0020
0000
1000
,  // measure 8
0000
1030
0000
0001
0010
0000
0001
1000
,  // measure 9
0001
0100
0101
1000
,  // measure 10
1001
0000
0100
0001
0010
0100
1000
0001
,  // measure 11
0100
0010
1000
0000
0001
0020
0000
0001
,  // measure 12
0000
0031
0000
1000
0010
0000
1000
0001
,  // measure 13
1000
0010
1010
0001
,  // measure 14
1001
0000
0010
1000
0100
0010
0001
1000
,  // measure 15
0010
0100
0001
0000
1000
0200
0000
1000
,  // measure 16
0000
0000
0000
1300
0000
0000
0000
0000
0000
0001
0000
0000
0100
0000
0000
0000
0001
0000
0000
0000
1000
0000
0000
0000
,  // measure 17
0100
1000
0110
0001
,  // measure 18
1000
0010
0110
0001
,  // measure 19
1000
0001
0110
1000
,  // measure 20
0001
0101
0000
0101
0000
1100
0000
1100
,  // measure 21
1001
0200
0000
0301
,  // measure 22
1100
0000
1100
0000
0010
0001
1000
0000
,  // measure 23
0100
0001
0100
1000
0100
0001
0100
0010
,  // measure 24
1000
0000
1001
0000
0000
0000
0010
1000
,  // measure 25
0001
0000
0000
0001
0100
0000
0000
0100
,  // measure 26
0010
0000
0000
0010
1000
0100
0010
0001
,  // measure 27
1000
0000
0010
0000
1000
0001
1000
0001
1000
0000
0000
0000
0010
0000
1000
0000
,  // measure 28
0001
1000
0001
1000
0001
0000
0000
0000
0100
0000
0001
0000
1000
0000
0100
0000
,  // measure 29
1000
0000
0000
0000
0001
1000
0001
1000
0001
0000
0000
0000
0100
0000
0001
0000
,  // measure 30
0000
1000
0000
0100
1000
0001
0010
0100
,  // measure 31
1000
1000
0001
0100
0000
0100
1000
0000
,  // measure 32
1000
0100
0000
0100
0001
1000
0100
0010
,  // measure 33
0001
0001
1000
0100
0000
0100
0001
0000
,  // measure 34
0001
0100
0000
0100
1000
0001
0010
0100
,  // measure 35
1000
1000
0001
0010
0000
0010
1000
0000
,  // measure 36
1000
0010
0000
0010
0001
1000
0100
0010
,  // measure 37
0001
1000
0001
0010
0000
0010
1000
0000
,  // measure 38
1000
0010
0100
0001
0010
0100
1000
0001
,  // measure 39
1000
0010
0100
0001
0010
0100
1000
0001
,  // measure 40
0100
0001
0100
0001
0100
0001
1000
0100
1000
0100
1000
0100
,  // measure 41
1000
0000
0001
0000
1000
0000
0001
0000
1000
0000
0001
0000
1000
0000
0000
0000
0000
0000
0100
0000
0000
1000
0000
0000
,  // measure 42
0001
0000
0100
1000
0100
0000
0010
0001
,  // measure 43
1000
0100
0001
0100
1000
0100
0010
0000
,  // measure 44
0001
0200
0000
0001
0000
0301
0000
0100
,  // measure 45
0001
1000
0100
0000
1001
0000
0100
0001
,  // measure 46
1000
0000
0100
0001
0100
0000
0010
1000
,  // measure 47
0001
0100
1000
0100
0001
0100
0010
0000
,  // measure 48
1000
0020
0000
1000
0000
1030
0000
0010
,  // measure 49
1000
0001
0010
0000
1001
0000
0010
1000
,  // measure 50
0001
0000
0010
1000
0010
0000
0001
1000
,  // measure 51
0100
0010
0100
1000
0001
0100
0010
0000
,  // measure 52
0100
0002
0000
1000
0000
1003
0000
0100
,  // measure 53
1000
0001
0100
0000
1001
0000
0010
0001
,  // measure 54
1000
0000
0010
0001
0010
0000
1000
0001
,  // measure 55
0010
0100
0010
0001
1000
0010
0100
0000
,  // measure 56
0010
2000
0000
0001
0000
3001
0000
0010
,  // measure 57
0001
1000
0010
0000
1001
0000
0001
1000
,  // measure 58
0100
0000
1000
0100
0001
0000
0100
0001
,  // measure 59
1000
0000
0100
0001
0010
0000
0100
1000
,  // measure 60
0010
0000
0001
0100
1000
0100
0010
0001
,  // measure 61
1000
0000
0100
0000
0010
0000
0100
0000
1000
0000
0001
0000
0000
0000
1000
0001
,  // measure 62
1000
2002
0000
3003
;

//---------------dance-single - ----------------
#NOTES:
     dance-single:
     :
     Beginner:
     1:
     0.071,0.132,0.076,0.000,0.000: // measure 1
1000
0000
0000
0000
,  // measure 2
0000
0000
0000
0000
,  // measure 3
0001
0000
0000
0000
,  // measure 4
0000
0000
0000
0000
,  // measure 5
1000
0000
0000
0000
,  // measure 6
0000
0000
0000
0000
,  // measure 7
0010
0000
0000
0000
,  // measure 8
0000
0000
0000
0000
,  // measure 9
0100
0000
0000
0000
,  // measure 10
0000
0000
0000
0000
,  // measure 11
0010
0000
0000
0000
,  // measure 12
0000
0000
0000
0000
,  // measure 13
1000
0000
0000
0000
,  // measure 14
0000
0000
0000
0000
,  // measure 15
0001
0000
0000
0000
,  // measure 16
0000
0000
0000
0000
,  // measure 17
1001
0000
0000
0000
,  // measure 18
0000
0000
0000
0000
,  // measure 19
0010
0000
0000
0000
,  // measure 20
0000
0000
0000
0000
,  // measure 21
1001
0000
0000
0000
,  // measure 22
0000
0000
0000
0000
,  // measure 23
0100
0000
0000
0000
,  // measure 24
0000
0110
0000
0000
,  // measure 25
0010
0000
0000
0000
,  // measure 26
0000
0000
0000
0000
,  // measure 27
0001
0000
0000
0000
,  // measure 28
0000
0000
0000
0000
,  // measure 29
1000
0000
0000
0000
,  // measure 30
0000
0000
0000
0000
,  // measure 31
1001
0000
0000
0000
,  // measure 32
0000
0000
0000
0000
,  // measure 33
0010
0000
0000
0000
,  // measure 34
0000
0000
0000
0000
,  // measure 35
0100
0000
0000
0000
,  // measure 36
0000
0000
0000
0000
,  // measure 37
0010
0000
0000
0000
,  // measure 38
1000
0000
0000
0000
,  // measure 39
1000
0000
0000
0000
,  // measure 40
0001
0000
0000
0000
,  // measure 41
0001
0000
0000
0000
,  // measure 42
1000
0000
0000
0000
,  // measure 43
0000
0000
0000
0000
,  // measure 44
0001
0000
0000
0000
,  // measure 45
0000
0000
0000
0000
,  // measure 46
0000
0000
0000
0000
,  // measure 47
1000
0000
0000
0000
,  // measure 48
0000
0000
0000
0000
,  // measure 49
1000
0000
0000
0000
,  // measure 50
0001
0000
0000
0000
,  // measure 51
0001
0000
0000
0000
,  // measure 52
0001
0000
0000
0000
,  // measure 53
0010
0000
0000
0000
,  // measure 54
0010
0000
0000
0000
,  // measure 55
0100
0000
0000
0000
,  // measure 56
0100
0000
0000
0000
,  // measure 57
1000
0000
1001
0000
,  // measure 58
0000
0000
0000
0000
,  // measure 59
0000
0000
1001
0000
,  // measure 60
0000
0000
0000
0000
,  // measure 61
0000
0000
0000
0000
,  // measure 62
1001
0000
0000
0000
;
