#TITLE:Manmachine plays Jazz;
#SUBTITLE:~MIO2~;
#ARTIST:Mikio Endo;
#TITLETRANSLIT:;
#SUBTITLETRANSLIT:;
#ARTISTTRANSLIT:;
#CREDIT:DMAxel;
#BANNER:Manmachine plays Jazz ~MIO2~.png;
#BACKGROUND:Manmachine plays Jazz ~MIO2~-bg.png;
#LYRICSPATH:;
#CDTITLE:beatmania.png;
#MUSIC:Manmachine plays Jazz ~MIO2~.mp3;
#OFFSET:1.380;
#SAMPLESTART:61.712;
#SAMPLELENGTH:12.000;
#SELECTABLE:YES;
#BPMS:0.000=114.000;
#STOPS:;
#BGCHANGES:-1.000=Manmachine plays Jazz ~MIO2~.avi=1.000=1=1=0,
99999=-nosongbg-=1.000=0=0=0 // don't automatically add -songbackground-
;

//---------------dance-single - ----------------
#NOTES:
     dance-single:
     :
     Easy:
     2:
     0.179,0.243,0.139,0.086,0.000:
0000
0000
0000
0000
,
0000
0000
0000
0000
,
0000
0000
0000
0000
,
0000
0000
0000
0000
,
0000
0000
0000
0000
,
1001
0000
0000
0000
,
0001
0010
0001
0010
,
0001
0010
0001
0000
,
1000
0100
1000
0100
,
1000
0100
1000
0000
,
0001
1000
0001
1000
,
0010
0100
0010
0100
,
0001
0010
0001
1000
,
0100
1000
0001
1000
,
0002
0000
2003
0000
,
3001
0000
0001
0000
,
2000
0000
3002
0000
,
1003
0000
1000
0000
,
1001
0020
0000
0000
,
0230
0000
0000
0000
,
2300
0000
0000
0000
,
3020
0000
0000
0130
,
1001
0001
1001
1000
,
0110
0000
0000
0010
,
0011
0100
1100
0001
,
1001
0000
0000
0100
,
1001
0000
0000
0000
,
0010
0000
0000
0000
,
0100
0000
0000
0000
,
0001
1000
1000
1000
,
1001
0000
0001
0001
,
1000
0000
0001
0001
,
1000
0000
0010
0010
,
0100
0000
0001
0000
,
1000
0100
1000
0001
,
0010
0001
0010
0100
,
0010
0100
1000
0010
,
1000
0100
0010
0001
,
1001
0000
0000
0000
,
0100
0000
0000
0000
,
1001
0000
0000
0000
,
0010
0000
0000
1001
0000
0000
0000
0000
;

//---------------dance-single - ----------------
#NOTES:
     dance-single:
     :
     Hard:
     6:
     0.362,0.376,0.096,0.214,0.096:
0000
0000
0000
0000
,
0000
0000
0000
0000
,
0000
0000
0000
0000
,
0000
0000
0000
0000
,
0000
0000
0000
0000
,
1001
0000
0000
0000
0100
0000
0000
0100
0000
0000
0100
0000
0001
0000
1000
0000
,
0001
0100
0001
0010
,
0100
0000
1000
0000
0001
1000
0001
0000
,
1000
0000
0010
0000
0100
0010
0100
0000
,
0001
0000
1000
0000
0010
0100
0010
0000
,
1000
0100
0010
0000
0001
0010
0100
0000
,
1000
0100
0010
0000
0001
0010
0100
1000
,
0001
0100
0010
0000
1000
0010
0100
0000
,
0001
0000
1000
0000
0001
0000
1000
0000
0001
0000
0010
0000
0001
0000
0010
0200
,
0000
0000
0000
0000
1300
0000
0100
0020
0000
0000
0000
0000
0031
0000
0010
0000
,
0100
0000
0200
0000
0000
0000
0000
0000
0300
0000
0000
0000
1000
0000
0010
0200
,
0000
0000
0000
0000
0301
0000
0100
0020
0000
0000
0000
0000
1030
0000
0100
0000
,
0010
0020
0000
0000
0031
0100
0110
0000
,
1001
0000
0010
0100
0010
1000
0001
0010
,
0001
0000
0100
0010
0100
0001
1000
0100
,
1000
0000
0010
1000
0100
1000
0010
1000
,
0001
0000
0000
0000
0100
0000
0001
0000
0010
0000
0001
0000
1000
0000
0100
0020
,
0000
0000
0000
0000
0031
0000
0010
0200
0000
0000
0000
0000
1300
0000
0100
0000
,
0010
0000
0020
0000
0000
0000
0000
0000
0030
0000
0000
0000
0001
0000
0100
0020
,
0000
0000
0000
0000
1030
0000
0010
0200
0000
0000
0000
0000
0301
0000
0100
0000
,
0010
0020
0000
0000
0000
0000
1030
0001
,
1000
0000
0010
0100
0010
1000
0100
0010
,
0001
0000
0100
0010
0100
0001
0010
0100
,
1000
0001
0100
0010
0100
0001
1000
0100
,
0010
0001
1001
0000
0110
0000
1001
0000
,
0100
0000
1000
0000
0100
0000
0000
0020
0000
0000
0001
0000
0031
0000
0000
0000
,
0010
0000
0001
0000
0010
0000
0000
0200
0000
0000
1000
0000
1300
0000
0000
0000
,
0010
0000
1000
0000
0010
0000
0000
0200
0000
0000
0001
0000
0301
0000
0000
0000
,
0100
0000
0001
0000
0100
0000
0000
0020
0000
0000
1030
0000
0000
0000
0000
0000
,
1000
0000
0100
0000
0001
0000
0000
0100
0000
0000
0001
0000
1000
0000
0000
0000
,
0001
0000
0010
0000
1000
0000
0000
0010
0000
0000
1000
0000
0001
0000
0000
0000
,
1000
0000
0010
0000
0001
0000
0000
0100
0000
0000
0001
0000
1000
0000
0000
0000
,
0001
0100
0001
0100
1000
0010
1000
0010
,
0220
0000
0000
0330
,
1000
0001
0000
0001
0000
0001
0000
0001
,
0220
0000
0000
0330
,
0000
0000
0010
0000
0100
0000
0010
0000
0000
1001
0000
0000
0000
0000
0000
0000
0000
0000
0000
0000
0000
0000
0000
0000
;

//---------------dance-single - ----------------
#NOTES:
     dance-single:
     :
     Challenge:
     7:
     0.449,0.506,0.257,0.086,0.267:
0000
0000
0000
0000
,
0000
0000
0000
0000
,
0000
0000
0000
0000
,
0000
0000
0000
0000
,
0000
0000
0000
0000
,
1001
0000
0000
0000
0100
0000
0000
0100
0000
0000
0100
0000
0001
0000
1000
0001
,
1000
0100
1000
0010
1000
0100
0010
0000
,
0001
0000
0010
0000
0001
0000
0100
0000
0001
0000
0010
0100
0000
0000
1000
0000
,
0001
0010
0001
0100
0001
0010
0100
0000
,
1000
0000
0100
0000
1000
0000
0010
0000
1000
0000
0100
0010
0000
0000
0001
0000
,
1000
0000
0100
0000
0020
0000
0000
0001
0000
0000
0031
0000
0000
0000
1000
0000
,
0001
0000
0010
0000
0200
0000
0000
1000
0000
0000
1300
0000
0000
0000
0001
0000
,
1000
0000
0100
0000
0020
0000
0000
0001
0000
0000
0031
0000
0000
0000
1000
0000
,
0001
0000
0010
0000
0100
0000
1000
0000
0100
0000
0010
0000
0001
0000
0010
0100
,
0000
0000
1000
0000
0010
0000
0100
0001
0000
0000
0010
0000
0100
0000
1000
0010
,
0000
1000
0010
0000
1000
0000
0001
0000
1000
0000
0000
0000
1000
0000
0100
0010
,
0000
0000
0001
0000
0100
0000
0010
1000
0000
0000
0100
0000
0010
0000
0001
0100
,
0000
0001
0100
0000
0001
0000
1000
0000
0001
0000
0000
0000
0011
0000
0000
0000
,
1001
0000
0010
1000
0100
0010
0001
0010
,
1010
0000
0100
0001
0010
0100
1000
0100
,
0101
0000
0010
1000
0100
0010
0001
0100
,
0101
0000
0000
0000
0010
0000
1000
0000
0100
0000
0010
0000
0001
0000
0010
0100
,
0000
0000
1000
0000
0010
0000
0100
0001
0000
0000
0010
0000
0100
0000
1000
0010
,
0000
1000
0010
0000
1000
0000
0001
0000
1000
0000
0000
0000
1000
0000
0100
0010
,
0000
0000
0001
0000
0100
0000
0010
1000
0000
0000
0100
0000
0010
0000
0001
0100
,
0000
0001
0100
0000
0001
0000
1000
0000
0001
0000
0000
0000
0011
0000
0000
0000
,
1001
0000
0100
1000
0001
0010
0100
1000
,
1100
0000
0010
0001
1000
0100
0010
0001
,
0011
0000
0100
1000
0100
0010
0001
0100
,
0110
1100
0101
1001
,
0010
0000
0000
1000
0010
0000
0010
0100
0000
0000
0001
0000
1001
0000
0000
0000
,
0100
0000
0000
0001
0100
0000
0100
0010
0000
0000
1000
0000
1001
0000
0000
0000
,
0100
0000
0000
1000
0010
0000
0010
0100
0000
0000
0010
0000
1001
0000
0000
0000
,
0010
0000
0000
0001
0100
0000
0100
0010
0000
1000
0002
0000
0000
0000
0000
0000
,
0103
0000
0000
0001
0010
0000
0010
0100
0000
0100
1000
0000
1001
0000
0000
0000
,
0010
0000
0000
1000
0100
0000
0100
0010
0000
0010
0001
0000
1001
0000
0000
0000
,
0010
0001
0000
0001
0100
0000
0100
0010
0000
0010
1000
0000
1001
0000
0000
0000
,
0100
1000
0000
1000
0010
0000
0010
0100
0000
0100
0001
0000
1000
0000
0001
0000
,
2001
0000
0000
0000
0001
0000
0000
0001
0000
0000
3001
0000
0010
0000
0100
0000
,
1010
0010
0000
0010
0000
0100
0000
0100
,
1002
0000
0000
0000
1000
0000
0000
1000
0000
0000
1003
0000
0100
0000
0010
0000
,
0000
0000
0001
0000
1000
0000
0001
0000
0000
2200
0000
0000
0000
0000
0000
0000
0000
0000
0000
0000
0000
0000
0000
0000
,
0000
0000
0000
0000
,
3300
0000
0000
0000
;

//---------------dance-single - ----------------
#NOTES:
     dance-single:
     :
     Medium:
     4:
     0.273,0.332,0.118,0.075,0.000:
0000
0000
0000
0000
,
0000
0000
0000
0000
,
0000
0000
0000
0000
,
0000
0000
0000
0000
,
0000
0000
0000
0000
,
1001
0000
0000
0000
,
0100
0010
0100
0010
,
0001
1000
0001
0010
,
1000
0100
1000
0001
,
1000
0100
0010
0001
,
1002
0010
0010
0013
,
2001
0100
0100
3100
,
1002
0100
0100
0103
,
2001
0000
0010
0000
0010
0000
3010
0100
,
0010
0000
1000
0010
1000
0000
0001
0100
,
0001
0000
0000
0000
0000
0000
0100
0010
,
0100
0000
0001
0010
0001
0000
1000
0100
,
1000
0000
0000
1001
,
1001
0010
0100
1000
,
0100
0010
0001
0100
,
1000
0100
0001
0010
,
0100
0000
1000
0000
0100
0000
1000
0001
,
1000
0000
0010
0100
0001
0000
0100
0010
,
1000
0000
0010
0000
0010
0000
1000
0001
,
1000
0000
0010
1000
0100
0000
0010
0001
,
0100
0000
0010
0000
0010
0000
0100
0010
,
0100
0001
0010
0100
,
1000
0100
0010
0001
,
0010
1000
0010
0001
,
0010
1001
1001
1001
,
0010
0100
0010
0000
0100
0100
0100
0000
,
0001
1000
0001
0000
1000
1000
1000
0000
,
0010
0100
0010
0000
0100
0100
0100
0000
,
0001
1000
0001
0000
2000
0000
0000
0000
,
3010
0100
0010
0000
1000
0100
0010
0000
,
0001
1000
0001
0000
0010
0001
0100
0000
,
0010
0100
0010
0000
1000
0010
0100
0000
,
0001
0100
0001
0100
0001
1000
0010
1000
,
0020
0000
0000
0000
,
0130
0000
0000
0001
0000
0001
0000
0001
,
0200
0000
0000
0000
,
0300
0000
0000
1001
0000
0000
0000
0000
;

//---------------dance-single - ----------------
#NOTES:
     dance-single:
     :
     Beginner:
     1:
     0.069,0.111,0.043,0.000,0.000:
0000
0000
0000
0000
,
0000
0000
0000
0000
,
0000
0000
0000
0000
,
0000
0000
0000
0000
,
0000
0000
0000
0000
,
1001
0000
0000
0000
,
0001
0000
0000
0000
,
0001
0000
0000
0000
,
0001
0000
0000
0000
,
0001
0000
0000
0000
,
1000
0000
0000
0000
,
1000
0000
0000
0000
,
1000
0000
0000
0000
,
0001
0000
0000
1000
,
0000
0001
0000
1000
,
0000
0000
0000
0010
,
0000
0100
0000
0010
,
0000
0000
0000
0000
,
1000
0000
0000
0000
,
0100
0000
0000
0000
,
1000
0000
0000
0000
,
0001
0000
0000
0010
,
0000
0001
0000
1000
,
0000
0000
0000
0001
,
0000
1000
0000
0001
,
0000
0000
0000
0000
,
0001
0000
0000
0000
,
0010
0000
0000
0000
,
0001
0000
0000
0000
,
0000
1001
0000
0000
,
1001
0000
0000
0000
,
0001
0000
0000
0000
,
1000
0000
0000
0000
,
1000
0000
0000
0000
,
0001
0000
0000
0000
,
1000
0000
0000
0000
,
0001
0000
0000
0000
,
0001
0000
0000
0000
,
1001
0000
0000
0000
,
0010
0000
0000
0000
,
0010
0000
0000
0000
,
0000
0000
0000
1000
0000
0000
0000
0000
;

//---------------dance-double - ----------------
#NOTES:
     dance-double:
     :
     Easy:
     3:
     0.209,0.243,0.107,0.171,0.000: // measure 1
00000000
00000000
00000000
00000000
,  // measure 2
00000000
00000000
00000000
00000000
,  // measure 3
00000000
00000000
00000000
00000000
,  // measure 4
00000000
00000000
00000000
00000000
,  // measure 5
00000000
00000000
00000000
00000000
,  // measure 6
00001001
00000000
00000000
00000000
,  // measure 7
00000010
00000001
00001000
00000001
,  // measure 8
00000010
00000001
00001000
00000000
,  // measure 9
00000100
00001000
00000001
00001000
,  // measure 10
00000100
00001000
00000001
00000000
,  // measure 11
00000010
00000100
00001000
00000000
,  // measure 12
00010000
00100000
01000000
00000000
,  // measure 13
10000000
00100000
01000000
00000000
,  // measure 14
00010000
00001000
00000100
00000010
,  // measure 15
00000002
00000000
00002003
00000000
,  // measure 16
00003010
00000010
00000010
00000100
,  // measure 17
00000002
00000000
00002003
00000000
,  // measure 18
00003010
00000010
00000010
00001001
,  // measure 19
00001001
00000010
00000001
00000010
,  // measure 20
00000100
00001000
00000100
00001000
,  // measure 21
00010000
00100000
00010000
00100000
,  // measure 22
00010000
10000000
01000000
00100000
,  // measure 23
00020000
00000000
20030000
00000000
,  // measure 24
30100000
00100000
00100000
01000000
,  // measure 25
00020000
00000000
20030000
00000000
,  // measure 26
30100000
00100000
00100000
01000000
,  // measure 27
10010000
20000000
00000000
00000000
,  // measure 28
32000000
00000000
00000000
00000000
,  // measure 29
03200000
00000000
00000000
00000000
,  // measure 30
00320000
00001000
00001000
00031000
,  // measure 31
00011000
00000100
00000010
00000010
,  // measure 32
00000001
00000010
00000100
00000100
,  // measure 33
00001000
00010000
00100000
00100000
,  // measure 34
01000000
00100000
00011000
00000000
,  // measure 35
10000000
01000000
00100000
00100000
,  // measure 36
00010000
00001000
00000100
00000100
,  // measure 37
00000010
00000001
00000010
00000010
,  // measure 38
00000100
00001000
00010000
00001000
,  // measure 39
00022000
00000000
00000000
00033000
,  // measure 40
01010000
00000000
00000000
00000000
,  // measure 41
00022000
00000000
00000000
00033000
,  // measure 42
00000000
00000000
00000000
00001010
00000000
00000000
00000000
00000000
;
