#TITLE:Makina Maestro;
#SUBTITLE:;
#ARTIST:nadeco;
#TITLETRANSLIT:;
#SUBTITLETRANSLIT:;
#ARTISTTRANSLIT:;
#CREDIT:DMAxel;
#BANNER:Makina Maestro.png;
#BACKGROUND:Makina Maestro-bg.png;
#LYRICSPATH:;
#CDTITLE:DMAxel original simfile.png;
#MUSIC:Makina Maestro.mp3;
#OFFSET:-0.280;
#SAMPLESTART:31.888;
#SAMPLELENGTH:12.000;
#SELECTABLE:YES;
#BPMS:0.000=164.980;
#STOPS:;
#BGCHANGES:;

//---------------dance-single - ----------------
#NOTES:
     dance-single:
     :
     Easy:
     3:
     0.191,0.264,0.194,0.018,0.000:
0000
0000
0000
0000
,
0000
0000
0000
0000
,
0000
0000
0000
0000
,
0000
0000
0000
0000
,
1000
0000
0000
0000
,
1000
0000
0000
0000
,
1000
0000
0001
0000
,
1000
0000
0001
0000
,
1000
0000
1000
0000
,
1001
0000
0000
0000
,
0010
0000
0010
0000
,
0100
0000
0100
0000
,
0010
0000
0010
0000
,
0100
0000
0100
0000
,
0010
0000
1000
0000
,
0001
0000
0100
0000
,
0010
0000
1000
0000
,
0001
0000
0010
0000
,
0100
0000
1000
0000
,
0001
0000
0010
0000
,
0100
0000
1000
0000
,
0000
0000
0000
1001
,
0000
1000
0000
0001
,
0000
0001
0000
1000
,
0000
1000
0000
0100
,
0000
0010
0000
0001
,
0000
0001
0000
0010
,
0000
0001
0000
1000
,
0000
0100
0000
1000
,
0000
0001
0000
0110
,
0000
1001
0000
0110
,
0000
1001
0000
0110
,
0000
0000
0000
1001
,
0000
0000
0000
0001
,
0000
1000
0000
0001
,
0000
0001
0000
0010
,
0000
0010
0000
0100
,
0000
0100
0000
1000
,
0000
0001
0000
1000
,
0000
1000
0000
0100
,
0000
0100
0000
0110
,
0000
0110
0000
1001
,
0000
0001
0000
0010
,
0000
0010
0000
0001
,
0000
0001
0000
1001
,
0000
0000
0000
1001
,
0000
1000
0000
1000
,
0000
0100
0000
0100
,
0000
0010
0000
0001
,
0000
0001
0000
1001
,
0000
1000
0000
0001
,
0000
1000
0000
0010
,
0000
0010
0000
0100
,
0000
0100
0000
0010
,
0000
0100
0000
0010
,
0000
1000
0000
0001
,
0000
0010
0000
0100
,
0000
0000
0000
1001
,
0000
1000
0000
1000
,
0000
0100
0000
1000
,
0000
0001
0000
0010
,
0000
0001
0000
0100
,
0000
0010
0000
0100
,
0000
0001
0000
1000
,
0000
0001
0000
1001
,
0000
1001
0000
1001
,
0000
0001
0000
0010
,
0000
0100
0000
1000
,
0000
0010
0000
0100
,
0000
0100
0000
0110
,
0000
0000
0000
1001
,
0000
0000
0000
1001
,
0000
0000
0000
0001
,
0000
0000
0000
2002
,
0000
0000
0000
3003
;

//---------------dance-single - ----------------
#NOTES:
     dance-single:
     :
     Medium:
     6:
     0.440,0.494,0.273,0.035,0.000:
0000
0000
0000
0000
,
0000
0000
0000
0000
,
0000
0000
0000
0000
,
0000
0000
0000
0000
,
0010
0010
0010
0010
,
0100
0100
0100
0100
,
0010
0010
0010
0010
,
0100
0100
0100
0100
,
0001
1000
0001
1000
,
1001
0000
0000
0000
,
0010
0100
0010
0100
,
0010
0100
0010
1000
,
0100
1000
0100
1000
,
0100
0010
0001
1000
,
0001
0010
0001
0010
,
0001
0010
0001
1000
,
0010
1000
0010
0100
,
0010
0100
0001
0100
,
0001
1000
0001
1000
,
0010
0100
0010
1000
,
0100
0010
0001
1000
,
1001
0001
1001
1001
,
0010
0001
0100
1000
,
0100
1000
0100
0001
,
0100
0001
0100
1000
,
0010
0000
0100
0010
0100
0000
0001
0000
,
1000
0100
0001
0100
,
0001
0100
1000
0010
,
1000
0010
0001
0010
,
0001
0010
1000
0001
,
0100
0001
0100
0010
,
1000
0010
1000
0100
,
0010
0100
0010
2002
,
0000
0000
3003
0100
,
0100
0001
0100
0000
0001
0000
1000
0000
,
0010
1000
0010
0000
1000
0000
0001
0000
,
0010
0001
0010
0000
0001
0000
1000
0000
,
0100
1000
0100
0000
1000
0000
0001
0000
,
0100
0010
0100
0000
0010
0100
0010
0000
,
1000
0100
1000
0000
0100
1000
0100
0000
,
0010
0001
0010
0000
0001
0000
1001
0000
,
0001
0110
0001
1001
,
1000
0000
1000
0010
1000
0000
0001
0000
,
0100
0000
0100
0010
0100
0000
0001
0000
,
1000
0000
1000
0100
1000
0000
1001
0000
,
0000
0000
0011
0000
0010
0001
0010
0000
,
0001
0000
0100
0010
0100
0000
0001
0000
,
1000
0010
1000
0000
0001
0000
0100
0000
,
0010
0100
0010
0000
1000
0000
0001
1000
,
0001
0000
1000
0001
1000
0000
1001
0000
,
0010
0001
0010
0000
0001
0010
0001
0000
,
0100
0010
0100
0000
0010
0100
0010
0000
,
1000
0100
1000
0000
0100
1000
0100
0000
,
1000
0001
1000
0000
0001
1000
0001
0000
,
0100
0010
0100
0000
0010
0100
0010
0000
,
1000
0001
1000
0000
0001
0100
0001
1000
,
0001
1000
0001
1000
0001
0000
0100
0000
,
0100
0110
0000
1001
,
0001
0000
0001
0100
0001
0000
0100
0010
,
0100
0000
0100
0010
1000
0000
1000
0000
,
1000
0000
1000
0010
1000
0000
0010
0100
,
0010
0000
0010
0100
0001
0000
0001
0000
,
0001
0000
0001
0010
0001
0000
0100
0010
,
0100
0000
0100
0010
1000
0000
1000
0000
,
1000
0000
1000
0100
1000
0000
1100
0000
,
1100
0011
0011
1001
,
1000
0000
1000
0010
0100
0000
0110
0000
,
0001
0000
0001
0100
0010
0000
0110
0000
,
1000
0000
1000
0100
0010
0000
0110
0000
,
0001
0000
0001
0010
0100
0000
0110
0000
,
0000
0110
0000
1010
,
0000
1010
0000
0101
,
0000
0101
0000
1001
,
1001
0110
0010
2002
,
0000
0000
0000
3003
;

//---------------dance-single - ----------------
#NOTES:
     dance-single:
     :
     Hard:
     8:
     0.593,0.560,0.511,0.035,0.004: // measure 1
0000
0000
0000
0000
,  // measure 2
0000
0000
0000
0000
,  // measure 3
0000
0000
0000
0000
,  // measure 4
0000
0000
0000
0000
,  // measure 5
0100
0001
0100
0000
0100
0010
0100
0000
,  // measure 6
0010
1000
0010
0000
0010
0100
0010
0000
,  // measure 7
0100
0010
0100
0000
0001
0010
0001
0000
,  // measure 8
1000
0100
1000
0000
0001
0100
0001
0000
,  // measure 9
1000
0010
1000
0010
1000
0001
0010
0001
,  // measure 10
1001
0000
0000
1001
,  // measure 11
0001
0010
0001
0100
0001
0010
0001
0000
,  // measure 12
1000
0100
1000
0010
1000
0100
1000
0000
,  // measure 13
0001
0100
0001
0010
0001
0100
0001
0000
,  // measure 14
1000
0010
1000
0100
1000
0010
1000
1000
,  // measure 15
0010
0100
0010
1000
0001
0100
0010
0000
,  // measure 16
0100
0010
1000
0001
0100
0010
0100
0000
,  // measure 17
0010
0100
0010
1000
0100
1000
0001
0000
,  // measure 18
0100
0010
0100
0001
1000
1000
1000
0100
,  // measure 19
1000
0001
0100
0001
1000
0000
0001
0010
,  // measure 20
0001
1000
0010
1000
0001
0000
1000
0010
,  // measure 21
1000
0001
0010
0001
1000
0000
1100
0000
,  // measure 22
1100
0000
1100
0000
1100
0000
1000
0001
,  // measure 23
0100
0000
1000
0000
1000
0000
0001
1000
,  // measure 24
0100
0000
0001
0000
0001
0000
1000
0001
,  // measure 25
0010
1000
1000
1010
,  // measure 26
0110
0000
0010
0100
0001
0001
1000
0001
,  // measure 27
0100
0000
1000
0000
1001
0000
0001
1000
,  // measure 28
0010
0000
0001
0000
1001
0000
1000
0001
,  // measure 29
0010
0000
1000
0000
1001
0000
0001
1000
,  // measure 30
0100
0000
0001
0000
1001
0000
1000
0001
,  // measure 31
0010
0000
1000
0001
0100
0000
1000
0001
,  // measure 32
0010
0000
1000
0001
0100
0000
1000
0001
,  // measure 33
0010
0001
1000
0100
1000
0001
2002
0000
,  // measure 34
0000
0000
3003
0110
,  // measure 35
0010
1000
0100
1000
0010
0100
0001
0000
,  // measure 36
0100
0001
0010
0001
0100
0010
1000
0000
,  // measure 37
0010
1000
0100
0010
0100
0010
0001
0000
,  // measure 38
0100
0001
0010
0100
0010
0100
1000
0000
,  // measure 39
0100
0010
0001
1000
0001
0010
0001
0000
,  // measure 40
0010
0100
1000
0001
1000
0100
1000
0000
,  // measure 41
0010
0100
0001
1000
0001
0000
0011
0000
,  // measure 42
1001
1100
1001
0110
,  // measure 43
0101
0000
0100
0001
1000
0000
0110
0000
,  // measure 44
1010
0000
0010
1000
0001
0000
0110
0000
,  // measure 45
0101
0000
0100
0001
1000
0000
1001
0000
,  // measure 46
0000
0000
0000
0000
1100
0000
0000
1000
0001
0000
0001
0000
0100
0000
0001
0000
,  // measure 47
1000
0000
0100
0010
0001
0000
0100
0001
,  // measure 48
1000
0000
0100
0010
0001
0000
0010
0001
,  // measure 49
1000
0000
0100
0010
0001
0000
0100
0010
,  // measure 50
1000
0000
0001
0100
0100
0000
1001
0000
,  // measure 51
1000
0001
0100
0010
0100
0001
1000
0000
,  // measure 52
0001
1000
0010
0100
0010
1000
0001
0000
,  // measure 53
0100
0010
1000
0001
1000
0010
0100
0000
,  // measure 54
0010
0100
0001
0010
1000
0010
0001
0000
,  // measure 55
0100
0010
1000
0000
0001
0010
0100
0000
,  // measure 56
1000
0010
0100
0000
0001
0100
1000
0010
,  // measure 57
1000
0001
1000
0010
1000
0000
1001
0000
,  // measure 58
1001
1001
0000
1100
,  // measure 59
1100
0000
1000
0010
0100
0001
0010
0000
,  // measure 60
0011
0000
0001
0100
0010
1000
0100
0000
,  // measure 61
1100
0000
1000
0100
0010
0100
0010
0000
,  // measure 62
0011
0000
0001
0010
0100
0010
0100
0000
,  // measure 63
1100
0000
1000
0100
0010
0100
0010
0000
,  // measure 64
0011
0000
0001
0010
0100
0010
0100
0000
,  // measure 65
1100
0000
1000
0010
0100
0000
0101
0000
,  // measure 66
0101
1010
1010
1001
,  // measure 67
0001
0010
0001
1000
0010
0000
1001
0000
,  // measure 68
1100
0000
1000
0001
0100
0000
1001
0000
,  // measure 69
0011
0000
0001
1000
0100
0000
1001
0000
,  // measure 70
1100
0000
1000
0001
0010
0000
0110
0000
,  // measure 71
1000
0011
0100
1010
,  // measure 72
0001
0000
1100
0000
0010
0000
0001
1000
,  // measure 73
0100
1000
0001
0100
0001
0000
0011
0000
,  // measure 74
0110
1100
1010
2002
,  // measure 75
0000
0000
0000
3003
;

//---------------dance-single - ----------------
#NOTES:
     dance-single:
     :
     Challenge:
     8:
     0.640,0.626,0.441,0.053,0.022: // measure 1
0000
0000
0000
0000
,  // measure 2
0000
0000
0000
0000
,  // measure 3
0000
0000
0000
0000
,  // measure 4
0000
0000
0000
0000
,  // measure 5
0100
0010
0001
1000
1000
0010
1000
0000
,  // measure 6
0100
0010
0001
1000
1000
0010
1000
0000
,  // measure 7
0010
0100
0001
1000
0010
0100
0001
0000
,  // measure 8
0010
0100
1000
0001
0010
0100
1000
0001
,  // measure 9
1000
0100
1000
0001
1000
0100
1000
0001
,  // measure 10
0022
0000
0033
0011
,  // measure 11
0001
0100
0010
1000
0100
0010
0100
0000
,  // measure 12
1000
0010
0100
0001
0010
0100
0010
0000
,  // measure 13
0001
0010
0100
1000
0100
0010
0100
0000
,  // measure 14
1000
0100
0010
0001
0010
0100
0010
0010
,  // measure 15
0001
1000
0001
0100
0010
0100
0001
0000
,  // measure 16
1000
0001
1000
0010
0100
0010
1000
0000
,  // measure 17
0100
1000
0100
0010
0100
1000
0001
0000
,  // measure 18
0010
0100
0010
0001
0010
0100
0100
1000
,  // measure 19
0010
1000
0100
1000
0001
0000
1000
0001
,  // measure 20
0100
0001
0010
0001
1000
0000
0001
1000
,  // measure 21
0100
1000
0010
1000
0001
1000
1010
0000
,  // measure 22
1010
0000
0101
0000
0101
0000
0001
1000
,  // measure 23
0010
0000
1000
0010
0001
0000
1000
0001
,  // measure 24
0100
0000
0001
0100
1000
0000
0001
1000
,  // measure 25
0100
0000
1000
0100
0001
0000
0100
0100
,  // measure 26
0010
0010
1000
0100
0001
1000
0001
1000
,  // measure 27
0100
0000
1000
0100
0001
0000
1001
0000
,  // measure 28
0101
0000
0001
0010
1000
0000
1001
0000
,  // measure 29
1010
0000
1000
0100
0001
0000
1001
0000
,  // measure 30
0011
0000
0001
0100
1000
0000
0010
0001
,  // measure 31
1000
0000
0010
0001
1000
0000
0100
0001
,  // measure 32
1000
0000
0100
0001
1000
0000
0010
0001
,  // measure 33
1000
0001
0010
0001
1000
0001
2002
0000
,  // measure 34
0000
0000
3003
0101
,  // measure 35
0001
1000
0010
0010
1000
0100
0010
0000
,  // measure 36
0001
1000
0010
0010
1000
0100
0010
0000
,  // measure 37
0001
0100
0001
0001
1000
0100
1000
0000
,  // measure 38
0001
1000
0001
0001
1000
0100
0001
0000
,  // measure 39
0100
0010
1000
0100
0010
0100
1000
0000
,  // measure 40
0010
0100
0001
0010
0100
0010
0001
0000
,  // measure 41
0010
0100
1000
0001
1000
0010
0011
0000
,  // measure 42
1010
0000
0101
0000
1100
0000
1000
0001
,  // measure 43
0100
0001
1000
0100
0001
0000
0010
0100
,  // measure 44
1000
0001
1000
0100
0001
0000
1000
0001
,  // measure 45
0100
0001
1000
0100
0001
0000
1001
0000
,  // measure 46
0000
0000
0000
0000
0101
0000
0000
0001
1000
0000
1000
0000
0100
0000
0010
0000
,  // measure 47
0001
1000
0001
0100
1000
0000
0001
1000
,  // measure 48
0100
1000
0001
0100
1000
0000
0100
0010
,  // measure 49
0001
1000
0001
0100
1000
0000
0010
0010
,  // measure 50
0110
0000
0000
0000
1000
0000
1000
0000
1001
0000
0000
1000
0001
0000
1000
0000
,  // measure 51
0100
1000
0001
0010
1000
0010
0001
1000
,  // measure 52
0100
1000
0001
0010
1000
0000
1001
0000
,  // measure 53
1000
0001
1000
0100
0001
0100
1000
0000
,  // measure 54
0010
1000
0001
0010
1000
0010
0110
0000
,  // measure 55
0001
0010
1000
0000
0001
0010
1000
0000
,  // measure 56
0010
0100
0001
0000
1000
0100
0001
1000
,  // measure 57
0001
0010
0001
1000
0100
1000
1001
0000
,  // measure 58
1001
1001
0000
0011
,  // measure 59
1001
0000
0010
0100
1000
0100
0001
1000
,  // measure 60
0001
0000
0000
0000
0010
0000
0100
1000
0100
0000
1000
0000
0001
0000
0100
0000
,  // measure 61
0001
0000
0010
0100
1000
0100
0001
1000
,  // measure 62
0001
0000
0010
0100
1000
0100
0001
0000
,  // measure 63
1001
0000
0100
0010
0001
0010
1000
0001
,  // measure 64
1000
0000
0000
0000
0100
0000
0010
0001
0010
0000
0001
0000
1000
0000
0010
0000
,  // measure 65
1000
0000
0100
0010
0001
0010
0110
0000
,  // measure 66
0110
0000
1100
0000
1100
0100
1001
0000
,  // measure 67
1001
0000
1000
0100
0001
0010
0110
0000
,  // measure 68
1001
0000
0000
0000
1000
0000
0001
0100
0001
0000
1000
0000
1100
0000
0000
0000
,  // measure 69
1001
0000
0001
0010
1000
0100
0110
0000
,  // measure 70
1001
0000
0001
1000
0010
1000
1001
0000
,  // measure 71
1000
0001
0101
0000
0001
1000
1010
0000
,  // measure 72
1000
0001
0011
0000
0001
1000
0100
0100
,  // measure 73
0010
0010
0001
0010
1000
0100
0101
0000
,  // measure 74
1100
0011
0010
2002
,  // measure 75
0000
0000
0000
3003
;

//---------------dance-single - ----------------
#NOTES:
     dance-single:
     :
     Beginner:
     2:
     0.094,0.163,0.062,0.000,0.000:
0000
0000
0000
0000
,
0000
0000
0000
0000
,
0000
0000
0000
0000
,
0000
0000
0000
0000
,
1000
0000
0000
0000
,
1000
0000
0000
0000
,
1000
0000
0000
0000
,
1000
0000
0000
0000
,
0001
0000
0000
0000
,
0001
0000
0000
0000
,
0100
0000
0000
0000
,
0010
0000
0000
0000
,
0100
0000
0000
0000
,
0100
0000
0000
0000
,
0010
0000
0000
0000
,
0100
0000
0000
0000
,
0010
0000
0000
0000
,
0010
0000
0000
0000
,
0110
0000
0000
0000
,
1000
0000
0000
0000
,
1001
0000
0000
0000
,
0000
0000
0000
0001
,
0000
0000
0000
0001
,
0000
0000
0000
0001
,
0000
0000
0000
1000
,
0000
0000
0000
1000
,
0000
0000
0000
1000
,
0000
0000
0000
1000
,
0000
0000
0000
0001
,
0000
0000
0000
0100
,
0000
0000
0000
0010
,
0000
0000
0000
0100
,
0000
0000
0000
0100
,
0000
0000
0000
1001
,
0000
0000
0000
0001
,
0000
0000
0000
1000
,
0000
0000
0000
0001
,
0000
0000
0000
0001
,
0000
0000
0000
1000
,
0000
0000
0000
1000
,
0000
0000
0000
0001
,
0000
0000
0000
1001
,
0000
0000
0000
0001
,
0000
0000
0000
0001
,
0000
0000
0000
1000
,
0000
0000
0000
0100
,
0000
0000
0000
0100
,
0000
0000
0000
0010
,
0000
0000
0000
0010
,
0000
0000
0000
0001
,
0000
0000
0000
1000
,
0000
0000
0000
0001
,
0000
0000
0000
0001
,
0000
0000
0000
1000
,
0000
0000
0000
1000
,
0000
0000
0000
1000
,
0000
0000
0000
0000
,
0000
0000
0000
1001
,
0000
0000
0000
0001
,
0000
0000
0000
0001
,
0000
0000
0000
1000
,
0000
0000
0000
1000
,
0000
0000
0000
1000
,
0000
0000
0000
0001
,
0000
0000
0000
1000
,
0000
0000
0000
0010
,
0000
0000
0000
0100
,
0000
0000
0000
0010
,
0000
0000
0000
0100
,
0000
0000
0000
0010
,
0000
0000
0000
0000
,
0000
0000
0000
1000
,
0000
0000
0000
1001
,
0000
0000
0000
1001
;
