#TITLE:Magical 4;
#SUBTITLE:;
#ARTIST:good-cool;
#TITLETRANSLIT:;
#SUBTITLETRANSLIT:;
#ARTISTTRANSLIT:;
#CREDIT:DMAxel;
#BANNER:Magical 4.png;
#BACKGROUND:Magical 4-bg.png;
#LYRICSPATH:;
#CDTITLE:pop'n music.png;
#MUSIC:Magical 4.mp3;
#OFFSET:-0.420;
#SAMPLESTART:2.400;
#SAMPLELENGTH:12.000;
#SELECTABLE:YES;
#DISPLAYBPM:72.000:150.000;
#BPMS:0.000=120.000,52.000=60.000,54.000=120.000,102.000=36.000,104.000=72.000,136.000=150.000;
#STOPS:;
#BGCHANGES:;

//---------------dance-single - ----------------
#NOTES:
     dance-single:
     :
     Easy:
     3:
     0.231,0.266,0.174,0.191,0.000:
0000
0000
0000
0000
,
0000
0000
0000
0000
,
0000
0000
0000
0000
,
0000
0000
0000
0000
,
0000
0000
0000
0000
,
0001
0010
1000
0001
,
1000
0100
0001
1000
,
0001
0010
1000
0010
,
0220
0000
0000
0330
,
1002
0000
1000
1000
,
2003
0000
0010
0010
,
3020
0000
0100
0100
,
0130
0001
1000
0010
,
0220
0000
0000
0330
1001
0000
0001
0000
,
0010
0000
0001
0010
,
1000
0001
1000
1000
,
0100
0000
1000
0100
,
0001
1000
1001
0001
,
0010
0000
0001
0010
,
1000
0001
1000
1000
,
0100
0000
1000
0100
,
0001
1000
1002
0000
,
0000
0000
2003
0000
,
0010
3010
2001
0000
,
0000
0000
3002
0000
,
0100
0000
0103
0000
2002
0000
0000
3003
,
0110
0010
0001
0010
,
1000
0001
0020
0000
,
0130
1000
0100
0001
,
1000
0001
0100
0110
,
1001
0110
0001
0010
,
1000
0001
0020
0000
,
1030
0100
0001
1000
,
0001
0010
0100
0110
,
2002
0000
0000
3003
,
0011
0100
1000
0000
,
1000
0001
1000
0000
,
0100
1000
0010
0100
,
0010
0000
1001
0000
,
1001
0000
0100
0000
,
0001
0000
0100
0010
,
0100
0001
0010
0001
,
2000
0000
0000
3001
,
0010
0001
0010
0001
,
1000
0010
1000
0010
,
1000
0100
1000
0010
,
0220
0000
0000
0330
,
1001
0010
0001
0010
,
0001
1000
0001
1000
,
0001
0010
0100
1000
,
0220
0000
0000
0000
,
0330
0000
0000
0000
;

//---------------dance-single - ----------------
#NOTES:
     dance-single:
     :
     Medium:
     6:
     0.348,0.399,0.322,0.130,0.017:
0000
0000
0000
0000
,
0000
0000
0000
0000
,
0000
0000
0000
0000
,
0000
0000
0000
0000
,
0000
0000
0000
0000
,
1100
0000
1000
0000
0001
0010
1000
0000
,
0011
0000
0001
0000
1000
0100
0001
0000
,
1100
0000
1000
0000
0001
0010
1000
0001
,
0022
0000
0000
0033
,
1001
0000
0001
1000
0001
0010
0100
0000
,
1000
0000
0001
0000
1000
0100
0001
0010
,
0100
1000
0010
0001
,
1000
0100
0010
0001
1000
0000
1010
0000
,
0200
0020
0000
0000
0000
0000
0330
0000
1001
0000
0000
0000
0011
0000
0000
0000
,
1001
0000
0020
1000
,
1000
1030
1001
1100
,
1001
0000
0100
0000
0100
0001
0100
0000
,
0001
1000
0100
0000
1001
0000
1100
0000
,
1001
0000
0200
0001
,
0001
0301
1001
0011
,
1001
0000
0010
0000
0010
1000
0010
0000
,
1000
0001
0010
0000
1001
0000
0010
0000
,
1000
0100
0001
0010
,
1000
0010
0100
0001
1001
0000
0010
0000
,
1000
0000
0100
0000
0001
0100
0010
1000
,
0001
0000
0101
0000
2002
0000
0000
3003
,
1100
0000
0011
0000
0001
0001
1000
0000
,
1000
0001
1000
1000
0010
0110
0000
0000
,
1000
1000
0001
0000
0001
1000
0010
0000
,
1000
0000
1000
0000
0010
0000
0100
0000
0010
0000
0000
0000
1000
0001
1000
0000
,
0011
0000
1100
0000
1000
1000
0001
0000
,
0001
1000
0001
0001
0100
0110
0000
0000
,
1000
1000
0010
0100
0010
0100
0010
0100
,
0001
0000
0010
0000
0100
0000
1000
0000
0001
0000
0000
0000
0001
1000
0001
0000
,
2200
0000
0000
3300
,
1001
0000
1000
0010
1000
0000
0010
0000
,
1000
0001
0010
0000
0001
0010
0001
0000
,
0010
0000
0001
1000
0001
1000
0100
0000
,
1000
0000
0000
0000
0100
0000
0000
0000
0110
0000
0000
0110
0000
0000
0000
0000
,
1001
0000
0000
0001
0200
0000
0000
0000
,
0301
0010
0001
0000
0010
0001
1000
0000
,
0100
0000
1000
0001
0100
0000
0001
0000
,
0100
0010
0110
1001
,
1000
0010
0100
0010
1000
0000
1000
0000
,
0001
0100
0010
0100
0001
0000
0001
0000
,
1000
0100
1000
0001
0010
0001
0000
0000
,
0220
0000
0000
0330
,
0001
0010
0100
0010
0001
0000
0001
0000
,
1000
0100
0010
0100
1000
0000
1000
0000
,
0001
0010
0001
1000
0100
1000
0001
0100
,
0220
0000
0000
0000
,
0330
0000
0000
0000
;

//---------------dance-single - ----------------
#NOTES:
     dance-single:
     :
     Challenge:
     9:
     0.516,0.709,0.348,0.139,0.417: // measure 1
0000
0000
0000
0000
,  // measure 2
0000
0000
0000
0000
,  // measure 3
0000
0000
0000
0000
,  // measure 4
0000
0000
0000
0000
,  // measure 5
0000
0000
0000
0000
,  // measure 6
0101
0000
0000
0000
1001
0000
0000
1000
0100
0000
0000
1000
0100
0000
0000
0000
,  // measure 7
1010
0000
0000
0000
1001
0000
0000
0001
0010
0000
0000
0001
0010
0000
0000
0000
,  // measure 8
0101
0000
0000
0000
1001
0000
0000
1000
0100
0000
1000
0000
0001
0000
0100
0000
,  // measure 9
0220
0000
0000
0330
,  // measure 10
1001
0000
0000
1000
0000
0000
0010
0000
1000
0000
0100
0000
1000
0000
0001
0000
,  // measure 11
0001
0000
0000
0001
0000
0000
0100
0000
0001
0000
0010
0000
0001
0000
1000
0000
,  // measure 12
1000
0000
0000
1000
0000
0000
0010
0000
1000
0000
0100
0000
1000
0000
0001
0000
,  // measure 13
0001
0010
0100
1000
0001
0010
1000
0100
,  // measure 14
0110
0220
0000
0000
0000
0000
0330
0000
0110
0000
0001
0000
1000
0000
0100
0000
,  // measure 15
0010
0000
0001
0000
0000
1000
0000
0000
0001
0000
0010
0000
1000
0000
0010
0000
,  // measure 16
0001
1000
0100
0000
0110
1000
0001
0010
,  // measure 17
0100
0000
1000
0000
0001
0000
0001
0000
0100
0010
0100
0010
0000
0000
1000
0010
,  // measure 18
0000
1000
0001
0000
0010
0000
0000
0000
0110
0000
1000
0000
0001
0000
0010
0000
,  // measure 19
0100
0000
1000
0000
0000
0001
0000
0000
1000
0000
0100
0000
0001
0000
0100
0000
,  // measure 20
1000
0001
0010
0000
0110
0001
1000
0100
,  // measure 21
0010
0000
0001
0000
1000
0000
1000
0000
0010
0100
0010
0100
0000
0000
0001
0100
,  // measure 22
0000
0001
1000
0000
0010
0000
0110
0000
1001
0000
0000
0000
1000
0000
0000
0000
,  // measure 23
1000
0010
0100
0001
0001
0000
0001
0000
,  // measure 24
0001
0100
0010
1000
1001
0000
1000
0000
,  // measure 25
1000
0010
0100
0001
0001
0010
0100
1000
,  // measure 26
0001
1000
0010
0100
0220
0000
0000
0330
,  // measure 27
0100
0001
0010
0100
1000
0001
0010
0100
2000
0000
0000
0000
3001
1000
0100
1000
,  // measure 28
0001
0010
0100
0000
1000
0000
1000
0000
1100
0000
0101
0000
0000
0101
0000
0000
,  // measure 29
1000
0010
1000
0010
0100
0001
0100
0001
0100
0001
0010
0100
1000
0001
0010
0001
,  // measure 30
1000
0100
0010
0000
0001
0000
0001
0000
0011
0000
0000
0000
0010
1000
0001
1000
,  // measure 31
0010
1000
0100
0010
0001
1000
0100
0010
0002
0000
0000
0000
1003
0001
0010
0001
,  // measure 32
1000
0100
0010
0100
0010
0001
0010
0001
0010
0000
1010
0000
0000
1010
0000
0000
,  // measure 33
0001
0100
0001
0100
0010
1000
0010
1000
0010
1000
0100
0010
0001
1000
0100
1000
,  // measure 34
0001
0010
0100
0010
0100
1000
0100
1000
0200
0000
0000
0000
1300
0001
0100
0010
,  // measure 35
0220
0000
0000
0000
0000
0330
0000
0101
,  // measure 36
1001
0000
0010
1000
0010
1000
0100
1000
,  // measure 37
0001
0010
2000
0000
0000
3100
0002
0000
,  // measure 38
1003
0000
0100
0001
0100
0001
0010
0001
,  // measure 39
1000
0000
0100
0000
0010
0000
0001
0000
0101
0000
0000
0101
0000
0000
1100
0000
,  // measure 40
1001
0000
0100
0001
2000
0000
0001
0000
,  // measure 41
3001
0100
0010
0000
1000
0100
0010
0001
,  // measure 42
0100
0000
0001
0000
1000
0000
0100
0000
0001
0000
0000
1001
0000
0000
0000
0000
,  // measure 43
1000
0100
1000
0100
0010
0001
0010
0000
0000
1001
0000
0000
,  // measure 44
0001
0000
1000
0100
1000
0000
0010
1000
0000
0001
0000
1000
0010
0000
0000
0000
,  // measure 45
1000
0000
0001
0010
0001
0000
0100
0001
0000
1000
0000
0001
0100
0000
0000
0000
,  // measure 46
0001
0000
1000
0100
1000
0100
0000
0000
1000
0001
1000
0001
0000
0000
0100
0000
,  // measure 47
0001
0000
1001
0000
0000
0011
0000
0000
1010
0000
0000
0110
0000
0000
1001
0000
,  // measure 48
1001
0000
0010
1000
0010
0000
1000
0100
0000
1000
0000
0001
0010
0000
0000
0000
,  // measure 49
0001
0000
0100
0001
0100
0000
0001
0010
0000
0001
0000
1000
0100
0000
0000
0000
,  // measure 50
1000
0010
1000
0001
0100
0001
0100
0000
0010
0100
0000
0010
0100
0000
0001
0000
,  // measure 51
0022
0000
0000
0000
,  // measure 52
0033
0000
0000
0000
;

//---------------dance-single - ----------------
#NOTES:
     dance-single:
     :
     Beginner:
     1:
     0.092,0.130,0.087,0.000,0.000:
0000
0000
0000
0000
,
0000
0000
0000
0000
,
0000
0000
0000
0000
,
0000
0000
0000
0000
,
0000
0000
0000
0000
,
1000
0000
0000
0000
,
1000
0000
0000
0000
,
0001
0000
0000
0000
,
1001
0000
0000
0000
,
1001
0000
0000
0000
,
0010
0000
0000
0000
,
0100
0000
0000
0000
,
0010
0000
0010
0000
,
0110
0000
1000
0000
,
0000
0000
0001
0000
,
0000
0000
1000
0000
,
0000
0000
0100
0000
,
0000
0000
0110
0000
,
0000
0000
0001
0000
,
0000
0000
1000
0000
,
0000
0000
0010
0000
,
0000
0000
0110
0000
,
0000
0000
1000
0000
,
0000
0000
0001
0000
,
0000
0000
1000
0000
,
0000
0000
1001
0000
,
0001
0000
0001
0000
,
1000
0000
1000
0000
,
0010
0000
0010
0000
,
0100
0000
0100
0000
,
1001
0000
0001
0000
,
1000
0000
1000
0000
,
0100
0000
0100
0000
,
0010
0000
0010
0000
,
0001
0000
0000
0000
,
0001
0000
0000
0000
,
1000
0000
0000
0000
,
0001
0000
0000
0000
,
1000
0000
1001
0000
,
1000
0000
0010
0000
,
0100
0000
0010
0000
,
1000
0000
0000
0000
,
1001
0000
0000
0000
,
0001
0000
0100
0000
,
0010
0000
0100
0000
,
0010
0000
0100
0000
,
0001
0000
0000
0000
,
1000
0000
0010
0000
,
0100
0000
0010
0000
,
0100
0000
0000
0000
,
0110
0000
0000
0000
;

//---------------dance-single - ----------------
#NOTES:
     dance-single:
     :
     Hard:
     8:
     0.428,0.465,0.313,0.200,0.143:
0000
0000
0000
0000
,
0000
0000
0000
0000
,
0000
0000
0000
0000
,
0000
0000
0000
0000
,
0000
0000
0000
0000
,
1000
0001
0100
0001
0010
1000
0010
0001
,
1000
0001
0010
0001
0100
1000
0100
0001
,
0010
0100
0010
0001
1000
0100
0001
0010
,
0220
0000
0000
0330
,
1001
0000
0000
0001
0000
0000
0001
0000
0010
0000
0001
0000
1000
0000
0001
0000
,
1001
0000
0000
1000
0000
0000
1000
0000
0100
0000
1000
0000
0100
0000
1000
0000
,
0001
0100
0001
0010
0100
1000
0100
0010
,
0001
0001
1000
1000
0001
0010
0100
1000
,
0010
0220
0000
0000
0000
0000
0330
0000
0110
0000
0000
0000
0101
0000
0000
0000
,
1001
0001
0200
0001
,
1000
0300
0110
1010
,
1001
0000
0000
0000
1000
0000
0000
0000
0010
0000
0100
0000
0010
0000
1000
0001
,
0000
1000
0001
0100
0110
0000
0101
0000
,
1001
1000
0020
1000
,
0001
0030
0110
1010
,
1001
0000
0000
0000
0001
0000
0000
0000
0100
0000
0010
0000
0100
0000
0001
1000
,
0000
0001
1000
0010
0120
0000
0000
0000
,
0100
0130
2001
0000
,
0001
3001
0210
0000
,
0010
0000
0310
0000
0100
0001
0010
0001
,
1000
0100
0010
0001
2002
0000
0000
3003
,
1010
0010
0011
0100
2000
0000
3001
0010
,
0100
0010
0100
0000
0010
0000
0001
0000
0001
0000
0110
0000
0000
0110
0000
0000
,
1000
0100
1000
0001
0010
0100
1000
0010
,
0100
0010
0100
0000
0001
0000
0001
0000
2000
0000
0000
0000
3001
0100
0001
0000
,
0011
0010
1010
0100
0002
0000
1003
0100
,
0010
0100
0010
0000
0100
0000
1000
0000
1000
0000
0110
0000
0000
0110
0000
0000
,
0001
0010
0001
1000
0100
0010
0001
0100
,
0010
0100
0010
0100
0001
0000
0010
0000
0100
0000
1000
0000
0010
1000
0010
0000
,
0220
0000
0000
0000
0000
0330
0000
1000
,
0001
0000
0100
0001
1000
0002
0000
1000
,
1003
0010
0020
0000
0000
1030
0002
0000
,
0000
0000
1003
0100
0010
0100
1000
0001
,
0010
0000
0000
0000
0001
0000
0010
0000
0001
0000
0000
0001
0000
0000
0011
0000
,
1000
0000
0010
1000
0002
0000
0000
1003
,
0100
2000
0000
0000
3001
0010
0100
0010
,
0001
0000
0000
0000
0100
0000
0010
0000
1000
0000
0000
1001
0000
0000
0000
0000
,
0010
0100
0010
0100
0010
0100
0010
0000
0000
1001
0000
0000
,
1000
0000
0001
0000
0100
0000
0001
1000
0000
0100
0000
1000
0001
0000
0000
0000
,
0100
0001
0100
0001
0100
1000
0010
0001
,
1000
0000
0010
0100
0010
0000
0000
0000
0100
0010
0100
0000
0001
0000
1000
0000
,
0001
0000
1100
0000
0000
1000
0000
0000
0011
0000
0000
0001
0000
0000
1100
0000
,
0001
0000
1000
0000
0010
0000
1000
0001
0000
0010
0000
0001
1000
0000
0000
0000
,
0010
1000
0010
1000
0001
0010
1000
0100
,
0001
1000
0001
0000
1000
0001
1000
0000
0001
0100
0000
0000
0001
0000
1000
0000
,
2020
0000
0000
0000
,
3030
0000
0000
0000
;
