#TITLE:前向きロケット団!;
#SUBTITLE:(TV Edit);
#ARTIST:ロケット団;
#TITLETRANSLIT:Maemuki Roketto-dan!;
#SUBTITLETRANSLIT:;
#ARTISTTRANSLIT:Roketto-dan;
#CREDIT:DMAxel;
#BANNER:Maemuki Roketto-dan! (TV Edit).png;
#BACKGROUND:Maemuki Roketto-dan! (TV Edit)-bg.png;
#LYRICSPATH:Maemuki Roketto-dan! (TV Size).lrc;
#CDTITLE:DMAxel Original Simfile.png;
#MUSIC:Maemuki Roketto-dan! (TV Edit).mp3;
#OFFSET:1.794;
#SAMPLESTART:51.291;
#SAMPLELENGTH:12.000;
#SELECTABLE:YES;
#BPMS:0.000=95.000,12.000=190.000,188.000=95.000,196.000=190.000;
#STOPS:;
#BGCHANGES:2.554=Maemuki Roketto-dan! (TV Edit).AVI=1.000=1=1=0,
99999=-nosongbg-=1.000=0=0=0 // don't automatically add -songbackground-
;

//---------------dance-single - ----------------
#NOTES:
     dance-single:
     :
     Challenge:
     8:
     0.622,0.713,0.573,0.085,0.097: // measure 1
0000
0000
0000
0000
,  // measure 2
0000
0000
0000
0000
,  // measure 3
0000
0000
0000
0000
,  // measure 4
0010
0000
1000
0010
0100
0001
0100
0010
,  // measure 5
0100
0001
1000
0100
0010
0001
0000
1001
,  // measure 6
0000
0100
0000
0010
0100
0001
0100
0000
,  // measure 7
0001
0001
0101
0000
0000
0010
1010
0000
,  // measure 8
0000
0001
0000
0100
0010
0100
0001
0100
,  // measure 9
0010
0100
0001
0010
0100
1000
0000
0000
,  // measure 10
0001
0010
0100
1000
0100
0010
0000
0001
,  // measure 11
0100
0010
0110
0000
1001
0000
0000
0000
,  // measure 12
0100
0000
0001
0000
0010
0100
1000
0000
,  // measure 13
0100
1000
0010
0000
0100
0000
0010
0000
,  // measure 14
1000
0100
0010
0000
0001
0010
0100
0000
,  // measure 15
1000
0010
0100
0001
,  // measure 16
1001
0000
0010
0001
0100
0000
0010
1000
,  // measure 17
0100
0000
1000
0100
0010
0000
1001
0000
,  // measure 18
0001
0000
0010
0000
0100
0000
1000
0010
,  // measure 19
0100
0010
0110
0000
1001
0000
0000
0000
,  // measure 20
0100
1000
0000
0010
0000
0001
0000
0100
,  // measure 21
0010
1000
0000
0010
0100
0001
0000
0010
,  // measure 22
0001
0100
0000
0001
0000
0100
0000
1000
,  // measure 23
0010
0100
0110
0000
1001
0000
0000
0000
,  // measure 24
0001
0100
0010
1000
0010
0100
0001
0100
,  // measure 25
1000
0100
0001
0100
1000
0000
0010
0000
,  // measure 26
1000
0100
0001
0000
0100
0010
0100
0000
,  // measure 27
0001
0010
1000
0000
0010
0000
1001
0000
,  // measure 28
0001
0100
1000
0000
0010
0100
0010
0000
,  // measure 29
1000
0010
0001
0000
0100
0000
1001
0000
,  // measure 30
0010
0000
0011
0000
1001
0000
0100
0010
,  // measure 31
1000
0010
0110
0000
1001
0000
0000
0000
,  // measure 32
1002
0010
0100
0013
,  // measure 33
2001
0100
0010
3100
,  // measure 34
1020
0001
1000
0031
,  // measure 35
0201
0000
1000
0000
0301
1000
0001
0000
,  // measure 36
2010
0100
0001
3100
,  // measure 37
0102
0010
1000
0013
,  // measure 38
0201
1000
0001
1300
,  // measure 39
0001
1000
0010
0100
0110
0000
0000
0000
,  // measure 40
1001
0000
0010
0100
1000
0000
0010
0000
,  // measure 41
0101
0010
1100
0011
,  // measure 42
1001
0000
0100
0000
0001
0010
0100
0000
,  // measure 43
0010
0001
0101
0000
0000
1000
1010
0000
,  // measure 44
1001
0010
1000
0100
,  // measure 45
0011
0100
1010
1010
,  // measure 46
0100
1000
1100
0000
0001
0010
0011
0000
,  // measure 47
0000
0100
0110
0000
1001
0000
0000
0000
,  // measure 48
0001
0100
0000
0010
0000
1000
0010
0100
0000
0010
0000
0100
0000
0001
0100
0010
,  // measure 49
0000
0100
0000
0010
0000
1000
0010
0100
0010
0100
0010
1000
0001
1000
0001
1000
,  // measure 50
0000
0001
0000
0100
0010
0100
0001
0100
,  // measure 51
0010
1000
0100
0010
0001
0000
1000
1001
,  // measure 52
0000
0010
0000
1000
0010
0100
0010
0000
,  // measure 53
0100
0010
1010
0000
0000
0100
0101
0000
,  // measure 54
0000
1000
0000
0010
0100
0010
1000
0010
,  // measure 55
0100
0010
1000
0100
0010
0001
0000
0000
,  // measure 56
1000
0010
0100
0001
0010
0100
0000
1000
,  // measure 57
0010
0100
0110
0000
1001
0000
0000
0000
,  // measure 58
0001
0010
0100
1000
0100
0010
0000
0001
,  // measure 59
0100
0010
0110
0000
1001
0000
0000
0000
;

//---------------dance-single - ----------------
#NOTES:
     dance-single:
     :
     Hard:
     7:
     0.514,0.535,0.366,0.073,0.000: // measure 1
0000
0000
0000
0000
,  // measure 2
0000
0000
0000
0000
,  // measure 3
0000
0000
0000
0000
,  // measure 4
0001
0000
1000
0001
0010
0001
0100
0001
,  // measure 5
0010
0001
0100
0010
1000
0000
0000
0000
,  // measure 6
0000
0100
0000
1000
0010
0100
0010
0000
,  // measure 7
1000
1000
1001
0000
0000
0010
0110
0000
,  // measure 8
0000
0001
0000
1000
0100
1000
0010
1000
,  // measure 9
0100
1000
0010
1000
0100
0010
0000
0000
,  // measure 10
0001
0001
0010
0100
1000
1000
0000
0010
,  // measure 11
0100
0001
1001
0000
1001
0000
0000
0000
,  // measure 12
1000
0010
1000
0010
,  // measure 13
1000
0010
1000
0010
,  // measure 14
0100
0001
0100
0001
,  // measure 15
0100
0001
0100
0001
,  // measure 16
0010
0001
0010
0001
,  // measure 17
1000
0100
1000
1001
,  // measure 18
0001
1000
0010
0100
,  // measure 19
0010
0010
0110
0000
1001
0000
0000
0000
,  // measure 20
0002
0000
0000
0000
,  // measure 21
0203
0000
0320
0000
,  // measure 22
2030
0000
3002
0000
,  // measure 23
0103
0100
0110
0000
1001
0000
0000
0000
,  // measure 24
1000
0100
0010
0001
,  // measure 25
0010
0100
1000
0010
,  // measure 26
0100
0010
1000
0010
,  // measure 27
0100
0001
0100
0001
,  // measure 28
0010
0100
1000
0100
,  // measure 29
0010
0001
1000
1001
,  // measure 30
0010
0100
0010
1000
,  // measure 31
0001
0001
1001
0000
1001
0000
0000
0000
,  // measure 32
1001
0010
0001
0100
,  // measure 33
1001
0010
1000
0100
,  // measure 34
1001
0100
0001
0010
,  // measure 35
1001
0000
0010
0000
0001
0001
1001
0000
,  // measure 36
0001
1000
0010
0100
,  // measure 37
0010
1000
0100
0010
,  // measure 38
0002
0100
0000
0103
,  // measure 39
0001
0010
0100
1000
1001
0000
0000
0000
,  // measure 40
1001
0000
0010
0001
0010
0000
0001
0000
,  // measure 41
0010
0000
0100
0000
1000
0100
0001
0000
,  // measure 42
0100
0010
1000
0001
,  // measure 43
0010
0010
0011
0000
0100
0100
1100
0000
,  // measure 44
0001
0000
0010
0001
0010
0000
0001
0000
,  // measure 45
0100
0000
0010
0000
1000
0001
1000
0000
,  // measure 46
0001
0100
0010
0000
0100
0010
0000
1000
,  // measure 47
0100
1000
1010
0000
0101
0000
0000
0000
,  // measure 48
1000
0100
0010
0001
,  // measure 49
0100
0000
0010
1000
0100
0010
0001
0010
,  // measure 50
0000
0001
0000
0010
0001
0100
0001
0010
,  // measure 51
0001
1000
0100
0010
0001
0000
0000
1001
,  // measure 52
0000
1000
0000
0001
0100
0010
0100
0000
,  // measure 53
0001
0001
0101
0000
0010
0010
1010
0000
,  // measure 54
0000
0100
0000
0010
0100
0010
1000
0010
,  // measure 55
0100
0010
1000
0100
0010
0001
0000
0000
,  // measure 56
1000
1000
0100
0010
0001
0001
0000
0100
,  // measure 57
0010
1000
1100
0000
1001
0000
0000
0000
,  // measure 58
0001
0001
0010
0100
1000
1000
0000
0100
,  // measure 59
0010
0001
0011
0000
1001
0000
0000
0000
;

//---------------dance-single - ----------------
#NOTES:
     dance-single:
     :
     Medium:
     6:
     0.432,0.499,0.244,0.146,0.000: // measure 1
0000
0000
0000
0000
,  // measure 2
0000
0000
0000
0000
,  // measure 3
0000
0000
0000
0000
,  // measure 4
1000
0100
1000
0100
,  // measure 5
0010
0000
0001
0000
0010
0000
0000
1001
,  // measure 6
0000
0001
0000
0010
0001
0000
0100
0000
,  // measure 7
0001
1001
0000
0000
0000
1000
1001
0000
,  // measure 8
0000
0010
0000
0100
0010
0000
1000
0000
,  // measure 9
0010
0100
0010
1000
0001
0000
0000
0000
,  // measure 10
1000
0100
0010
0000
0100
1000
0000
0010
,  // measure 11
0100
0001
0001
0000
1001
0000
0000
0000
,  // measure 12
1000
0100
1000
0100
,  // measure 13
1000
0001
1000
0001
,  // measure 14
0010
0001
0010
0001
,  // measure 15
0100
0010
0100
0010
,  // measure 16
1000
0010
1000
0010
,  // measure 17
0100
0001
0100
1001
,  // measure 18
0010
0100
0010
0100
,  // measure 19
0010
1000
1000
0000
1001
0000
0000
0000
,  // measure 20
0200
0000
0000
0000
,  // measure 21
0320
0000
2030
0000
,  // measure 22
3002
0000
0203
0000
,  // measure 23
0310
1000
1000
0000
1001
0000
0000
0000
,  // measure 24
0001
0010
0001
0010
,  // measure 25
0001
0100
0001
0100
,  // measure 26
0010
0100
0010
1000
,  // measure 27
0010
1000
0010
1000
,  // measure 28
0001
0100
0001
0100
,  // measure 29
0010
0100
0010
1001
,  // measure 30
0100
0010
1000
0010
,  // measure 31
0100
0001
0001
0000
1001
0000
0000
0000
,  // measure 32
0020
0000
0000
0000
,  // measure 33
0230
0000
0000
0000
,  // measure 34
0302
0000
0000
0000
,  // measure 35
2003
0000
0000
0000
0000
0010
3010
0000
,  // measure 36
0200
0000
0000
0000
,  // measure 37
0302
0000
2003
0000
,  // measure 38
3001
0010
0100
1000
,  // measure 39
0010
0100
0001
0001
1001
0000
0000
0000
,  // measure 40
0100
0000
1000
0010
,  // measure 41
0100
0010
0100
0100
,  // measure 42
0001
0010
0100
1000
,  // measure 43
0010
0100
0110
0000
1000
0001
1001
0000
,  // measure 44
0100
0000
0001
0010
,  // measure 45
0001
0100
0010
0010
,  // measure 46
1000
1001
0010
0110
,  // measure 47
0000
1000
1000
0000
1001
0000
0000
0000
,  // measure 48
0010
0100
0010
0100
,  // measure 49
0001
1000
0001
0010
,  // measure 50
0000
0001
0000
0100
0010
0000
1000
0010
,  // measure 51
0100
0000
0010
0100
0001
0000
0000
1001
,  // measure 52
0000
0100
0000
0001
0100
0010
0100
0000
,  // measure 53
0001
1000
1001
0000
0010
0100
0110
0000
,  // measure 54
0000
1000
0000
0010
0100
0000
0001
0100
,  // measure 55
0010
0000
0100
0010
1000
0000
0010
0000
,  // measure 56
1000
0010
0100
0000
0001
0010
0000
0001
,  // measure 57
0100
0010
0010
0000
1001
0000
0000
0000
,  // measure 58
0001
0100
0010
0000
1000
0100
0000
1000
,  // measure 59
0010
0100
0100
0000
1001
0000
0000
0000
;

//---------------dance-single - ----------------
#NOTES:
     dance-single:
     :
     Easy:
     4:
     0.327,0.392,0.292,0.158,0.000: // measure 1
0000
0000
0000
0000
,  // measure 2
0000
0000
0000
0000
,  // measure 3
0000
0000
0000
0000
,  // measure 4
0001
1000
0010
0010
,  // measure 5
0100
0100
0100
0000
,  // measure 6
0001
1000
0010
0010
,  // measure 7
0100
0101
0000
1010
,  // measure 8
0000
0100
0010
0100
,  // measure 9
0010
1000
0010
0000
,  // measure 10
1000
0100
0010
0001
,  // measure 11
1000
1001
1001
0000
,  // measure 12
0000
0010
0000
0100
,  // measure 13
0000
0001
0000
0010
,  // measure 14
0000
0001
0000
0100
,  // measure 15
0000
0010
0000
0100
,  // measure 16
0000
0010
0000
1000
,  // measure 17
0000
0100
0000
1001
,  // measure 18
0000
0001
0000
0100
,  // measure 19
0000
0110
0000
0000
1001
0000
0000
0000
,  // measure 20
0020
0000
0000
0000
,  // measure 21
0032
0000
0203
0000
,  // measure 22
0320
0000
0230
0000
,  // measure 23
0000
0310
0000
0000
1001
0000
0000
0000
,  // measure 24
1000
0100
1000
0100
,  // measure 25
0010
0001
0010
0000
,  // measure 26
0001
0100
0001
0010
,  // measure 27
0100
0000
1000
0000
,  // measure 28
0010
0100
0001
0000
,  // measure 29
0100
0010
1000
1001
,  // measure 30
0010
0100
0010
1000
,  // measure 31
0000
0110
0000
0000
1001
0000
0000
0000
,  // measure 32
0002
0000
0000
0000
,  // measure 33
0023
0000
0000
0000
,  // measure 34
0230
0000
0000
0000
,  // measure 35
2300
0000
0000
0000
,  // measure 36
3020
0000
0000
0000
,  // measure 37
0230
0000
0000
0000
,  // measure 38
0302
0000
2003
0000
,  // measure 39
3010
0100
1001
0000
,  // measure 40
0100
0001
0100
0001
,  // measure 41
0010
0010
1001
1001
,  // measure 42
0010
1000
0010
0100
,  // measure 43
0100
1001
0000
1001
,  // measure 44
0010
0001
0010
0001
,  // measure 45
0100
0010
0100
0100
,  // measure 46
0001
0010
0100
1000
,  // measure 47
0010
0110
1001
0000
,  // measure 48
0000
0000
0000
0000
,  // measure 49
0000
0000
0000
0000
,  // measure 50
0001
1000
1000
0010
,  // measure 51
0010
0100
0100
0000
,  // measure 52
0001
0100
0010
0010
,  // measure 53
0000
1100
0000
1001
,  // measure 54
0010
0001
1000
1000
,  // measure 55
0010
0010
0100
0000
,  // measure 56
0001
0010
0100
1000
,  // measure 57
0100
0011
1001
0000
,  // measure 58
1000
0100
0010
0001
,  // measure 59
0010
1100
1001
0000
;

//---------------dance-single - ----------------
#NOTES:
     dance-single:
     :
     Beginner:
     2:
     0.162,0.214,0.134,0.000,0.000: // measure 1
0000
0000
0000
0000
,  // measure 2
0000
0000
0000
0000
,  // measure 3
0000
0000
0000
0000
,  // measure 4
0000
1000
0000
1000
,  // measure 5
0000
1000
0000
0000
,  // measure 6
0000
0001
0000
0001
,  // measure 7
0000
0001
0000
0000
,  // measure 8
0000
0100
0000
0100
,  // measure 9
0000
0100
0000
0000
,  // measure 10
0010
0000
0010
0000
,  // measure 11
0010
0000
1001
0000
,  // measure 12
0000
0010
0000
0001
,  // measure 13
0000
0010
0000
0001
,  // measure 14
0000
0010
0000
0000
,  // measure 15
0000
0000
0000
0000
,  // measure 16
0000
0100
0000
1000
,  // measure 17
0000
0100
0000
1001
,  // measure 18
0000
0100
0000
0010
,  // measure 19
0000
0000
1001
0000
,  // measure 20
0001
0000
0000
0000
,  // measure 21
1000
0000
0000
0000
,  // measure 22
0001
0000
0000
0000
,  // measure 23
0100
0000
1001
0000
,  // measure 24
0000
0010
0000
0100
,  // measure 25
0000
0010
0000
0000
,  // measure 26
0000
1000
0000
0001
,  // measure 27
0000
1000
0000
0000
,  // measure 28
0000
0001
0000
0010
,  // measure 29
0000
0001
0000
1001
,  // measure 30
0000
0100
0000
0010
,  // measure 31
0000
0000
1001
0000
,  // measure 32
0010
0000
0000
0000
,  // measure 33
0010
0000
0000
0000
,  // measure 34
0010
0000
0000
0000
,  // measure 35
0100
0000
0000
0000
,  // measure 36
0100
0000
0000
0000
,  // measure 37
0100
0000
0000
0000
,  // measure 38
0001
0000
0000
0000
,  // measure 39
1000
0000
1001
0000
,  // measure 40
0001
0000
0010
0000
,  // measure 41
0001
0000
0000
0000
,  // measure 42
0100
0000
0010
0000
,  // measure 43
0100
0000
0000
0000
,  // measure 44
0010
0000
1000
0000
,  // measure 45
0010
0000
0000
0000
,  // measure 46
1000
0000
0001
0000
,  // measure 47
1000
0000
1001
0000
,  // measure 48
0010
0000
0000
0000
,  // measure 49
0000
0000
0000
0000
,  // measure 50
0000
1000
0000
0001
,  // measure 51
0000
1000
0000
0000
,  // measure 52
0000
0010
0000
0100
,  // measure 53
0000
0010
0000
1001
,  // measure 54
0000
1000
0000
0001
,  // measure 55
0000
1000
0000
0000
,  // measure 56
0000
0100
0000
1000
,  // measure 57
0000
0000
1001
0000
,  // measure 58
0000
0010
0000
0001
,  // measure 59
0000
0000
1001
0000
;
