#TITLE:MY GIFTS;
#SUBTITLE:;
#ARTIST:D-crew;
#TITLETRANSLIT:;
#SUBTITLETRANSLIT:;
#ARTISTTRANSLIT:;
#CREDIT:DMAxel;
#BANNER:MY GIFTS.png;
#BACKGROUND:MY GIFTS-bg.png;
#LYRICSPATH:;
#CDTITLE:pop'n music.png;
#MUSIC:MY GIFTS.mp3;
#OFFSET:-11.545;
#SAMPLESTART:21.918;
#SAMPLELENGTH:12.000;
#SELECTABLE:YES;
#BPMS:0.000=185.000;
#STOPS:;
#BGCHANGES:;

//---------------dance-single - ----------------
#NOTES:
     dance-single:
     :
     Easy:
     4:
     0.361,0.373,0.162,0.331,0.000:
0020
0000
0030
1001
,
0200
0000
0300
1001
,
0100
0010
0001
1000
,
0001
0010
0100
1000
,
0020
0000
0030
1001
,
0200
0000
0300
1001
,
0002
0000
0203
0000
,
0320
0000
1030
0000
,
1002
0000
1000
0000
,
1003
0100
0010
0001
,
0200
0000
0320
0000
,
0130
0001
1000
0001
,
2001
0000
0001
0000
,
3001
0010
0100
1000
,
0020
0000
0230
0000
,
0310
1000
0001
1000
,
0002
0000
0203
0000
,
0301
1000
0100
1000
,
0020
0000
2030
0000
,
3010
0100
0001
1000
,
0200
0000
2300
0000
,
3001
0100
0010
0100
,
0002
0000
0023
0000
,
0031
0100
0010
0100
,
1001
1000
1000
1000
,
0001
0010
0100
1000
,
2002
0000
0000
3003
,
0010
1000
0010
1000
,
0001
0000
0010
0000
,
0011
0000
1001
0000
,
0100
0001
0100
0001
,
1000
0000
0100
0000
,
1000
0001
0010
0000
,
0001
0010
0100
1000
,
2002
0000
0000
3003
,
0100
0001
0100
0001
,
1000
0000
0100
0000
,
1100
0000
1001
0000
,
0010
0001
0010
0001
,
1000
0000
0010
0000
,
1000
0010
1000
0001
,
0010
0100
1000
0010
,
1000
0010
1000
0000
,
0010
1000
0100
0010
,
0001
1000
0001
0000
,
0100
0001
0010
0100
,
2000
0000
0000
0000
,
3002
0000
0203
0000
,
0302
0000
2003
0000
,
3200
0000
2300
0000
,
3002
0000
0000
0000
,
2003
0000
3020
0000
,
2030
0000
3002
0000
,
0023
0000
0032
0000
,
1003
0100
0010
0001
,
1001
1000
1000
1000
,
0001
0010
0100
1000
,
1001
0001
0001
0001
,
1000
0010
1000
0001
,
0010
0001
1000
0100
,
0010
0001
0100
0001
,
0100
1000
0100
0001
,
1000
0100
0010
0001
,
1000
0100
0001
0100
,
2000
0000
0000
0000
,
3001
0000
0100
0000
,
0100
0000
0100
0000
,
0100
0000
0001
0000
,
2000
0000
0000
0000
,
3001
0000
0001
0000
,
0100
0010
0100
0010
,
0100
0110
0000
0110
,
0001
0010
0100
1000
,
0100
0001
0100
1000
,
0001
1000
0100
0010
,
0001
1000
1001
0000
,
0010
1000
0100
0000
,
1000
0100
0001
0100
,
1000
0001
0010
0100
,
1000
0001
0100
0010
,
1000
0001
0100
0000
,
0001
0100
1000
0100
,
0010
1001
0010
1001
,
1000
0000
0100
0000
0010
0000
0001
1000
;

//---------------dance-single - ----------------
#NOTES:
     dance-single:
     :
     Beginner:
     2:
     0.139,0.203,0.048,0.000,0.000:
0001
0000
0000
0000
,
0000
0000
0001
0000
,
1000
0000
0001
0000
,
1000
0000
0001
0000
,
1000
0000
0000
0000
,
0000
0000
1000
0000
,
0001
0000
1000
0000
,
0001
0000
1000
0000
,
0010
0000
0000
0000
,
0000
0000
0000
0000
,
0010
0000
0100
0000
,
0010
0000
0100
0000
,
0010
0000
0000
0000
,
0100
0000
0000
0000
,
0100
0000
0010
0000
,
0100
0000
0010
0000
,
0100
0000
0000
0000
,
0001
0000
0000
0000
,
1000
0000
0000
0000
,
0001
0000
0000
0000
,
1000
0000
0000
0000
,
1000
0000
0000
0000
,
0001
0000
0000
0000
,
0001
0000
0000
0000
,
0100
0000
0000
0000
,
0110
0000
0000
0000
,
1001
0000
0000
0000
,
0001
0000
0000
0000
,
1000
0000
0000
0000
,
0001
0000
1000
0000
,
0001
0000
0000
0000
,
1000
0000
0001
0000
,
1000
0000
0000
0000
,
0010
0000
0000
0000
,
1001
0000
0000
0000
,
1000
0000
0001
0000
,
1000
0000
0000
0000
,
0001
0000
1000
0000
,
0001
0000
0000
0000
,
0001
0000
0000
0000
,
1000
0000
0000
0000
,
1000
0000
0000
0000
,
0010
0000
0000
0000
,
0010
0000
0000
0000
,
0100
0000
0000
0000
,
0000
0000
0000
0000
,
1001
0000
0000
0000
,
0001
0000
0000
0000
,
1000
0000
0000
0000
,
0001
0000
0000
0000
,
1000
0000
0000
0000
,
0001
0000
0000
0000
,
1000
0000
0000
0000
,
0001
0000
0000
0000
,
0100
0000
0010
0000
,
0100
0000
0000
0000
,
0010
0000
0100
0000
,
0010
0000
0000
0000
,
1000
0000
0001
0000
,
1000
0000
0000
0000
,
0001
0000
1000
0000
,
0001
0000
1000
0000
,
0001
0000
0001
0000
,
1000
0000
1000
0000
,
1001
0000
0000
0000
,
0001
0000
0000
0000
,
0001
0000
0000
0000
,
0001
0000
1000
0000
,
1000
0000
0000
0000
,
1000
0000
0000
0000
,
1000
0000
0000
0000
,
0000
0000
0000
0000
,
1001
0000
0001
0000
,
1000
0000
0001
0000
,
1000
0000
0010
0000
,
0010
0000
0010
0000
,
0100
0000
0010
0000
,
0100
0000
0010
0000
,
1000
0000
1000
0000
,
0001
0000
0001
0000
,
0010
0000
0100
0000
,
0010
0000
0100
0000
,
1000
0000
0001
0000
,
1000
0000
1000
0001
;

//---------------dance-single - ----------------
#NOTES:
     dance-single:
     :
     Hard:
     9:
     0.643,0.610,0.291,0.113,0.061: // measure 1
2000
0000
0000
0001
0000
0000
3001
0000
,  // measure 2
1000
0001
0100
0010
,  // measure 3
2000
0000
0000
0001
0000
0000
3001
0000
,  // measure 4
1000
0001
0010
0100
,  // measure 5
1000
0000
0001
0100
0000
0100
0001
1000
,  // measure 6
0100
0000
0000
1000
0001
0000
0100
0000
,  // measure 7
0101
0000
0000
0010
0000
0010
1000
0100
,  // measure 8
1000
0000
1000
0001
0100
0001
0100
0001
,  // measure 9
1002
1000
1000
1000
,  // measure 10
1003
0000
0010
0100
0010
1000
0001
0100
,  // measure 11
0001
0101
1000
1100
,  // measure 12
0010
0001
0100
0000
0010
1000
0001
0000
,  // measure 13
2001
0001
0001
0001
,  // measure 14
3001
0000
0100
0010
0100
0001
1000
0100
,  // measure 15
1000
1100
0001
0101
,  // measure 16
0010
1000
0001
0000
0100
0001
1000
0100
,  // measure 17
1000
0000
1100
0000
0101
0000
0010
1000
,  // measure 18
0001
0010
0100
1000
0001
0000
0101
0000
,  // measure 19
1100
0000
0001
0010
0100
0000
0010
0001
,  // measure 20
1000
0010
0100
0001
1000
0100
0010
0000
,  // measure 21
1001
0000
1000
0100
0010
0000
0100
1000
,  // measure 22
0001
0100
0010
1000
0001
0010
0100
0000
,  // measure 23
1000
0010
1000
0010
1000
0001
0100
1000
,  // measure 24
0100
0001
0010
0100
1000
0001
0100
0000
,  // measure 25
0001
0100
0001
0100
0001
1000
0100
0001
,  // measure 26
0100
1000
0100
0010
0001
1000
0010
0000
,  // measure 27
2001
0100
0001
0100
,  // measure 28
3001
0010
0100
0000
1000
0100
0001
0000
,  // measure 29
0100
1000
0001
0000
0101
0000
1000
0000
,  // measure 30
0001
0100
1000
0000
0100
0001
1000
0000
,  // measure 31
0100
0010
0100
1000
0001
0100
0001
0000
,  // measure 32
0010
0100
0010
0001
1000
0010
1000
0001
,  // measure 33
0010
0100
0010
0000
0001
1000
0000
1000
,  // measure 34
0010
0100
0001
0010
0100
1000
0001
0000
,  // measure 35
1002
0100
1000
0100
,  // measure 36
1003
0100
0010
0000
0001
0100
1000
0000
,  // measure 37
0100
0001
1000
0000
1100
0000
0001
0000
,  // measure 38
1000
0100
0001
0000
0100
1000
0001
0000
,  // measure 39
1000
0010
0100
0001
0100
1000
0100
0001
,  // measure 40
1000
0100
0010
0100
1000
0001
0100
0000
,  // measure 41
0001
0010
0100
1000
0100
0001
0100
1000
,  // measure 42
0001
0010
0100
0010
0001
1000
0100
0000
,  // measure 43
0010
0000
0100
0000
1000
0000
0010
0000
0100
0001
0000
0000
0001
1000
0000
0000
,  // measure 44
0100
0010
0001
0100
0010
1000
0001
0100
,  // measure 45
0001
0000
0100
0000
0010
1000
0000
0000
1000
0001
0000
0000
0010
0000
0100
0000
,  // measure 46
1000
0000
0001
0000
0100
0000
0010
0000
0100
0001
0000
0000
0001
1000
0000
0000
,  // measure 47
2000
0000
0000
0001
0000
0000
3100
0000
,  // measure 48
0100
1000
0100
1000
0001
0010
0100
0000
,  // measure 49
0010
0001
0010
0001
1000
0100
0010
0001
,  // measure 50
0100
0001
0100
0001
1000
0100
0010
0001
,  // measure 51
2000
0000
0000
0100
0000
0000
3001
0000
,  // measure 52
1000
0010
0000
0010
0100
0000
0001
0010
,  // measure 53
0100
0000
1000
0000
1000
0010
0000
0100
,  // measure 54
0000
0001
0100
0001
1000
0100
0010
0000
,  // measure 55
1001
1100
0101
0101
,  // measure 56
0010
1000
0001
0010
0200
0010
0310
0000
,  // measure 57
1001
0101
1100
1100
,  // measure 58
0010
0001
1000
0100
0020
0100
0130
0000
,  // measure 59
1000
0100
0001
0000
0100
1000
0001
0100
,  // measure 60
0001
1000
0100
0010
0001
0100
0110
0000
,  // measure 61
0001
0100
1000
0000
0100
0001
1000
0000
,  // measure 62
0100
0010
0100
1000
1001
0000
1000
0010
,  // measure 63
1000
0001
0010
0100
1000
0001
0100
1000
,  // measure 64
0100
0010
0001
0100
0001
1000
0100
1000
,  // measure 65
2002
0000
0000
3003
,  // measure 66
0101
0000
1000
0000
,  // measure 67
1100
0000
0001
0000
,  // measure 68
0101
0000
1100
0000
,  // measure 69
2002
0000
0000
3003
,  // measure 70
1010
0000
0011
0000
,  // measure 71
0100
1000
0100
1000
0001
0100
0001
0100
,  // measure 72
0010
0000
1000
0000
0001
0010
0000
0000
0001
0000
1000
0000
0001
0010
0000
0000
,  // measure 73
0001
0010
1000
0000
0010
0001
1000
0010
,  // measure 74
1000
0010
1000
0001
0010
1000
0100
0010
,  // measure 75
0110
0000
1000
0100
0001
0000
0100
1000
,  // measure 76
0001
0100
0001
1000
0010
0100
0110
0000
,  // measure 77
0001
0010
0001
1000
0100
0001
0100
1000
,  // measure 78
0010
0100
0010
1000
0100
0001
0100
1000
,  // measure 79
0001
0000
0100
0000
0010
1000
0000
0000
0010
0000
1000
0000
0001
0000
0010
0000
,  // measure 80
0100
1000
0100
0001
0100
0010
0001
0000
,  // measure 81
1000
0000
0010
0000
0100
0000
0001
0000
1000
0010
0000
0000
0010
0100
0000
0000
,  // measure 82
0001
0100
1000
0100
0001
1000
0100
0010
,  // measure 83
0001
0000
0100
0000
0010
1000
0000
0000
1000
0000
0010
0000
0100
0001
0000
0000
,  // measure 84
0001
0000
0010
0000
0100
0000
1000
0000
0001
0100
0000
0000
0010
0100
0010
0000
;

//---------------dance-single - ----------------
#NOTES:
     dance-single:
     :
     Medium:
     7:
     0.524,0.508,0.226,0.234,0.000:
0200
0000
0000
0310
,
1000
0100
0010
0001
,
1000
0001
0010
0100
,
1000
0001
1000
0000
0001
0000
1001
0000
,
0020
0000
0000
0130
,
0001
0010
0100
1000
,
0001
1000
0100
0010
,
0001
1000
0001
0000
0100
0010
0100
0010
,
1001
1000
1000
1000
,
1000
0000
0001
0100
0001
0000
1000
0100
,
2000
0001
3001
0100
,
0002
0000
1000
0000
1003
0000
1000
0010
,
0100
0100
0100
0100
,
0100
0000
0001
0100
0001
0000
1000
0100
,
2000
0001
3001
0100
,
0002
0000
1000
0000
1003
0000
0001
0100
,
0020
1000
2030
0001
,
3001
0010
0100
0000
1000
0001
1000
0001
,
0200
0001
0302
1000
,
1003
0100
0010
0000
0001
1000
0001
1000
,
0020
1000
2030
0001
,
3002
0000
0100
0000
0103
0000
0100
0001
,
1000
0010
1000
0000
0001
0010
0001
0000
,
1000
0010
0100
0000
0001
0010
0100
0000
,
1000
0010
1000
0010
1000
0001
0010
0000
,
0001
0010
0100
0000
1000
0000
1000
0000
,
2001
0001
0001
0001
,
3001
0100
0001
1000
,
0100
0010
0100
1000
,
0100
1000
0001
0000
0001
1000
0001
0000
,
1000
0000
0010
0000
0100
0001
0100
0000
,
0001
0000
0100
0000
0010
1000
0010
0000
,
0100
0001
1000
0000
1000
0001
1000
0000
,
1000
0100
0010
0001
1000
0000
1001
0000
,
1002
1000
1000
1000
,
1003
0100
1000
0001
,
0010
0100
0010
0001
,
0010
0001
1000
0000
1000
0001
1000
0000
,
0010
0000
0010
1000
0001
1000
0001
0000
,
0100
0000
0100
0001
1000
0001
1000
0000
,
0100
1000
0001
0000
0001
1000
0001
0000
,
0010
0001
1000
0000
1000
0001
1000
0000
,
1010
0000
0010
0000
0010
1000
0001
0000
,
0101
0000
0100
0000
0100
0001
1000
0000
,
0010
1000
0010
0000
0010
1000
0001
0000
,
0100
0001
0100
0000
0100
0001
1000
0000
,
2002
0000
0000
3003
,
0010
0100
1000
0100
,
0010
0001
0100
0010
,
0100
0001
1000
0100
,
0020
0000
0000
0100
0000
0000
0130
0000
,
2000
0000
0000
0001
0000
0000
3001
0000
,
0200
0000
0000
0010
0000
0000
0310
0000
,
0001
0100
0001
0000
1000
0001
1000
0001
,
1000
1100
0001
0101
,
0010
1000
0001
0010
0001
0000
1001
0000
,
0001
0011
1000
1010
,
0100
0001
1000
0100
1000
0000
1001
0000
,
0010
0100
0010
0000
1000
0100
1000
0000
,
0010
0100
0001
0000
0001
1000
0001
0000
,
0100
0010
0100
0000
0001
0010
0001
0000
,
0100
0010
1000
0000
1000
0001
1000
0000
,
1001
1001
0100
0100
,
1001
1001
0010
0010
,
0220
0000
0000
0330
,
1001
0000
2000
0000
,
3100
0000
0020
0000
,
0230
0000
0302
0000
,
2000
0003
0000
0000
,
3002
0000
0203
0000
,
0301
0100
0010
1000
,
1000
0001
1000
0001
1000
0001
1000
0000
,
1100
0000
0100
0001
0100
0000
0001
0000
,
0101
0000
0100
1000
0100
0000
1000
0000
,
0100
0010
0001
0000
0110
0000
1000
0000
,
1001
0000
0001
0000
0100
0010
0100
0000
,
0011
0000
0010
1000
0010
0000
1000
0000
,
1010
0000
0010
0001
0010
0000
0001
0000
,
0010
0100
1000
0000
0110
0000
0001
0000
,
1001
0000
1000
0000
0010
0100
0010
0000
,
1000
0100
0010
0000
0001
0100
0001
0000
,
0001
0010
0100
0000
1000
0010
1000
0000
,
1000
0100
0010
0001
1000
0000
1000
0000
,
0001
0010
0100
1000
0100
0001
0100
1000
;
