#TITLE:MY FUTURE;
#SUBTITLE:;
#ARTIST:PINK PONG;
#TITLETRANSLIT:;
#SUBTITLETRANSLIT:;
#ARTISTTRANSLIT:;
#CREDIT:DMAxel;
#BANNER:MY FUTURE.png;
#BACKGROUND:MY FUTURE-bg.png;
#LYRICSPATH:;
#CDTITLE:beatmaniaIIDX.png;
#MUSIC:MY FUTURE.mp3;
#OFFSET:-2.000;
#SAMPLESTART:52.261;
#SAMPLELENGTH:12.000;
#SELECTABLE:YES;
#BPMS:0.000=148.000;
#STOPS:;
#BGCHANGES:-8.250=MY FUTURE.avi=1.000=1=1=0,
99999=-nosongbg-=1.000=0=0=0 // don't automatically add -songbackground-
;

//---------------dance-single - ----------------
#NOTES:
     dance-single:
     :
     Easy:
     3:
     0.226,0.347,0.103,0.079,0.000:
0000
0000
0000
0000
,
0000
0000
0000
0000
,
0000
0000
0000
0000
,
0001
0000
1000
0000
,
0001
0000
1000
0000
,
0001
0001
1000
1000
,
0020
0000
0000
0000
,
0130
0010
0100
0000
,
0001
1000
0001
0000
,
1000
0100
1000
0000
,
0001
1000
0001
0000
,
0010
0001
0010
0000
,
0001
1000
0001
0000
,
1000
0010
1000
0000
,
0202
0000
0000
0303
,
0001
0000
0000
0000
,
0010
0000
0000
0000
,
0100
0000
0000
0000
,
1000
0000
0000
0000
,
0100
0000
0000
0000
,
0010
0000
0000
0000
,
0001
0000
0000
0000
,
0100
0100
0010
0010
,
1001
1000
0000
0001
,
0000
1000
0000
0001
,
0000
0100
0000
0010
,
0000
0100
0000
0001
,
2200
0000
0000
3300
,
0022
0000
0000
0033
,
1000
0000
0001
0000
,
0200
0000
0000
0300
,
0010
0010
0000
0000
,
1000
1000
0000
0000
,
0100
0100
0000
0000
,
0010
0010
0000
0000
,
0001
0001
0000
0000
,
1000
1000
0000
0000
,
0001
0001
0000
0000
,
1000
1000
0001
0001
,
1001
0000
0000
0000
,
0100
0000
0000
0000
,
0100
0000
0000
0000
,
0100
0000
0000
0000
,
0001
0000
0000
0000
,
0001
0000
0000
0000
,
0001
0000
0000
0000
,
1000
0000
1000
0000
,
1000
0000
0000
0000
,
0001
0010
0100
1000
,
0100
1000
0010
0100
,
0001
0100
0001
0100
,
0010
1000
0100
1000
,
1000
0010
0100
0001
,
0010
0001
0001
0001
,
1000
0100
1000
0010
,
0200
0000
0000
0000
,
0310
0010
1000
0100
,
1000
1000
0001
0010
,
1001
0010
0010
0001
,
1001
0100
0010
1000
,
1001
0100
1000
0010
,
1001
0100
0010
1000
,
1001
0001
1000
1000
,
0002
0000
0000
0000
,
0103
0010
0100
0010
,
0010
1000
0100
1000
,
0001
0001
0100
0010
,
1000
1000
0010
0100
,
0001
0001
0010
0001
,
1000
1000
0100
0100
,
0010
0010
0001
0001
,
1000
0100
0010
0001
,
1010
0000
0101
0000
,
1001
0000
0000
0000
;

//---------------dance-single - ----------------
#NOTES:
     dance-single:
     :
     Hard:
     8:
     0.463,0.520,0.206,0.174,0.360:
0000
0000
0000
0000
,
0000
0000
0000
0000
,
0000
0000
0000
0000
,
1010
0000
1001
0000
,
0101
0000
1001
0000
,
0110
0110
0110
0110
,
2002
0000
0000
3003
,
0010
0000
0000
0010
0000
0000
0010
0000
0000
1000
0000
0000
0001
0000
1000
0000
,
0100
0000
0000
0100
0000
0000
0100
0000
0000
1000
0000
0000
0001
0000
1000
0000
,
0010
0000
0000
0010
0000
0000
0010
0000
0000
1000
0000
0000
0001
0000
1000
0000
,
0100
0000
0000
0100
0000
0000
0100
0000
0000
1000
0000
0000
0001
0000
1000
0000
,
0010
0000
0000
0010
0000
0000
0010
0000
0000
1000
0000
0001
1000
0000
0010
0000
,
0100
0000
0000
0100
0000
0000
0100
0000
0000
0001
0000
1000
0001
0000
0100
0000
,
0010
0000
0000
0010
0000
0000
0010
0000
0000
1000
0000
0001
1000
0000
0010
0000
,
0220
0000
0000
0330
,
1001
0000
0000
0000
1000
0000
0001
0000
0000
0010
0000
0000
0100
0000
0000
1000
,
0000
0000
0000
0000
0001
0000
1000
0000
0000
0100
0000
0000
0010
0000
0000
0001
,
0000
0000
0000
0000
1000
0000
0001
0000
0000
0010
0000
0000
0100
0000
0000
1000
,
0000
0000
0000
0000
0001
0000
1000
0000
0000
0100
0000
0000
0010
0000
0000
0001
,
0000
0000
0000
0000
1000
0000
0001
0000
0000
1000
0000
0000
0100
0000
0000
0001
,
0000
0000
0000
0000
1000
0000
0001
0000
0000
0100
0000
0000
0010
0000
0000
1000
,
0000
0000
0000
0000
0001
0000
1000
0000
0000
0001
0000
0000
0010
0000
0000
1000
,
0001
0010
0100
1000
0001
0010
0100
1000
,
0001
0100
0000
0001
0100
0010
1000
0100
,
0000
1000
0100
1000
0100
0010
0001
0100
,
0001
0000
0000
0001
0000
0000
1000
0000
0000
1000
0000
0000
0001
0000
0010
0000
,
0100
0000
1000
0000
0000
1000
0000
0000
0001
0000
0000
0001
0000
0000
1000
0000
,
0010
0000
0000
0110
0000
0000
0220
0000
0000
0000
0000
0000
0330
0000
0000
0000
,
0100
0000
0000
0110
0000
0000
0220
0000
0000
0000
0000
0000
0330
0000
0000
0000
,
0001
0000
0000
0010
0000
0000
0100
0000
1000
0000
0000
0001
0000
0000
0100
0000
,
0010
0000
0000
0010
0000
0000
0010
0000
1001
0000
0000
0000
1001
0000
0000
0000
,
0100
0000
0000
0010
0100
0000
0001
0000
0000
0000
0010
0000
0100
0000
1000
0000
,
0001
0000
0000
0100
0010
0000
1000
0000
0000
0000
0100
0000
0010
0000
0001
0000
,
1000
0000
0000
0010
0100
0000
0001
0000
0000
0000
0010
0000
0100
0000
1000
0000
,
0010
0000
0000
0100
0010
0000
1000
0000
0000
0000
0001
0000
0000
1000
0001
1000
,
0001
0000
0000
0001
0000
0000
0100
0000
0000
0100
0000
0000
0001
0000
0100
0000
,
1000
0000
0000
1000
0000
0000
0010
0000
0000
0010
0000
0000
1000
0000
0010
0000
,
0001
1000
0000
0100
0000
1000
1000
0001
,
1000
0100
0010
0001
1000
0010
0100
0001
,
2000
0000
0000
3000
,
2002
0000
0000
0000
,
0000
3003
0020
0000
,
0032
0000
0023
0000
,
0000
0000
0000
0000
,
0032
0000
2003
0000
,
0000
0000
0000
0000
,
3020
0000
0230
0000
,
0020
0000
0000
0330
,
1001
0010
0100
1000
,
0010
0100
0001
0001
,
0110
0010
1000
1000
,
0100
0000
1000
0000
0010
0100
0010
0000
,
0110
0000
1000
0000
1000
0001
0010
0000
,
0001
0000
1000
0000
0001
1000
0100
0000
,
1000
0000
0000
0010
0000
0000
0100
0000
0000
0001
0000
0000
1000
0000
0000
0000
,
2002
0000
0000
3003
,
0010
0000
0000
0100
0000
0000
0010
0000
0000
1000
0000
0000
0001
0000
1000
0000
,
0010
0000
0000
0100
0000
0000
0010
0000
0000
1000
0000
0001
1000
0000
0010
0000
,
0100
0000
0000
0010
0000
0000
0100
0000
0000
0001
0000
0000
1000
0000
0001
0000
,
0100
0000
0000
0010
0000
0000
0100
0000
0000
0001
0000
1000
0001
0000
0100
0000
,
0010
0000
0000
1000
0000
0000
0100
0000
0000
1000
0000
0001
1000
0000
0010
0000
,
0100
0000
0000
0001
0000
0000
0010
0000
0000
0001
0000
1000
0001
0000
0010
0000
,
0100
0000
0000
1000
0000
0000
0010
0000
0100
0001
0000
1000
0000
0000
1000
0000
,
0001
0000
0000
0101
0000
0000
0001
0000
0200
0000
0000
0001
0000
0000
0301
0000
,
1000
0000
0100
1000
0000
0001
0000
0010
0000
0000
0001
0000
0010
0000
0100
0000
,
1000
0000
0001
0010
0000
0001
0000
1000
0000
0000
1000
0000
0100
0000
0010
0000
,
0001
0000
1000
0100
0000
1000
0000
0001
0000
0000
0001
0000
0010
0000
0100
0000
,
0000
0000
1000
0000
0001
0100
0000
0001
0000
1000
0100
0000
1000
0100
1000
0000
,
0001
0000
0010
0001
0000
1000
0000
0100
0000
0000
1000
0000
0100
0000
0010
0000
,
0000
0001
0010
0001
0100
0010
1000
0100
,
1000
0001
0000
0010
0000
0001
0001
1000
,
0001
0010
0100
1000
0001
0100
0010
1000
,
0001
0000
0000
0011
0000
0000
0001
0000
1000
0000
0000
1100
0000
0000
0001
0000
,
1001
0000
0000
0000
;

//---------------dance-single - ----------------
#NOTES:
     dance-single:
     :
     Challenge:
     9:
     0.606,0.751,0.364,0.182,0.653: // measure 1
0000
0000
0000
0000
,  // measure 2
0000
0000
0000
0000
,  // measure 3
0000
0000
0000
0000
,  // measure 4
0011
0000
0110
0000
,  // measure 5
1100
0000
0110
0000
,  // measure 6
1001
1001
1001
1001
,  // measure 7
0220
0000
0000
0330
,  // measure 8
0001
0000
0000
0010
0000
0000
0100
0000
0000
1000
0000
0001
1000
0000
0100
0000
,  // measure 9
1000
0000
0000
0100
0000
0000
0010
0000
0000
0001
0000
1000
0001
0000
0010
0000
,  // measure 10
0001
0000
0000
0010
0000
0000
0100
0000
0000
1000
0000
0001
1000
0000
0100
0000
,  // measure 11
1000
0000
0000
0100
0000
0000
0010
0000
0000
0001
0000
1000
0001
0000
0010
0000
,  // measure 12
0001
1000
0000
0100
0000
0000
1000
0000
0000
0001
0000
0100
0001
0000
0001
0000
,  // measure 13
1000
0001
0000
0010
0000
0000
0001
0000
0000
1000
0000
0010
1000
0000
1000
0000
,  // measure 14
0001
0100
0000
0010
0000
0100
0001
0000
0000
1000
0000
0010
0100
0000
0010
0000
,  // measure 15
1000
0010
0000
0100
0000
0010
1000
0000
0000
0001
0000
0100
0010
0000
0100
0000
,  // measure 16
1001
0000
0000
0000
1000
0000
0100
0000
0000
0010
0000
0000
0100
0000
0000
1000
,  // measure 17
0001
0000
0000
0000
1000
0000
0100
0000
0000
0010
0000
0000
0100
0000
0000
1000
,  // measure 18
0001
0000
0000
0000
1000
0000
0001
0000
0000
0010
0000
0000
0100
0000
0000
0010
,  // measure 19
0001
0000
0000
0000
1000
0000
0001
0000
0000
0010
0000
0000
0100
0000
0000
0010
,  // measure 20
0001
0000
0000
0000
1000
0000
0010
0000
0000
0100
0000
0000
0010
0000
0000
1000
,  // measure 21
0001
0000
0000
0000
1000
0000
0010
0000
0000
0100
0000
0000
0010
0000
0000
1000
,  // measure 22
0001
0000
0000
0000
1000
0000
0010
0000
0000
0100
0000
0000
0001
0000
0000
0100
,  // measure 23
0010
1000
0100
0010
0001
1000
0100
0010
,  // measure 24
0001
0000
1000
0000
0000
0000
0001
0000
1000
0000
0100
1000
0100
1000
0000
0010
,  // measure 25
0000
0000
1000
0000
0100
0000
1000
0000
0001
0000
0100
0000
0001
0010
0001
0010
,  // measure 26
0001
0000
0100
0001
0000
0000
1000
0000
0000
0010
0000
1000
0010
1000
0010
1000
,  // measure 27
0000
0000
0001
0000
0000
1000
0000
0000
0100
1000
0000
0001
0010
0001
0010
0001
,  // measure 28
0010
0000
0000
0011
0000
0000
2002
0000
0000
0000
0000
0000
3003
0000
0000
0000
,  // measure 29
1100
0000
0000
1100
0000
0000
2002
0000
0000
0000
0000
0000
3003
0000
0000
0000
,  // measure 30
1000
0000
0100
1000
0000
0100
1000
0000
0001
0100
0000
0001
0010
0001
0010
0000
,  // measure 31
0101
0000
0000
0101
0000
0000
0101
0000
1001
0000
0000
0000
1001
0000
0000
0000
,  // measure 32
0100
0000
0100
0010
0100
0000
0001
0000
1000
0000
0010
1000
0010
1000
0010
0000
,  // measure 33
0100
0000
0100
0010
0100
0000
0001
0000
1000
0000
0001
0100
0001
0100
0001
0000
,  // measure 34
1000
0000
0010
0100
0010
0000
1000
0000
0001
0000
0100
0001
0100
0001
0100
0000
,  // measure 35
0010
0000
0010
0100
0010
0000
1000
0000
0001
0000
0010
0000
0000
0001
1000
0001
,  // measure 36
1000
0000
0000
1100
0000
0000
1010
0000
0000
1001
0000
0000
0010
0000
1000
0000
,  // measure 37
0001
0000
0000
0011
0000
0000
0101
0000
0000
1001
0000
0000
0100
0000
0001
0000
,  // measure 38
1000
0000
0010
0100
0010
0000
1000
0000
0100
0000
0010
0000
0100
0000
1000
0000
,  // measure 39
0001
0100
0001
0100
0001
0100
0001
0000
1000
0010
1000
0010
1000
0100
0010
0002
,  // measure 40
0000
0000
0000
0003
,  // measure 41
2002
0000
0000
0000
,  // measure 42
0000
0000
0000
0000
3003
0000
0000
0000
1000
0000
0000
0010
0000
0000
0100
0000
,  // measure 43
0002
0000
2000
0000
,  // measure 44
0000
3003
0000
0001
0100
0000
0000
0010
,  // measure 45
2000
0000
0002
0000
,  // measure 46
0000
0000
3003
0000
2000
0000
0000
3010
,  // measure 47
0200
0000
0020
0330
,  // measure 48
2002
0000
0000
3003
,  // measure 49
1100
0001
0011
1000
,  // measure 50
0100
0000
0000
0000
0010
0000
0000
0000
0001
0000
0000
0100
0000
0000
0001
0000
,  // measure 51
2000
0001
3002
1000
,  // measure 52
1003
0000
0000
0000
1000
0000
0001
0000
1000
0000
0000
0010
0000
0000
1000
0000
,  // measure 53
0002
1000
2003
0001
,  // measure 54
3001
0000
0000
0000
0100
0000
0000
0000
0010
0000
0000
1000
0000
0000
0001
0000
,  // measure 55
1000
0000
0000
0100
0000
0000
1000
0000
0000
0001
0000
0000
0100
0010
0100
0010
,  // measure 56
0200
0000
0310
0000
,  // measure 57
1010
0000
0000
1000
0000
0000
0001
0000
0000
0100
0000
0010
0100
0010
0100
0000
,  // measure 58
0001
0000
0000
0001
0000
0000
1000
0000
0000
0010
0000
0100
0010
0100
0010
0000
,  // measure 59
0101
0000
0000
0001
0000
0000
1000
0000
0000
0001
0000
1000
0100
1000
0100
0000
,  // measure 60
1010
0000
0000
1000
0000
0000
0001
0000
0000
1000
0000
0001
0010
0001
0010
0000
,  // measure 61
0101
0000
0000
0001
0000
0000
1000
0000
0000
0001
0000
1000
0100
1000
0010
0000
,  // measure 62
1010
0000
0000
1000
0000
0000
0001
0000
0000
1000
0000
0001
0010
0001
0100
0000
,  // measure 63
0101
0000
0000
1001
0000
0000
1000
0000
0010
1000
0000
0001
0000
0000
0100
0000
,  // measure 64
0110
0000
0000
0110
0000
0000
0110
0000
0001
1000
0000
0100
0000
0000
1000
0000
,  // measure 65
0001
0000
0100
0001
0000
0010
0000
0100
0000
0000
1000
0000
0100
0010
0001
0010
,  // measure 66
0001
0000
0100
0001
0000
0010
0000
0100
0000
0000
1000
0000
0010
0100
0001
0100
,  // measure 67
0001
0000
1000
0001
0000
0010
0000
0100
0000
0000
1000
0000
0100
0010
0001
0010
,  // measure 68
0001
0000
1000
0000
0100
1000
0100
1000
0000
0010
1000
0010
1000
0001
0010
0000
,  // measure 69
0001
0000
0001
1000
0000
0100
0000
0010
0000
0000
0001
0000
0010
0100
1000
0100
,  // measure 70
1000
0001
0010
0100
1000
0010
0100
0001
,  // measure 71
0010
0000
0001
0010
0100
0000
1000
0000
0001
0000
1000
0100
0010
0000
0001
0000
,  // measure 72
1000
0100
1000
0100
1000
0010
0100
0000
0001
0010
0001
0010
0001
0100
0010
1000
,  // measure 73
0100
0000
0000
1100
0000
0000
1100
0000
1001
0000
0000
0011
0000
0000
0011
0000
,  // measure 74
1001
0000
0000
0000
;

//---------------dance-single - ----------------
#NOTES:
     dance-single:
     :
     Medium:
     6:
     0.392,0.462,0.166,0.158,0.008:
0000
0000
0000
0000
,
0000
0000
0000
0000
,
0000
0000
0000
0000
,
0001
0000
0011
0000
,
1000
0000
1100
0000
,
0001
1000
0001
1000
,
2002
0000
0000
3003
,
0010
0000
0100
0000
0010
0000
1000
0100
,
0010
0000
0010
0000
0010
0000
0001
0010
,
0100
0000
0100
0000
0100
0000
1000
0100
,
0010
0000
0010
0000
0010
0000
0001
0010
,
0100
0000
0100
0000
0100
0000
0010
0100
,
1000
0000
1000
0000
1000
0000
0010
0100
,
0001
0000
0001
0000
0001
0100
0010
1000
,
0002
1000
1000
1003
,
1001
0000
1000
0010
0100
0000
0001
0000
,
0100
0000
1000
0010
0100
0000
0001
0000
,
0100
0000
1000
0001
0010
0000
0100
0000
,
1000
0000
0001
1000
0010
0000
1000
0000
,
0010
0000
0001
1000
0010
0000
1000
0000
,
0010
0000
0100
0001
1000
0000
0001
0000
,
0100
0000
0010
1000
0001
0000
1000
0000
,
1000
0001
0010
0001
0010
0001
0010
0001
,
1000
0100
0000
1000
0010
0000
1000
0000
,
0001
0010
0001
0010
0000
0001
0100
0000
,
0010
0000
1000
0000
0100
0000
0010
0001
,
1000
0001
0010
0100
,
1001
0000
0000
1010
0000
0000
0000
0000
,
1001
0000
0000
0101
0000
0000
0000
0000
,
1001
1000
0110
0001
,
0220
0000
0330
1001
,
0001
0100
0001
0100
0000
0010
1000
0100
,
1000
0000
0001
1000
0000
0010
0100
0001
,
0010
0000
0001
1000
0000
1000
0100
0010
,
0001
0000
1000
0001
0000
0100
0000
0010
,
2000
0000
0001
0000
0001
0000
3001
0010
,
0002
0000
1000
0000
1000
0000
1003
0100
,
1000
0001
0000
0010
0000
0100
0000
1000
,
0001
1000
0100
1000
0100
1000
0100
1000
,
0002
0000
0000
0000
,
1003
0000
0000
0000
,
0000
0000
0010
0000
,
0020
0000
0130
0000
,
0000
0000
0100
0000
,
0200
0000
0310
0000
,
0000
0000
0010
0000
,
0020
0000
0130
0000
,
2002
0000
0000
3003
,
0001
0010
0001
0100
,
0010
1000
0200
0000
,
1300
0100
1000
0010
,
0100
0001
0020
0000
,
0031
0100
0001
0100
,
0010
1000
0020
0000
,
0130
0001
1000
0010
,
2002
0000
0000
3003
,
0100
0000
0100
0000
1000
0100
0001
0000
,
0010
0000
0010
0000
0001
0010
1000
0000
,
0110
0000
0100
0000
1000
0100
0001
0000
,
0110
0000
0010
0000
0001
0010
1000
0010
,
0110
0000
0010
0000
1000
0100
0001
0100
,
0110
0000
0100
0000
0001
0010
1000
0010
,
0110
0000
0000
0010
0000
0000
0010
0000
0100
0000
0000
0100
0000
0000
0100
0000
,
2002
0000
0000
3003
,
0010
1000
0010
1000
0000
0100
0010
0001
,
0100
0001
0100
0001
0000
0010
0100
1000
,
0010
1000
0010
1000
0000
0100
0010
0001
,
1000
0000
1000
0100
1000
0001
0010
0001
,
1000
0000
0001
0010
0001
1000
0010
0100
,
0001
1000
0100
1000
0100
0000
0100
0000
,
1000
0001
0000
0010
0000
0100
0000
1000
,
0001
1000
0100
1000
0100
1000
0100
1000
,
0001
0000
0000
0001
1000
0000
0000
1000
,
1001
0000
0000
0000
;

//---------------dance-single - ----------------
#NOTES:
     dance-single:
     :
     Beginner:
     2:
     0.099,0.173,0.079,0.000,0.000:
0000
0000
0000
0000
,
0000
0000
0000
0000
,
0000
0000
0000
0000
,
0000
0000
0000
0000
,
0000
0000
0000
0000
,
1000
0000
0001
0000
,
1001
0000
0000
0000
,
0001
0000
0000
0000
,
0001
0000
0000
0000
,
0010
0000
0000
0000
,
0010
0000
0000
0000
,
0100
0000
0000
0000
,
0100
0000
0000
0000
,
1000
0000
0000
0000
,
1000
0000
0000
0000
,
0001
0000
0000
0000
,
0000
0001
0000
0000
,
0000
1000
0000
0000
,
0000
1000
0000
0000
,
0000
0100
0000
0000
,
0000
1000
0000
0000
,
0000
0001
0000
0000
,
0010
0000
0000
0000
,
1001
0000
0000
0000
,
0000
1000
0000
0000
,
1000
0000
0000
0000
,
0001
0000
0000
0000
,
1001
0000
0000
0000
,
1001
0000
0000
0000
,
1001
0000
0000
0000
,
1001
0000
0000
0000
,
0100
0000
0000
0000
,
0100
0000
0000
0000
,
0010
0000
0000
0000
,
0010
0000
0000
0000
,
1000
0000
0000
0000
,
0001
0000
0000
0000
,
1000
0000
0000
0000
,
0001
0000
0000
0000
,
1000
0000
0000
0000
,
1001
0000
0000
0000
,
0100
0000
0000
0000
,
0100
0000
0000
0000
,
0000
0000
0000
0000
,
0100
0000
0000
0000
,
0000
0000
0010
0000
,
0010
0000
0010
0000
,
0010
0000
0000
0000
,
0000
1000
0000
1000
,
0000
1000
0000
1000
,
0000
0001
0000
0001
,
0000
0001
0000
0001
,
0000
0010
0000
0010
,
0000
0010
0000
0010
,
0000
0001
0000
1000
,
0000
0000
0000
0000
,
1000
0000
0000
0000
,
0100
0000
0000
0000
,
0010
0000
0000
0000
,
0001
0000
0000
0000
,
0010
0000
0000
0000
,
0100
0000
0000
0000
,
1000
0000
0000
0000
,
1001
0000
0000
0000
,
0010
0000
0000
0000
,
0010
0000
0000
0000
,
1000
0000
0000
0000
,
1000
0000
0000
0000
,
0001
0000
0000
0000
,
0001
0000
0000
0000
,
0100
0000
0100
0000
,
0010
0000
0010
0000
,
1001
0000
0000
0000
,
1001
0000
0000
0000
;
