#TITLE:ミュージカル"5丁目物語"よりオーヴァチュア;
#SUBTITLE:;
#ARTIST:ナヤ~ン & His Orchestra;
#TITLETRANSLIT:MUSICAL "5 CHOUME MONOGATARI" YORI OVERTURE;
#SUBTITLETRANSLIT:;
#ARTISTTRANSLIT:Naya~n & His Orchestra;
#CREDIT:DMAxel;
#BANNER:MUSICAL '5 CHOUME MONOGATARI' YORI OVERTURE.png;
#BACKGROUND:MUSICAL '5 CHOUME MONOGATARI' YORI OVERTURE-bg.png;
#LYRICSPATH:;
#CDTITLE:pop'n stage.png;
#MUSIC:MUSICAL '5 CHOUME MONOGATARI' YORI OVERTURE.mp3;
#OFFSET:-5.513;
#SAMPLESTART:0.620;
#SAMPLELENGTH:12.000;
#SELECTABLE:YES;
#BPMS:0.000=74.006,1.000=148.000,92.000=150.000,93.000=152.000,94.000=154.000,95.000=156.000,96.000=158.000,97.000=160.000,163.000=186.000;
#STOPS:;
#BGCHANGES:;

//---------------dance-single - ----------------
#NOTES:
     dance-single:
     :
     Hard:
     8:
     0.499,0.514,0.488,0.141,0.326:
0000
0000
0100
0100
0100
0010
0100
0000
,
1001
0000
1000
0010
0000
1000
0000
0001
,
0010
0001
0000
0011
0000
1001
0000
0010
,
1000
0000
0100
0000
1000
0000
0000
0100
0000
0000
1000
0000
0001
0000
0000
0010
,
0000
0001
1000
0000
0100
1000
0001
0000
,
1001
0000
0001
0100
0000
0001
0000
1000
,
0100
1000
0000
1100
0000
1001
0000
0100
,
0001
0000
0010
0000
0001
0000
0000
0010
0000
0000
0001
0000
1000
0000
0000
0100
,
0000
1000
0001
0000
0100
0001
1000
0000
,
1100
1010
1001
1002
,
1000
0000
1003
0000
1000
0001
0010
0000
,
0011
0101
1001
1002
,
0000
1000
0000
0000
1003
0100
1000
0001
,
0000
0100
0000
0000
0001
0000
0000
0000
0001
0000
0010
0000
0001
0000
1000
0000
,
0000
0100
0000
0000
1000
0000
0002
0000
0000
0000
1000
0000
0000
0000
1003
0000
,
0000
1100
0000
0001
0000
0011
0000
1000
,
0000
1001
0000
1001
0000
0000
0101
0000
,
1001
0000
0000
1000
0010
0100
0001
0000
,
0000
0000
0101
0000
0000
0000
0001
0000
0010
0000
0100
0000
1000
0000
0000
0010
,
0000
1000
0002
0000
1000
0000
1003
0100
,
0000
1000
0001
0100
0000
0000
1010
0000
,
0001
2000
0000
0000
3010
0100
0010
0000
,
1000
0001
0011
1001
,
1000
0000
0000
0010
0000
0000
0100
0000
0000
0001
0000
1000
,
0010
0000
1000
0000
0000
0001
0000
0000
0000
1001
0000
0000
,
1000
0000
0001
0010
0000
0000
0001
0000
1000
0100
0000
1000
,
0100
0000
1000
0100
0000
0000
1000
0000
0001
0000
0000
1001
,
0000
0000
0010
0001
0000
0010
0001
0000
2000
0000
0000
0010
,
0000
0000
3010
0000
0000
1000
0001
0000
0100
0000
0000
0001
,
0100
0000
0001
0100
0000
0001
0100
0000
0002
0000
0000
0000
,
1000
0000
0000
1003
0000
0010
1000
0000
0002
0000
0000
0100
,
0000
0000
0103
0000
0000
0001
1000
0000
0020
0000
0000
0100
,
0000
0000
0130
0000
0000
1001
0000
0000
0000
1000
0000
0100
,
0000
0000
1000
0000
0000
0000
0001
0000
0100
0000
0000
0001
,
0000
0000
1000
0100
0000
1000
0100
0000
1001
0000
0000
0000
,
0100
0000
0000
0100
0000
0000
0100
0000
1001
0000
0000
0000
,
0000
0000
0000
0000
1000
0001
0000
0000
1001
0000
0000
0000
,
0100
0000
0000
0100
0000
0000
0100
0000
1001
0000
0000
0000
,
0000
0000
1000
0000
0000
0100
1000
0000
1000
0000
0000
0001
,
0010
0000
0001
0010
0000
0001
0000
0000
1000
0000
0000
0010
,
0000
0000
1000
0001
1000
0001
1000
0000
1001
0000
0000
0000
,
0100
0100
0100
0100
,
0100
0100
0100
0110
,
0000
1001
0000
0000
0011
0000
0000
1001
,
0000
0000
1100
0000
1100
0000
0000
1001
,
0000
0000
0010
0000
0000
0000
0001
0010
,
0100
1000
0001
0100
0001
1000
0100
1000
,
0100
0010
0001
1000
0010
0100
0001
1000
,
0001
0000
0000
1001
0000
0000
0001
0100
,
0000
0010
1000
0000
0010
0100
0000
0010
,
0100
0000
0000
0000
0000
0001
2000
0000
,
0000
0010
0000
0000
0100
0000
0000
3010
,
0000
0000
0110
0000
0010
1000
0002
0000
,
0000
0010
0000
0000
0100
0000
0000
0013
,
0000
0110
0110
2002
,
0000
0000
3003
1001
;

//---------------dance-single - ----------------
#NOTES:
     dance-single:
     :
     Challenge:
     8:
     0.580,0.545,0.380,0.217,0.374: // measure 1
0000
0000
0000
0000
0100
0000
0100
0000
0100
0000
0010
0100
0010
0000
0000
0000
,  // measure 2
1001
0000
1000
0010
1000
0001
0000
0100
,  // measure 3
0001
1000
0100
0010
0100
1000
0010
0000
,  // measure 4
0100
0000
0001
0000
1000
0000
0000
1000
0000
0000
1000
0000
0001
0000
0000
0001
,  // measure 5
0000
0001
1000
0000
0100
0010
0001
0000
,  // measure 6
1001
0000
0001
0100
0001
1000
0000
0100
,  // measure 7
1000
0001
0010
0100
0010
0001
0100
0000
,  // measure 8
0010
0000
1000
0000
0001
0000
0000
0001
0000
0000
0001
0000
1000
0000
0000
1000
,  // measure 9
0000
0000
1000
0000
0001
0000
0000
0000
0100
0000
0001
0000
0100
0000
0001
1000
,  // measure 10
0000
0100
0010
0001
1000
0100
0010
0100
,  // measure 11
0000
0000
1000
0000
0002
0000
0000
0000
1000
0000
1003
0000
0000
0000
1000
0001
,  // measure 12
0000
0000
0010
0000
0100
0000
1000
0000
0001
0000
0010
0000
0100
0000
0000
0010
,  // measure 13
0000
0001
0000
0100
0001
0100
0001
1000
,  // measure 14
0000
0100
1000
0000
0100
0000
0000
0000
1000
0000
0100
0000
1000
0000
0001
0000
,  // measure 15
0000
0100
0001
0000
0100
0000
0001
0000
0010
0000
0100
0000
0000
0000
1000
0000
,  // measure 16
0100
1000
0100
1000
0100
0001
0100
0001
,  // measure 17
0100
0000
0010
0000
1000
0000
0001
1000
0001
0000
0000
0000
1001
0000
0000
0000
,  // measure 18
0101
0000
0010
1000
0100
0010
0100
0000
,  // measure 19
1000
0000
0100
0000
0010
0000
0001
0000
0100
0000
1000
0000
0100
0000
0000
0101
,  // measure 20
0000
0010
2000
0000
0001
0000
3001
0100
,  // measure 21
0000
0000
0001
0100
0001
0000
1000
0000
1000
0000
0000
0000
1010
0000
0000
0000
,  // measure 22
0100
0001
0010
0100
0010
0000
0001
0010
,  // measure 23
0100
1000
0100
0001
0100
0000
1010
0000
,  // measure 24
1000
0000
0000
1000
0000
0000
0001
0000
0000
0001
0000
0001
,  // measure 25
1000
0000
1100
0000
0000
1001
0000
0000
0000
1001
0000
0000
,  // measure 26
1000
0000
1000
0010
0000
0000
0100
0000
0001
0100
0001
0100
,  // measure 27
0001
1000
0100
1000
0000
0000
0001
0000
1000
0000
0000
1001
,  // measure 28
0000
0000
0001
0100
0000
0100
0001
0000
2000
0000
0000
0100
,  // measure 29
0000
0000
3100
0000
0000
0010
0001
0000
1001
0000
0000
0001
,  // measure 30
0100
0000
0100
1000
0000
1000
0001
0000
0200
0000
0000
0000
,  // measure 31
0001
0000
0000
0301
0000
0001
1000
0000
0020
0000
0000
1000
,  // measure 32
0000
0000
1030
0000
0000
1000
0001
0000
0001
0100
0000
0020
,  // measure 33
0000
0000
1000
0000
0000
1030
0000
0000
0000
0002
0000
0100
,  // measure 34
0000
0000
1003
0000
0000
0000
2000
0000
0100
0000
0000
3001
,  // measure 35
0000
0000
1000
0100
0000
0100
0001
0000
1002
0000
0000
0000
,  // measure 36
0100
0000
0000
0100
0000
0000
0103
0000
2002
0000
0000
0000
,  // measure 37
0000
0000
3003
0000
1000
0001
0000
0000
2001
0000
0000
0000
,  // measure 38
0100
0000
0000
0100
0000
0000
3100
0000
2002
0000
0000
0000
,  // measure 39
3003
0000
0001
0000
0000
0001
1000
0000
1000
0000
0000
1000
,  // measure 40
0100
0000
0100
0001
0000
0001
0100
0000
0100
1000
0000
0000
,  // measure 41
0010
0000
0100
0001
0100
0010
1000
0000
1001
0000
0000
0000
,  // measure 42
0100
0010
0100
0010
,  // measure 43
0100
0010
0100
0110
,  // measure 44
0001
0101
0000
1000
1100
0000
0001
1001
,  // measure 45
0000
0000
0110
0000
0110
0000
0000
1002
,  // measure 46
0000
0000
2003
0000
0001
0000
3001
0010
,  // measure 47
0100
1000
0100
0001
0100
1000
0001
0010
,  // measure 48
0100
0010
0001
1000
0100
0001
0100
0010
,  // measure 49
1001
0000
1000
1100
0000
0000
0001
0101
,  // measure 50
0000
1000
1100
0000
0001
1001
0000
0100
,  // measure 51
0220
0000
0000
0000
0000
0000
0330
0000
0000
0000
0001
1000
0001
0000
0000
0000
,  // measure 52
1000
0100
0000
0100
0001
0000
0001
0100
,  // measure 53
0000
0000
0000
0000
1010
0000
0000
0000
0001
0000
1000
0001
1000
0000
0000
0000
,  // measure 54
0001
0010
0000
0010
1000
0000
1000
0010
,  // measure 55
0000
0101
0110
2002
,  // measure 56
0000
0000
3003
1001
;

//---------------dance-single - ----------------
#NOTES:
     dance-single:
     :
     Easy:
     3:
     0.208,0.272,0.054,0.184,0.027:
0000
0000
0000
0000
,
1001
0000
1000
0000
,
0001
0000
1000
0000
,
0010
0000
0100
0000
,
0010
0000
0100
0000
,
1001
0000
0001
0000
,
1000
0000
0001
0000
,
0100
0000
0010
0000
,
1000
0000
0100
0000
,
0020
0000
0000
0000
,
0000
0000
0000
0000
,
0032
0000
0000
0000
,
0000
0000
0000
2003
,
0000
0000
0000
3020
,
0000
0000
0000
1030
,
0100
0010
0000
0001
,
0010
0100
0000
2000
,
0000
0000
0000
3002
,
0000
0000
0000
1003
,
0010
0200
0000
0000
,
0000
0301
0000
0002
,
0000
0000
0000
2003
,
0000
0000
0000
3001
,
0100
0010
0000
2002
,
0000
0000
0000
3003
0000
0000
1000
0000
,
0001
1000
0000
0100
,
0010
0100
1000
0001
,
0000
0010
0100
0010
,
0001
1000
0000
0001
,
1000
0010
1000
0010
,
0000
0100
0001
1000
,
0000
0010
0100
0010
,
0000
0100
0001
2000
,
0000
0000
0001
0000
,
0000
0000
0000
3000
0000
0000
0000
0000
1002
0000
0000
0000
,
0000
0000
0000
0000
0000
0000
0000
0000
1003
0000
0000
0000
,
0000
0000
0000
0000
0000
0000
0000
0000
2001
0000
0000
0000
,
0000
0000
0000
0000
0000
0000
0000
0000
3001
0000
0000
0000
,
0000
0000
0000
1000
,
0000
0001
0000
1000
,
0000
0000
0000
0010
0000
0000
0000
0000
0200
0000
0000
0000
,
0000
0000
0000
0010
,
0000
0010
0000
0310
,
0000
0100
0000
0000
0010
0000
0000
1000
,
0000
0001
1000
0001
,
0000
0000
0000
1000
,
0010
1000
0010
0100
,
0001
0100
0001
1000
,
0002
0000
0000
0000
0000
0000
0000
1000
,
0000
0000
1000
0000
0000
1000
0000
0000
,
1003
0000
0000
1000
,
0000
0010
0000
0000
0100
0000
0000
0001
,
0000
1000
0001
1000
,
0000
0010
0000
0000
0100
0000
0000
0001
,
0000
1000
0001
2000
,
0000
0000
0000
3001
;

//---------------dance-single - ----------------
#NOTES:
     dance-single:
     :
     Medium:
     6:
     0.383,0.424,0.260,0.304,0.168:
0000
0000
0000
0000
,
1001
0000
0000
0001
0000
0100
0001
0000
,
1000
0010
0000
1000
0000
0002
0000
0000
,
0010
0000
1000
0000
,
0010
0000
1003
0001
,
1001
0000
0000
1000
0000
0100
1000
0000
,
0001
0010
0000
0001
0000
2000
0000
0000
,
0010
0000
0001
0000
,
0010
0000
3001
1000
,
0002
0023
0230
2300
,
0001
0000
3001
0000
,
2000
3200
0320
0032
,
0000
2000
0000
0000
3003
0000
0002
0000
,
0100
0100
0000
2003
,
0010
0000
0010
0000
0000
0000
0000
3001
,
0000
0100
0000
0010
0000
1000
0000
0010
,
0000
1000
0001
0010
0001
0000
0010
0000
,
0011
0000
0000
1000
0001
0000
2000
0000
,
0000
0000
0100
0000
0000
0000
0000
0000
0000
0000
0000
0000
3001
0000
0000
0001
,
0000
1000
0010
0000
1000
0000
0001
0100
,
0000
0100
0001
1000
0000
0000
0100
0000
,
1100
0000
0000
0001
1000
0000
0002
0000
,
0000
0000
0010
0000
0000
0000
0000
0000
1000
0000
0000
0000
1003
0000
0000
1000
,
0000
0001
0010
0000
0000
0000
0001
0000
,
0001
0000
1000
0000
0000
0010
0000
0000
0000
1000
0000
0000
,
0010
0100
0001
0010
,
1000
0000
0000
0010
0000
0000
0001
0000
1000
0000
0000
1001
,
0000
1000
0100
0010
,
0001
0000
0000
0010
0000
0000
1000
0000
0001
0000
0000
1001
,
0000
0001
0100
0010
,
1000
0000
0000
0010
0000
0000
0001
0000
1000
0000
0000
0010
,
0000
0000
1000
0000
0000
0001
0000
0000
0100
0010
0000
0100
,
0000
0000
0001
0000
0000
1000
0000
0000
0000
0001
0000
0000
,
0000
0000
0001
0000
0000
0000
1000
0000
0000
0000
0000
1000
,
0000
0000
0001
0000
0000
0000
0000
0000
2001
0000
0000
0000
,
0001
0000
0000
0001
0000
0000
0001
0000
3010
0000
0000
0000
,
0000
0000
0000
0000
0000
0000
0000
0000
1002
0000
0000
0000
,
1000
0000
0000
1000
0000
0000
1000
0000
0013
0000
0000
0000
,
0001
0000
0000
1000
0000
0000
0001
0000
1000
0000
0000
0010
,
0100
0000
0010
0100
0000
0010
0000
0000
1000
0000
0000
0001
,
0000
0000
1000
0001
0000
0000
0000
0000
1001
0000
0000
0000
,
1000
1000
1000
1000
,
1000
1000
1000
1100
,
0000
1001
0000
0000
1010
0000
0000
0101
,
0000
1001
0001
1020
,
0000
0000
1000
0000
1030
0000
0001
0010
,
0100
1000
0001
0000
0100
0001
0000
1000
,
0000
0010
1000
0100
0010
0001
1000
0000
,
0011
0000
0000
1001
0000
0000
0000
1010
,
0000
0000
1001
0000
0000
1100
0000
0000
,
1001
0000
0000
1002
,
0000
0023
0000
0000
0230
0000
0000
2300
,
0000
3010
0100
0002
,
0000
0023
0000
0000
0230
0000
0000
2300
,
0000
3100
0010
0202
,
0000
0000
0303
1001
;

//---------------dance-single - ----------------
#NOTES:
     dance-single:
     :
     Beginner:
     1:
     0.088,0.121,0.087,0.000,0.016:
0000
0000
0000
0000
,
1000
0000
0000
0000
,
0001
0000
0000
0000
,
1000
0000
0000
0000
,
0001
0000
0000
0000
,
1001
0000
0000
0000
,
0100
0000
0000
0000
,
0010
0000
0000
0000
,
0100
0000
0000
0000
,
0010
0000
0000
0000
,
0000
0000
0000
0000
,
0010
0000
0000
0000
,
0000
0000
0000
0000
,
0100
0000
0000
0000
,
0100
0000
0000
0000
,
0100
0000
0000
0000
,
0000
0000
0000
0000
,
0001
0000
0000
0000
,
1000
0000
0000
0000
,
0001
0000
0000
0000
,
1000
0000
0000
0000
,
0001
0000
0000
0000
,
1000
0000
0000
0000
,
0001
0000
0000
0000
,
0000
0000
0000
0000
,
1000
0000
0001
0000
,
1000
0000
0000
0000
,
0001
0000
1000
0000
,
0001
0000
0000
0000
,
0100
0000
0010
0000
,
0100
0000
0000
0000
,
0010
0000
0100
0000
,
0010
0000
0000
1000
,
0000
0000
0000
0000
,
0000
0000
0000
0000
0000
0000
0000
0000
1001
0000
0000
0000
,
0000
0000
0000
0000
,
0000
0000
0000
0000
0000
0000
0000
0000
1001
0000
0000
0000
,
0000
0000
0000
0000
,
0000
0000
0000
0000
,
1000
0000
0001
0000
,
1000
0000
0000
0000
0000
0000
0000
0000
1001
0000
0000
0000
,
0000
0000
0000
0000
,
0000
0000
0000
0001
,
0000
0000
0000
0000
,
0000
1000
0000
0001
,
0000
0000
0000
0100
,
0000
0000
0000
0010
,
0000
0000
0000
0000
,
0110
0000
0000
0000
,
0000
0000
0000
0000
,
0000
0000
0000
1001
,
0000
0000
0000
0000
,
0000
0000
0000
1001
,
0000
0000
0000
0000
,
0000
0000
0000
1000
,
0000
0000
0000
1001
;
