#TITLE:空言の海;
#SUBTITLE:;
#ARTIST:音々;
#TITLETRANSLIT:MUNAGOTO NO UMI;
#SUBTITLETRANSLIT:;
#ARTISTTRANSLIT:NENE;
#CREDIT:DMAxel;
#BANNER:MUNAGOTO NO UMI.png;
#BACKGROUND:MUNAGOTO NO UMI-bg.png;
#LYRICSPATH:MUNAGOTO NO UMI.lrc;
#CDTITLE:ee'MALL.png;
#MUSIC:MUNAGOTO NO UMI.mp3;
#OFFSET:-10.660;
#SAMPLESTART:75.117;
#SAMPLELENGTH:12.000;
#SELECTABLE:YES;
#BPMS:0.000=92.000;
#STOPS:;
#BGCHANGES:-16.000=MUNAGOTO NO UMI.avi=1.000=1=1=0,
99999=-nosongbg-=1.000=0=0=0 // don't automatically add -songbackground-
;

//---------------dance-single - ----------------
#NOTES:
     dance-single:
     :
     Easy:
     2:
     0.137,0.149,0.047,0.016,0.000: // measure 1
1000
0000
0001
0000
,  // measure 2
1000
0000
1000
0000
,  // measure 3
0001
0000
1000
0000
,  // measure 4
0001
0000
0001
0000
,  // measure 5
0100
0000
0010
0000
,  // measure 6
0100
0000
0100
0000
,  // measure 7
0001
0000
1000
0000
,  // measure 8
0001
0000
0001
1000
,  // measure 9
1000
0000
0000
0001
,  // measure 10
1000
0000
0000
0000
,  // measure 11
1000
0000
0000
1000
,  // measure 12
0001
0000
0001
1000
,  // measure 13
0001
0000
0000
0100
,  // measure 14
0001
0000
0000
0000
,  // measure 15
1000
0000
0000
0100
,  // measure 16
1000
0000
0001
0000
,  // measure 17
0001
1000
0001
0000
,  // measure 18
1000
0001
1000
0000
,  // measure 19
0010
0100
0010
0000
,  // measure 20
0100
0010
0100
0000
,  // measure 21
1001
1000
0001
0000
,  // measure 22
0001
1000
0001
0000
,  // measure 23
1000
0001
1000
0000
,  // measure 24
1000
0001
1000
0000
,  // measure 25
0100
0010
0100
0000
,  // measure 26
1001
0001
1000
0000
,  // measure 27
1000
1000
0001
0000
,  // measure 28
0100
0100
0010
0000
,  // measure 29
0010
0010
0100
0000
,  // measure 30
1001
0001
1000
0000
,  // measure 31
1000
1000
0001
0000
,  // measure 32
0100
0100
0010
0000
,  // measure 33
0010
0010
0100
0000
,  // measure 34
1001
1000
0001
1000
,  // measure 35
0100
0010
0100
0010
,  // measure 36
0001
1000
0001
1000
,  // measure 37
0001
1000
0001
0000
,  // measure 38
1001
0001
1000
0001
,  // measure 39
0010
0100
0010
0100
,  // measure 40
1000
0001
1000
0001
,  // measure 41
1000
0100
0010
0000
,  // measure 42
2002
0000
0000
0000
,  // measure 43
3003
0000
0000
0000
;

//---------------dance-single - ----------------
#NOTES:
     dance-single:
     :
     Medium:
     4:
     0.222,0.265,0.181,0.016,0.000: // measure 1
0001
1000
0001
1000
,  // measure 2
0100
0010
0100
0010
,  // measure 3
0001
1000
0001
1000
,  // measure 4
0100
0010
0001
0000
,  // measure 5
1000
0001
1000
0001
,  // measure 6
0010
0100
0010
0100
,  // measure 7
1000
0001
1000
0001
,  // measure 8
0010
0100
1000
0000
,  // measure 9
1001
0001
0000
1000
,  // measure 10
0001
0100
0000
0000
,  // measure 11
0001
1000
0000
0100
,  // measure 12
1000
0010
0100
0010
,  // measure 13
0100
0001
0000
0100
,  // measure 14
0001
1000
0000
0000
,  // measure 15
0100
1000
0000
0010
,  // measure 16
0100
0001
1000
1000
,  // measure 17
1001
0001
0001
0001
,  // measure 18
1000
1000
1000
1000
,  // measure 19
0100
0100
0100
0100
,  // measure 20
0010
0010
0010
0010
,  // measure 21
1001
0010
0100
1000
,  // measure 22
0001
0010
0100
1000
,  // measure 23
0100
0010
0001
1000
,  // measure 24
0110
0001
1000
0001
,  // measure 25
0110
1000
1001
0000
,  // measure 26
1000
0001
1000
0000
0010
0000
1000
0000
,  // measure 27
0001
0100
0001
0000
1000
0000
0010
0000
,  // measure 28
0100
0010
0100
0000
0001
0000
0100
0000
,  // measure 29
1000
0000
0100
0000
0001
1000
0001
1000
,  // measure 30
0001
0000
0100
0000
0010
0000
1000
0001
,  // measure 31
1000
0000
0001
0000
0010
0000
0001
0010
,  // measure 32
0001
0000
0100
0000
0001
0000
1000
0100
,  // measure 33
1000
0000
0001
0000
0001
1000
0001
0000
,  // measure 34
1001
0000
1100
0000
0010
0001
0010
0000
,  // measure 35
1001
0000
1100
0000
0010
0001
0010
0000
,  // measure 36
1001
0000
0011
0000
0100
1000
0100
0000
,  // measure 37
1001
0000
0011
0000
0100
1000
0001
0000
,  // measure 38
1001
0000
0101
0000
0010
1000
0010
0000
,  // measure 39
1001
0000
0101
0000
0010
1000
0010
0000
,  // measure 40
1001
0000
1010
0000
0100
0001
0100
0000
,  // measure 41
1001
0000
1010
0000
0100
0001
1000
1000
,  // measure 42
2002
0000
0000
0000
,  // measure 43
3003
0000
0000
0000
;

//---------------dance-single - ----------------
#NOTES:
     dance-single:
     :
     Hard:
     6:
     0.306,0.298,0.307,0.087,0.039: // measure 1
0100
0001
1000
0000
0100
1000
0100
0000
,  // measure 2
0100
0001
1000
0000
0100
1000
0100
0000
,  // measure 3
0010
0001
0010
0000
0001
1000
0010
0000
,  // measure 4
0010
1000
0010
0000
0010
1000
0001
0001
,  // measure 5
0100
0001
1000
0000
1100
0000
1100
0000
,  // measure 6
0100
0001
1000
0000
1100
0000
1100
0000
,  // measure 7
0010
1000
0001
0000
0011
0000
0011
0000
,  // measure 8
0010
1000
0001
0000
0011
0000
0011
0000
,  // measure 9
1001
1000
1000
2000
,  // measure 10
0001
3001
0100
0000
0100
0000
0100
0000
,  // measure 11
0100
0100
0001
0000
0001
0000
0002
0000
,  // measure 12
1000
1003
0010
0000
0010
0100
0010
0000
,  // measure 13
1001
0001
0001
0002
,  // measure 14
1000
1003
0100
0000
0100
0000
0100
0000
,  // measure 15
0100
0100
1000
0000
1000
0000
2000
0000
,  // measure 16
0001
3001
0100
0000
0100
0010
0100
0000
,  // measure 17
1001
0000
0010
0000
0100
1000
0001
0000
,  // measure 18
1000
0000
0100
0000
0010
0001
1000
0000
,  // measure 19
0001
0000
0100
0000
0010
1000
0001
0000
,  // measure 20
1000
0000
0010
0000
0100
0001
1000
1000
,  // measure 21
0010
0100
0010
0000
0100
0001
1000
0000
,  // measure 22
0010
0100
0010
0000
0100
0001
1000
0000
,  // measure 23
0100
0010
0100
0000
0010
0001
1000
0000
,  // measure 24
0100
0010
0100
0000
0010
0001
1000
0000
,  // measure 25
0110
1001
1001
0000
,  // measure 26
0201
0000
0001
0000
0301
0100
0010
1000
,  // measure 27
0020
0000
1000
0000
1030
0010
0100
0001
,  // measure 28
0200
0000
0001
0000
0301
0100
1000
0100
,  // measure 29
0010
0101
0100
1010
,  // measure 30
0021
0000
0001
0000
0031
0010
0100
1000
,  // measure 31
0200
0000
1000
0000
1300
0100
0010
0001
,  // measure 32
0200
0000
0001
0000
0301
0100
1000
0100
,  // measure 33
0010
0101
0100
1010
,  // measure 34
1001
0000
1100
0000
0010
0100
1000
0000
,  // measure 35
1001
0000
1100
0000
0010
0100
1000
0000
,  // measure 36
1001
0000
0011
0000
0100
0010
0001
0000
,  // measure 37
1001
0000
0011
0000
0100
0010
0001
1000
,  // measure 38
1100
0000
0000
0000
0101
0000
0000
0001
0000
1000
0000
0000
1001
0000
0000
0000
,  // measure 39
0101
0000
0000
0000
1100
0000
0000
1000
0000
0001
0000
0000
1001
0000
0000
0000
,  // measure 40
0011
0000
0000
0000
1010
0000
0000
1000
0000
0001
0000
0000
1001
0000
0000
0000
,  // measure 41
1010
0000
0000
0000
0011
0000
0000
0001
0000
1000
0000
0000
0001
1000
0001
1000
,  // measure 42
0002
0000
0000
0000
,  // measure 43
0003
0000
0000
0000
;

//---------------dance-single - ----------------
#NOTES:
     dance-single:
     :
     Challenge:
     7:
     0.378,0.347,0.268,0.031,0.205: // measure 1
1100
0000
0000
0000
0001
0000
0100
0001
0000
1000
0000
0000
1001
0000
0000
0000
,  // measure 2
0001
0000
0000
0000
1000
0000
0010
1000
0000
0001
0000
0000
1001
0000
0000
0000
,  // measure 3
1000
0000
0000
0000
0001
0000
0010
0001
0000
1000
0000
0000
1001
0000
0000
0000
,  // measure 4
0001
0000
0000
0000
1000
0000
0100
1000
0000
0001
0100
0000
0001
0000
0100
0000
,  // measure 5
0110
0000
0001
0000
1000
0000
0000
0100
0000
1000
0000
0000
1001
0000
0000
0000
,  // measure 6
0110
0000
1000
0000
0001
0000
0000
0010
0000
0001
0000
0000
1001
0000
0000
0000
,  // measure 7
0110
0000
0001
0000
1000
0000
0000
0010
0000
1000
0000
0000
1001
0000
0000
0000
,  // measure 8
0110
0000
1000
0000
0001
0000
0000
0100
0000
0001
0000
0000
0100
0000
0001
0000
,  // measure 9
1100
0010
0100
2000
,  // measure 10
0001
3001
0100
0000
0001
0100
0001
0000
,  // measure 11
1000
1000
0100
0000
0010
0100
0010
0000
,  // measure 12
0001
0001
0010
0000
0100
0010
0100
0000
,  // measure 13
0011
0100
0010
0002
,  // measure 14
1000
1003
0010
0000
1000
0010
1000
0000
,  // measure 15
0001
0001
0010
0000
0100
0010
0100
0000
,  // measure 16
1000
1000
0100
0000
0010
0100
0010
0001
,  // measure 17
1000
0000
0010
0000
1000
0000
0010
0100
0000
0000
0100
0000
0001
0000
1000
0000
,  // measure 18
0001
0000
0100
0000
0001
0000
0100
0010
0000
0000
0010
0000
1000
0000
0001
0000
,  // measure 19
1000
0100
1000
0100
0010
0100
0010
0001
,  // measure 20
0010
0000
0001
0000
0010
0000
1000
0000
0100
0000
0001
0000
0100
0010
0100
0000
,  // measure 21
0001
0000
0100
0000
0001
0000
0100
0010
0000
0000
0010
0000
1000
0000
0001
0000
,  // measure 22
1000
0000
0010
0000
1000
0000
0010
0100
0000
0000
0100
0000
0001
0000
1000
0000
,  // measure 23
0001
0010
0001
0010
0100
0010
0100
1000
,  // measure 24
0110
0000
0001
0000
0100
0000
1000
0000
0100
0000
0001
0000
0100
0010
0100
0000
,  // measure 25
0110
0101
1010
0000
,  // measure 26
0110
1000
0100
0010
0001
0100
1000
0100
,  // measure 27
0001
0100
0010
1000
0001
0010
1000
0010
,  // measure 28
0001
0010
0100
1000
0100
0001
0100
0010
,  // measure 29
0001
0000
1000
0000
0100
0000
0010
0000
0100
1000
0100
1000
0001
0000
0000
0000
,  // measure 30
0110
0001
0010
0100
1000
0100
0001
0100
,  // measure 31
1000
0010
0100
0001
1000
0010
0001
0010
,  // measure 32
1000
0010
0100
0001
0100
1000
0100
0010
,  // measure 33
1000
0000
0001
0000
0010
0000
0100
0000
0010
0000
0001
0000
0100
0001
0100
0001
,  // measure 34
1000
0100
0000
0000
1100
0000
0001
0100
0000
0001
0000
0000
1001
0000
0000
0000
,  // measure 35
0001
0010
0000
0000
0011
0000
1000
0010
0000
1000
0000
0000
1001
0000
0000
0000
,  // measure 36
0100
0001
0000
0000
0101
0000
0010
1000
0000
0001
0000
0000
1001
0000
0000
0000
,  // measure 37
0010
1000
0000
0000
1010
0000
0100
0001
0000
1000
0010
0000
0100
0000
0010
0000
,  // measure 38
0100
0001
0000
0000
1001
0000
0100
1000
0000
1000
0001
0000
0101
0000
0000
0000
,  // measure 39
0010
1000
0000
0000
1001
0000
0010
0001
0000
0001
1000
0000
1010
0000
0000
0000
,  // measure 40
0100
0001
0000
0000
1001
0000
0100
1000
0000
1000
0010
0000
0101
0000
0000
0000
,  // measure 41
0010
1000
0000
0000
1001
0000
0010
0001
0000
0001
0100
0000
0010
1000
0010
1000
,  // measure 42
2002
0000
0000
0000
,  // measure 43
3003
0000
0000
0000
;

//---------------dance-single - ----------------
#NOTES:
     dance-single:
     :
     Beginner:
     1:
     0.046,0.065,0.039,0.000,0.000: // measure 1
0000
0000
0000
0000
,  // measure 2
0000
0000
0000
0000
,  // measure 3
0000
0000
0000
0000
,  // measure 4
0000
0000
0000
0000
,  // measure 5
1000
0000
0000
0000
,  // measure 6
1000
0000
0000
0000
,  // measure 7
0001
0000
0000
0000
,  // measure 8
0001
0000
0000
0000
,  // measure 9
1001
0000
0000
0000
,  // measure 10
1000
0000
0000
0000
,  // measure 11
1000
0000
0000
0000
,  // measure 12
0001
0000
0000
0000
,  // measure 13
0001
0000
0000
0000
,  // measure 14
1000
0000
0000
0000
,  // measure 15
1000
0000
0000
0000
,  // measure 16
0001
0000
0000
0000
,  // measure 17
0001
0000
0000
0000
,  // measure 18
0000
0000
0000
0000
,  // measure 19
1000
0000
0000
0000
,  // measure 20
0000
0000
0000
0000
,  // measure 21
0001
0000
0000
0000
,  // measure 22
1000
0000
0000
0000
,  // measure 23
0001
0000
0000
0000
,  // measure 24
0001
0000
0000
0000
,  // measure 25
1000
0000
0000
0000
,  // measure 26
1001
0000
0000
0000
,  // measure 27
0100
0000
0000
0000
,  // measure 28
0100
0000
0000
0000
,  // measure 29
0100
0000
0000
0000
,  // measure 30
1001
0000
0000
0000
,  // measure 31
0010
0000
0000
0000
,  // measure 32
0010
0000
0000
0000
,  // measure 33
0010
0000
0000
0000
,  // measure 34
1001
0000
0000
0000
,  // measure 35
1000
0000
0000
0000
,  // measure 36
0001
0000
0000
0000
,  // measure 37
1000
0000
0000
0000
,  // measure 38
0010
0000
0000
0000
,  // measure 39
0100
0000
0000
0000
,  // measure 40
0001
0000
0000
0000
,  // measure 41
1000
0000
0000
0000
,  // measure 42
1001
0000
0000
0000
;
