#TITLE:無限軌道ゲームミックス;
#SUBTITLE:;
#ARTIST:D-crew+1;
#TITLETRANSLIT:MUGEN KIDOU game mix;
#SUBTITLETRANSLIT:;
#ARTISTTRANSLIT:;
#CREDIT:DMAxel;
#BANNER:MUGEN KIDOU game mix.png;
#BACKGROUND:MUGEN KIDOU game mix-bg.png;
#LYRICSPATH:;
#CDTITLE:pop'n music.png;
#MUSIC:MUGEN KIDOU game mix.mp3;
#OFFSET:-10.820;
#SAMPLESTART:17.757;
#SAMPLELENGTH:12.000;
#SELECTABLE:YES;
#BPMS:0.000=138.000,16.000=142.000,48.000=143.000;
#STOPS:;
#BGCHANGES:;

//---------------dance-single - ----------------
#NOTES:
     dance-single:
     :
     Easy:
     2:
     0.113,0.159,0.047,0.008,0.000: // measure 1
0001
0000
0000
0000
,  // measure 2
1000
0000
0000
0000
,  // measure 3
0001
0000
0000
0000
,  // measure 4
1001
0000
0000
0000
,  // measure 5
1000
0000
0010
0000
,  // measure 6
1000
0000
0010
0000
,  // measure 7
1000
0000
0001
0000
,  // measure 8
1000
0000
0001
0000
,  // measure 9
0100
0000
0001
0000
,  // measure 10
0100
0000
0001
0000
,  // measure 11
1000
0000
0001
0000
,  // measure 12
1001
0000
0000
0000
,  // measure 13
1001
0000
0000
0000
,  // measure 14
0010
0000
0000
0000
,  // measure 15
0001
0000
0000
0000
,  // measure 16
1000
0000
0000
0000
,  // measure 17
0100
0000
0000
0000
,  // measure 18
1000
0000
0000
0000
,  // measure 19
0001
0000
0000
0000
,  // measure 20
1000
0001
1000
0001
,  // measure 21
1000
0000
0000
0000
,  // measure 22
0010
0000
0000
0000
,  // measure 23
0100
0000
0000
0000
,  // measure 24
0010
0000
0000
0000
,  // measure 25
1000
0000
0000
0000
,  // measure 26
0100
0000
0000
0000
,  // measure 27
0010
0000
0000
0000
,  // measure 28
0001
0000
0000
0000
,  // measure 29
1001
0000
0000
0000
,  // measure 30
1000
0000
0000
0000
,  // measure 31
1000
0000
0000
0000
,  // measure 32
1000
0000
0000
0000
,  // measure 33
0001
0000
0000
0000
,  // measure 34
0001
0000
0000
0000
,  // measure 35
0001
0000
0000
0000
,  // measure 36
0010
0000
0000
0000
,  // measure 37
0100
0000
0000
0000
,  // measure 38
1000
0000
0000
0000
,  // measure 39
0100
0000
0000
0000
,  // measure 40
1000
0000
0000
0000
,  // measure 41
1001
0000
0000
0000
,  // measure 42
0010
0000
0000
0000
,  // measure 43
0001
0000
0000
0000
,  // measure 44
0010
0000
0000
0000
,  // measure 45
0100
0000
0000
0000
,  // measure 46
1000
0000
0000
0000
,  // measure 47
0001
0000
0000
0000
,  // measure 48
1000
0000
0000
0000
,  // measure 49
0010
0000
0000
0000
,  // measure 50
0100
0000
0000
0000
,  // measure 51
0010
0000
0000
0000
,  // measure 52
1000
0000
0000
0000
,  // measure 53
1001
0000
0010
0000
,  // measure 54
0001
0000
0010
0000
,  // measure 55
0100
0000
1000
0000
,  // measure 56
0100
0000
1000
0000
,  // measure 57
0001
0000
1000
0000
,  // measure 58
0001
0000
0100
0000
,  // measure 59
0001
0000
0100
0000
,  // measure 60
0020
0000
0000
0000
,  // measure 61
0130
0000
1000
0000
,  // measure 62
0010
0000
1000
0000
,  // measure 63
0001
0000
0100
0000
,  // measure 64
0001
0000
0100
0000
,  // measure 65
0010
0000
0100
0000
,  // measure 66
0010
0000
1000
0000
,  // measure 67
0001
0000
1000
0000
,  // measure 68
0001
0000
1000
0000
,  // measure 69
0010
0000
0000
0000
;

//---------------dance-single - ----------------
#NOTES:
     dance-single:
     :
     Hard:
     7:
     0.525,0.503,0.718,0.055,0.020: // measure 1
1000
0100
0010
0001
,  // measure 2
0110
0000
1000
0000
0001
0000
1000
0001
,  // measure 3
1000
0000
0100
0000
0010
0001
0010
0000
,  // measure 4
0001
1000
0001
1000
0001
0000
0001
0000
,  // measure 5
0011
0000
0100
1000
0001
0100
0001
0000
,  // measure 6
1100
0000
0010
0001
1000
0010
1010
0000
,  // measure 7
1001
0000
0101
0000
0010
1000
0001
0010
,  // measure 8
0100
1000
0001
0010
0100
1000
0001
0000
,  // measure 9
1010
0000
0100
0001
1000
0100
1000
0000
,  // measure 10
0101
0000
0010
1000
0001
0010
0011
0000
,  // measure 11
1001
0000
1100
0000
0010
0001
1000
0010
,  // measure 12
1000
0001
1000
0001
1000
0000
1000
0000
,  // measure 13
1001
0000
0100
1000
0000
0001
0000
0001
,  // measure 14
0100
0000
1000
0001
0000
1001
0000
0100
,  // measure 15
1000
0001
0010
0100
1000
0001
0000
0100
,  // measure 16
0001
0000
1000
0000
0001
0010
0100
1000
,  // measure 17
1001
0000
0100
0001
0000
1000
0000
1000
,  // measure 18
0100
0000
0001
1000
0000
1001
0000
0010
,  // measure 19
0001
1000
0100
0010
0001
1000
0000
0010
,  // measure 20
1000
0001
0001
0000
0100
0001
1000
1000
,  // measure 21
1002
0000
0000
0010
0000
0013
0000
0000
,  // measure 22
2010
0000
0000
0001
0000
3001
0000
0000
,  // measure 23
2001
0000
0000
0100
0000
3100
0000
0000
,  // measure 24
0102
0000
0000
1000
0000
1003
0000
0100
,  // measure 25
2001
0000
0000
0001
0000
3001
0100
0010
,  // measure 26
2000
0000
0001
0000
3001
0100
0000
0000
,  // measure 27
1002
0000
0000
0000
0000
0000
0000
1000
0000
1003
0000
0000
0000
0000
0000
0000
,  // measure 28
1001
0000
0000
1100
0000
1100
0000
0001
,  // measure 29
1000
1000
1000
1000
,  // measure 30
1001
0000
0001
0000
1000
1010
0000
0001
,  // measure 31
1001
0001
0001
0001
,  // measure 32
1001
0000
1000
0010
0000
0100
0000
0001
,  // measure 33
1001
0000
0100
1000
0100
0000
0010
0001
,  // measure 34
1000
0000
0010
0100
0010
1010
0000
0000
,  // measure 35
1001
0000
0010
0001
0010
0000
0100
1000
,  // measure 36
0001
0010
0100
1000
0001
0100
0001
1000
,  // measure 37
1001
0000
1100
0000
0001
0010
0100
0010
,  // measure 38
0001
0000
1000
0100
0000
1001
0000
0100
,  // measure 39
1001
0000
0011
0000
1000
0100
0010
0100
,  // measure 40
1000
0000
0001
0010
0000
1001
0000
0010
,  // measure 41
1001
0000
1010
0000
0100
0001
0010
0100
,  // measure 42
0010
0000
0001
1000
0000
1001
0000
0100
,  // measure 43
1001
0000
0101
0000
0010
1000
0100
0010
,  // measure 44
0100
1000
0001
0001
0100
0001
1000
1000
,  // measure 45
1001
0000
0100
1000
0010
0000
0100
0001
,  // measure 46
0010
0000
0100
1000
0001
1001
0000
0010
,  // measure 47
1010
0000
0010
1000
0001
0000
0010
0001
,  // measure 48
0100
0000
0000
1010
0000
0100
0001
1000
,  // measure 49
1001
0000
0100
1000
0010
0000
0100
0001
,  // measure 50
0010
0100
1000
0001
0000
0011
0000
1000
,  // measure 51
1001
0000
0010
0001
0100
0000
0010
1000
,  // measure 52
0100
0010
0001
1000
0001
0100
0010
1000
,  // measure 53
1001
1010
0110
1010
,  // measure 54
1001
0000
0100
0001
1000
0100
1000
0001
,  // measure 55
1001
0101
0110
0101
,  // measure 56
1001
0000
0010
1000
0001
0010
0001
1000
,  // measure 57
1001
1100
0110
1100
,  // measure 58
1001
0000
0010
0001
1000
0010
1000
0001
,  // measure 59
1001
0011
0110
0011
,  // measure 60
1001
0000
0100
1000
0001
0100
0001
1000
,  // measure 61
1001
0110
1001
0110
,  // measure 62
1001
0010
0100
1000
0001
0101
0000
0000
,  // measure 63
1001
0110
1001
0110
,  // measure 64
1001
0100
0010
0001
1000
1010
0000
0001
,  // measure 65
1001
1100
0101
1100
,  // measure 66
1001
0010
0100
1000
0001
0101
0000
1000
,  // measure 67
1001
0011
1010
0011
,  // measure 68
1001
0000
0100
0000
0010
0100
0000
0000
1000
0000
0000
0001
0000
0001
0100
0000
;

//---------------dance-single - ----------------
#NOTES:
     dance-single:
     :
     Challenge:
     8:
     0.591,0.530,0.421,0.031,0.160: // measure 1
1100
0010
0100
1000
,  // measure 2
0011
0000
0000
0000
0100
0000
0000
0000
0010
0000
0000
0001
1000
0000
1000
0000
,  // measure 3
0001
0000
0010
0000
0100
0010
0100
0010
,  // measure 4
0200
1000
1000
1300
,  // measure 5
1001
0100
0010
0001
0100
1000
0100
0001
,  // measure 6
1001
0000
0100
0000
0010
0000
0001
0000
0100
0000
0000
0010
1000
0000
0001
0000
,  // measure 7
0001
0100
0001
0100
0001
1000
0010
1000
,  // measure 8
0001
0000
0010
0000
0100
0000
0010
0000
0001
0000
0000
0100
0001
0000
1000
0000
,  // measure 9
1001
0010
0100
1000
0100
0001
0100
1000
,  // measure 10
1001
0000
0100
0000
0010
0000
0001
0000
0100
0000
0000
0010
1000
0000
0001
0000
,  // measure 11
0001
0010
0001
0100
0010
1000
0010
1000
,  // measure 12
0010
0100
0010
0100
0010
0100
0010
0000
,  // measure 13
1100
0000
0001
1000
0000
1000
0001
0010
,  // measure 14
0100
0000
1000
0001
0000
0011
0000
1000
,  // measure 15
0001
0010
0100
1000
0010
0110
0000
1000
,  // measure 16
0001
0000
0000
0100
0001
0000
1000
0000
1000
0000
0001
0000
0010
0000
0100
0000
,  // measure 17
1001
0000
1000
0001
0000
0001
1000
0100
,  // measure 18
0010
0000
0001
1000
0000
1100
0000
0001
,  // measure 19
1000
0000
0100
0000
0010
0000
0001
0100
0000
0100
0010
0000
0000
0000
1000
0000
,  // measure 20
0001
0000
0100
0000
0001
1000
0000
0000
0100
0000
1000
0001
0000
0001
0000
0000
,  // measure 21
1001
0000
0010
2000
0000
0001
3001
0100
,  // measure 22
0110
0000
1000
0001
0000
0101
0000
0000
,  // measure 23
1001
0000
0100
0002
0000
1000
1003
0010
,  // measure 24
0110
0000
0000
0000
1000
0000
0001
0000
0100
0010
0100
0010
0100
0000
0000
0000
,  // measure 25
1001
0000
0010
0002
0000
1000
1003
0010
,  // measure 26
0110
0000
0001
1000
0010
1010
0000
0000
,  // measure 27
1001
0000
0000
0000
0000
0000
0000
0100
0000
0001
1000
0000
0000
0000
0001
0000
,  // measure 28
0100
0000
0001
0000
1000
0100
1000
0000
0010
0000
0100
0000
0001
0000
0000
0000
,  // measure 29
1001
0100
0100
0100
,  // measure 30
0100
0001
0010
0100
1000
0001
0010
0100
,  // measure 31
1001
0010
0010
0010
,  // measure 32
0010
0000
1000
0000
0100
0000
0010
0000
0001
1000
0001
0000
0010
0000
0100
0000
,  // measure 33
1001
0000
1000
0010
0100
0000
0001
1000
,  // measure 34
1000
0000
0001
0100
0010
1010
0000
0000
,  // measure 35
1001
0000
0000
0000
1000
0000
0000
0001
0000
0100
0001
0000
1000
0000
0100
0000
,  // measure 36
0010
0000
0001
0000
1000
0001
1000
0000
0010
0000
0100
0001
0000
0001
1000
0000
,  // measure 37
1001
0000
0101
0000
1000
0100
0001
0100
,  // measure 38
1100
0000
0001
1000
0000
1100
0000
0001
,  // measure 39
1001
0000
1100
0000
0001
0100
1000
0100
,  // measure 40
0101
0000
1000
1001
0000
0101
0000
1000
,  // measure 41
1001
0000
0011
0000
0100
1000
0001
0100
,  // measure 42
1100
0000
0001
1000
0000
1100
0000
0001
,  // measure 43
1001
0000
0000
0000
0001
0000
0000
1000
0000
0010
1000
0000
0000
0000
0001
0000
,  // measure 44
1000
0000
0100
0000
1000
0001
1000
0000
0001
0000
0100
0001
0000
0001
1000
0000
,  // measure 45
1001
0000
1100
0000
0010
0001
1000
0010
,  // measure 46
0011
0000
1000
0001
0000
0011
0000
1000
,  // measure 47
1001
0000
0101
0000
0010
1000
0001
0100
,  // measure 48
1100
0000
0001
0101
0000
1000
0100
0010
,  // measure 49
1001
0000
1010
0000
0100
0001
1000
0010
,  // measure 50
0011
0000
1000
1000
0001
0101
0000
1000
,  // measure 51
1001
0000
0000
0000
1000
0000
0000
0001
0000
0100
0001
0000
0000
0000
1000
0000
,  // measure 52
0001
0000
0010
0000
0001
1000
0001
0000
1000
0000
0010
1000
0000
1000
0001
0000
,  // measure 53
1001
0100
0010
0001
0100
0010
1000
0100
,  // measure 54
0001
0100
1000
0100
0010
1000
0001
0010
,  // measure 55
0100
0010
0100
1000
0010
0100
0001
0100
,  // measure 56
1000
0100
0001
0100
0010
0001
1000
0100
,  // measure 57
0010
0100
0010
0001
0100
0010
1000
0100
,  // measure 58
0001
0100
1000
0100
0010
1000
0001
0010
,  // measure 59
0100
0010
0100
1000
0001
0100
1000
0100
,  // measure 60
0001
0000
0100
0000
0010
0001
0010
0000
0100
0000
1000
0010
0000
0010
0100
0000
,  // measure 61
1001
0010
0100
1000
0001
0100
0010
0100
,  // measure 62
0001
0010
1000
0010
0001
1000
0100
0001
,  // measure 63
1000
0100
0010
0001
1000
0010
0100
0010
,  // measure 64
1000
0000
0001
0000
0010
0000
1000
0000
0010
0100
0010
0000
1000
0000
0100
0000
,  // measure 65
0001
0100
0010
1000
0100
0001
0100
1000
,  // measure 66
0001
0000
0010
0000
0100
0000
0001
0000
1000
0000
0100
0000
0010
0001
0010
0000
,  // measure 67
0001
0000
0100
0000
0010
0000
1000
0001
0000
0001
1000
0000
0100
0000
0010
0000
,  // measure 68
0001
0000
0100
0000
0010
1000
0010
0000
0100
0000
0001
1000
0000
1000
0100
0000
;

//---------------dance-single - ----------------
#NOTES:
     dance-single:
     :
     Beginner:
     1:
     0.075,0.106,0.031,0.000,0.000: // measure 1
1000
0000
0000
0000
,  // measure 2
0001
0000
0000
0000
,  // measure 3
1000
0000
0000
0000
,  // measure 4
0001
0000
0000
0000
,  // measure 5
0100
0000
0000
0000
,  // measure 6
0100
0000
0000
0000
,  // measure 7
0000
0000
0000
0000
,  // measure 8
0000
0000
0000
0000
,  // measure 9
0010
0000
0000
0000
,  // measure 10
0010
0000
0000
0000
,  // measure 11
0000
0000
0000
0000
,  // measure 12
1001
0000
0000
0000
,  // measure 13
1000
0000
0000
0000
,  // measure 14
0000
0000
0000
0000
,  // measure 15
0100
0000
0000
0000
,  // measure 16
0000
0000
0000
0000
,  // measure 17
1000
0000
0000
0000
,  // measure 18
0000
0000
0000
0000
,  // measure 19
0001
0000
0000
0000
,  // measure 20
0010
0000
0000
0000
,  // measure 21
1001
0000
0000
0000
,  // measure 22
1000
0000
0000
0000
,  // measure 23
0001
0000
0000
0000
,  // measure 24
1000
0000
0000
0000
,  // measure 25
0010
0000
0000
0000
,  // measure 26
0100
0000
0000
0000
,  // measure 27
0010
0000
0000
0000
,  // measure 28
0100
0000
0000
0000
,  // measure 29
1001
0000
0000
0000
,  // measure 30
0010
0000
0000
0000
,  // measure 31
0100
0000
0000
0000
,  // measure 32
1000
0000
0000
0000
,  // measure 33
0010
0000
0000
0000
,  // measure 34
0100
0000
0000
0000
,  // measure 35
0001
0000
0000
0000
,  // measure 36
0010
0000
0000
0000
,  // measure 37
1001
0000
0000
0000
,  // measure 38
1000
0000
0000
0000
,  // measure 39
0100
0000
0000
0000
,  // measure 40
1000
0000
0000
0000
,  // measure 41
0001
0000
0000
0000
,  // measure 42
0010
0000
0000
0000
,  // measure 43
0001
0000
0000
0000
,  // measure 44
0100
0000
0000
0000
,  // measure 45
0001
0000
0000
0000
,  // measure 46
0100
0000
0000
0000
,  // measure 47
0001
0000
0000
0000
,  // measure 48
1000
0000
0000
0000
,  // measure 49
0010
0000
0000
0000
,  // measure 50
1000
0000
0000
0000
,  // measure 51
0010
0000
0000
0000
,  // measure 52
0100
0000
0000
0000
,  // measure 53
0010
0000
0000
0000
,  // measure 54
0010
0000
0000
0000
,  // measure 55
0100
0000
0000
0000
,  // measure 56
0100
0000
0000
0000
,  // measure 57
0001
0000
0000
0000
,  // measure 58
0001
0000
0000
0000
,  // measure 59
1000
0000
0000
0000
,  // measure 60
1000
0000
0000
0000
,  // measure 61
0010
0000
0000
0000
,  // measure 62
0010
0000
0000
0000
,  // measure 63
1000
0000
0000
0000
,  // measure 64
0001
0000
0000
0000
,  // measure 65
1000
0000
0000
0000
,  // measure 66
0010
0000
0000
0000
,  // measure 67
1000
0000
0000
0000
,  // measure 68
0001
0000
0000
0000
,  // measure 69
0100
0000
0000
0000
;

//---------------dance-single - ----------------
#NOTES:
     dance-single:
     :
     Medium:
     5:
     0.337,0.369,0.328,0.031,0.000: // measure 1
0001
0001
0001
0001
,  // measure 2
1000
1000
1000
1001
,  // measure 3
0001
0100
0010
1000
,  // measure 4
2002
0000
0000
3003
,  // measure 5
1000
0010
0010
0100
,  // measure 6
0001
0100
0100
0010
,  // measure 7
1000
0100
0010
0001
,  // measure 8
0010
0100
1000
0100
,  // measure 9
0100
0010
0001
0001
,  // measure 10
0010
0100
0100
1000
,  // measure 11
0100
0010
0001
0100
,  // measure 12
2002
0000
0000
3003
,  // measure 13
1001
0000
0000
0010
0000
0001
0010
0000
,  // measure 14
0001
0000
0000
1000
0000
0010
0000
0000
,  // measure 15
1000
0000
0100
0000
0010
0000
0000
0001
,  // measure 16
0001
0010
0100
1000
,  // measure 17
0100
0000
0000
1000
0000
0010
1000
0000
,  // measure 18
0010
0000
0000
1000
0000
0001
0000
0000
,  // measure 19
1000
0000
0100
0000
0010
0000
0000
0001
,  // measure 20
0001
0100
0010
0100
,  // measure 21
0101
0000
0000
0010
0000
0000
0000
0000
,  // measure 22
0101
0000
0000
0100
0000
0000
0000
0000
,  // measure 23
1010
0000
0000
0100
0000
0000
0000
0000
,  // measure 24
1010
0000
0000
1000
0000
0000
0000
0000
,  // measure 25
1100
0000
0000
1000
0000
0000
0000
0000
,  // measure 26
1100
0000
0000
0000
0000
0001
0000
0000
,  // measure 27
0011
0000
0000
0001
0000
0000
0000
0000
,  // measure 28
0011
0000
0000
0100
0000
1000
0000
0000
,  // measure 29
1001
0000
0010
0000
,  // measure 30
1001
0000
0100
0000
,  // measure 31
1010
0000
0010
0000
,  // measure 32
0101
0000
0100
0000
,  // measure 33
1001
0010
0001
0010
,  // measure 34
0001
1000
0100
1000
,  // measure 35
0100
1000
0010
1000
,  // measure 36
0010
0100
0001
0100
,  // measure 37
0001
1000
0001
1000
,  // measure 38
1001
0010
1000
0010
,  // measure 39
1000
0010
0100
0010
,  // measure 40
0100
0001
1000
0001
,  // measure 41
1001
0010
0001
0010
,  // measure 42
0001
1000
0100
1000
,  // measure 43
0100
0010
0001
0100
,  // measure 44
0010
0100
0010
0000
1000
0001
1000
0000
,  // measure 45
0110
0001
1000
0001
,  // measure 46
1000
0010
0100
0010
,  // measure 47
0100
0001
0100
0001
,  // measure 48
0100
0010
1000
0010
,  // measure 49
1000
0100
0010
0001
,  // measure 50
0100
0010
1000
0010
,  // measure 51
0110
1000
0100
1000
,  // measure 52
0010
0100
0010
0000
1000
0001
1000
0000
,  // measure 53
1001
0010
0101
0010
,  // measure 54
0101
0000
1000
0100
0010
0100
0000
0000
,  // measure 55
1001
0100
1010
0100
,  // measure 56
1010
0000
0001
0010
0100
0010
0000
0000
,  // measure 57
1001
0100
0011
0100
,  // measure 58
0011
0000
1000
0100
0010
0100
0000
0000
,  // measure 59
1001
0010
1100
0010
,  // measure 60
0100
1000
0100
0000
1000
0001
1000
0000
,  // measure 61
1001
0010
1100
0010
,  // measure 62
1100
0000
0001
0010
0100
0010
0000
0000
,  // measure 63
1001
1000
0110
0001
,  // measure 64
0110
0000
1000
0100
0010
0100
0000
0000
,  // measure 65
1001
0001
0110
1000
,  // measure 66
0110
0000
0001
0010
0100
0010
0000
0000
,  // measure 67
1001
0000
0100
0010
1000
0000
1000
0000
,  // measure 68
1000
0010
0100
0001
0010
0100
0000
0000
;
