#TITLE:MOBO★MOGA;
#SUBTITLE:(FROM NONSTOP MEGAMIX);
#ARTIST:Remixed by WALL5;
#TITLETRANSLIT:MOBO MOGA;
#SUBTITLETRANSLIT:;
#ARTISTTRANSLIT:;
#CREDIT:DMAxel;
#BANNER:MOBO MOGA (FROM NONSTOP MEGAMIX).png;
#BACKGROUND:MOBO MOGA (FROM NONSTOP MEGAMIX)-bg.png;
#LYRICSPATH:MOBO MOGA (FROM NONSTOP MEGAMIX).lrc;
#CDTITLE:Konami original REMIX.png;
#MUSIC:MOBO MOGA (FROM NONSTOP MEGAMIX).mp3;
#OFFSET:-0.280;
#SAMPLESTART:39.000;
#SAMPLELENGTH:11.960;
#SELECTABLE:YES;
#BPMS:0.000=172.000,208.000=86.000,212.000=172.000,213.000=86.000,214.000=172.000,219.000=86.000,223.000=172.000,231.000=86.000,247.000=172.000;
#STOPS:;
#BGCHANGES:;

//---------------dance-single - ----------------
#NOTES:
     dance-single:
     :
     Easy:
     4:
     0.308,0.360,0.331,0.129,0.000: // measure 1
0000
0000
0000
0000
,  // measure 2
0000
0000
0000
0000
,  // measure 3
0000
0000
0000
0000
,  // measure 4
0000
0000
0000
0000
,  // measure 5
1000
0001
1000
0000
,  // measure 6
0010
0100
0010
0000
,  // measure 7
1000
1000
0001
0001
,  // measure 8
0010
0100
1100
0000
,  // measure 9
1002
0000
0000
0000
,  // measure 10
0100
0000
0000
0000
,  // measure 11
2003
0000
0000
0000
,  // measure 12
0010
0000
0000
0000
,  // measure 13
3010
0000
0100
0000
,  // measure 14
0010
0000
0100
0000
,  // measure 15
0001
0000
1000
0000
,  // measure 16
0001
0000
1000
0000
,  // measure 17
0100
0000
0010
0000
,  // measure 18
0001
0000
0100
0000
,  // measure 19
0020
0000
0000
0000
,  // measure 20
0230
0000
0000
0000
,  // measure 21
0301
0010
0001
0000
,  // measure 22
0100
0010
1000
0100
,  // measure 23
1000
0010
0100
0000
,  // measure 24
0001
0001
0010
0010
,  // measure 25
0001
1000
0100
0000
,  // measure 26
1000
0010
0100
0010
,  // measure 27
1001
0000
0110
0000
,  // measure 28
2002
0000
0000
3003
,  // measure 29
0010
0100
0001
0010
,  // measure 30
0000
0010
0001
0100
,  // measure 31
0000
0100
0010
1000
,  // measure 32
0000
1000
0010
0100
,  // measure 33
0000
0100
0010
1000
,  // measure 34
0000
0010
0100
0001
,  // measure 35
0000
0001
0100
0010
,  // measure 36
0000
0000
1000
0000
0001
1000
0001
0000
,  // measure 37
1001
0000
0110
0000
,  // measure 38
1001
0000
0010
0001
,  // measure 39
1001
0000
0110
0000
,  // measure 40
1001
0000
0010
0100
,  // measure 41
1001
0000
0110
0000
,  // measure 42
1001
0000
0100
0100
,  // measure 43
1001
0000
0110
0000
,  // measure 44
2002
0000
0000
3003
,  // measure 45
0010
0010
0100
0001
,  // measure 46
0010
0100
1000
0100
,  // measure 47
0100
1000
0100
0010
,  // measure 48
0001
1000
0001
0000
1001
0000
0000
0000
,  // measure 49
0100
0000
0000
0110
0000
0000
1000
0000
,  // measure 50
0001
0000
0100
0000
0000
0100
0000
0000
,  // measure 51
0001
1000
0001
0010
,  // measure 52
1000
0001
1000
0100
,  // measure 53
2002
0000
0000
0000
,  // measure 54
3003
0110
0110
0001
,  // measure 55
0001
0010
0100
1000
,  // measure 56
0100
1000
0001
0100
,  // measure 57
0100
0100
0001
0010
,  // measure 58
0100
1000
0010
1000
,  // measure 59
0100
1000
0001
0001
,  // measure 60
0010
0110
0000
1010
,  // measure 61
0000
1010
0000
0000
0001
0000
0101
0000
,  // measure 62
0000
0101
0000
0000
1001
0000
0010
0000
,  // measure 63
0100
0010
1000
0100
,  // measure 64
0010
1001
0000
0100
,  // measure 65
0010
0100
0001
0010
,  // measure 66
0100
1001
1000
0010
,  // measure 67
0000
0000
0000
0220
,  // measure 68
0000
0000
0330
1001
,  // measure 69
0000
0000
0000
0220
,  // measure 70
0000
0000
0330
1001
,  // measure 71
0000
0011
0000
1000
,  // measure 72
0100
1001
0000
0000
;

//---------------dance-single - ----------------
#NOTES:
     dance-single:
     :
     Hard:
     8:
     0.529,0.589,0.303,0.285,0.050:
0000
0000
0000
0000
,
0000
0000
0000
0000
,
0000
0000
0000
0000
,
0000
0000
0000
0000
,
0010
2000
0000
0000
3100
0000
0000
0000
,
0100
0002
0000
0000
0013
0000
0000
0000
,
0101
0000
0101
0000
0100
1000
0100
0000
,
1000
0100
0010
0000
0001
0100
0001
0000
,
1001
0000
0001
0000
0001
1000
0000
0010
,
0000
0000
1000
0000
0001
1000
0000
0000
,
1000
0000
1000
0000
1000
0001
0000
0100
,
0000
0000
0001
0000
1000
0001
0000
0000
,
1001
0000
0010
0000
0010
1000
0000
0001
,
0000
0010
0000
1000
0000
0010
0000
0000
,
0001
0000
0100
0000
0100
0001
0000
1000
,
0000
0100
0000
0001
0000
0100
0000
0000
,
1001
0000
0010
0000
0010
1000
0000
1000
,
0001
1000
0000
0100
0000
0101
0000
0000
,
2002
0000
0000
3003
,
0220
0000
0000
0330
,
0020
0000
1030
0001
0100
0000
0001
1000
,
0100
0000
1000
0001
0100
0000
0110
0000
,
0020
0000
0031
1000
0100
0000
1000
0001
,
0100
0000
0101
0000
1000
0100
1000
0100
,
1000
0001
0100
0001
0100
1000
0000
0001
,
0010
0001
0010
1000
0100
0001
1000
0100
,
0202
0303
2020
3030
,
2002
0000
0000
3003
,
0010
0000
1000
0001
0100
0010
1000
0000
,
0010
0000
1000
0010
0001
0010
1000
0000
,
0100
0000
1000
0100
0010
0001
1000
0000
,
0100
0000
1000
0001
0010
0001
0100
0000
,
0010
0000
0001
1000
0100
0010
0001
0000
,
0010
0000
0001
0010
1000
0010
0001
0000
,
0100
0000
0001
0100
0010
1000
0001
0000
,
0100
0000
0000
0000
0001
0000
1000
0000
0001
0100
0001
0000
0000
0000
0000
0000
,
1001
0000
0100
0001
1000
0000
0100
0001
,
1000
0000
0001
0010
0100
1000
0000
0000
,
1001
0000
0010
1000
0001
0000
0010
1000
,
0001
0000
1000
0100
0010
0001
0000
0000
,
1001
0000
0100
0001
1000
0000
0100
0001
,
1000
0000
0001
0010
1000
0000
1000
0000
,
0220
0330
2002
3003
,
0220
0000
0000
0330
,
0001
0000
1000
0100
0001
0010
0100
1000
,
0001
0000
1000
0100
0001
0010
0100
1000
,
0001
0000
1000
0010
0000
0001
0100
0000
,
1000
1000
1000
1000
1000
0000
1100
0000
,
1001
0000
0001
0010
0000
1000
0100
0010
,
0001
0000
0110
0000
0000
0110
0000
0000
,
0001
0000
1000
0100
0000
0001
0010
0100
,
1000
0000
0100
0000
0001
0100
1000
0000
,
1001
0000
1000
0100
1000
0000
0000
0000
0000
0100
0010
0000
0001
0000
0000
0000
,
0011
0000
0000
0000
1100
0000
0000
1000
0001
0000
0000
0000
0100
0000
0010
0000
,
1000
0000
0000
0000
1000
0000
0001
0000
0010
0000
0100
0000
1000
0000
0000
1000
,
0010
0000
0100
0000
0010
0000
1000
0000
0000
1001
0000
0000
0010
0000
0010
0000
,
0010
0001
0100
0000
0001
0100
1000
0100
,
0001
0000
0000
0000
1000
0000
0100
0000
0010
0000
0001
0000
1000
0000
0000
0010
,
1000
0000
0010
0000
0100
0000
0010
0000
1000
0000
0000
0000
0001
0000
0001
0010
,
0100
1000
0001
0010
0100
0000
0000
1001
0000
0000
0000
0000
0100
0000
1000
0000
,
0010
0001
0100
1000
0010
0001
1000
0100
,
0001
0010
1000
0100
0001
0100
0001
0010
,
0100
1000
0001
0010
0000
1000
0100
0001
,
0010
0100
1000
0010
0000
0000
1000
0100
,
0010
0001
1000
0100
0000
0001
0010
1000
,
0100
0010
0001
0100
0000
1000
0020
0000
,
0000
0000
0030
0220
,
0000
0000
0330
2002
,
0000
0000
3003
0202
,
0000
0000
0303
2020
,
3030
0000
0220
0000
0330
0000
0010
0001
,
0010
1000
0010
0000
0000
0000
0000
0000
;

//---------------dance-single - ----------------
#NOTES:
     dance-single:
     :
     Challenge:
     9:
     0.656,0.883,0.477,0.202,0.202:
0000
0000
0000
0000
,
0000
0000
0000
0000
,
0000
0000
0000
0000
,
0000
0000
0000
0000
,
1000
0000
0010
0000
0100
0000
0000
0001
0100
0000
0010
0000
0100
0000
0000
0000
,
0001
0000
0100
0000
0010
0000
0000
1000
0010
0000
0100
0000
0010
0000
0000
0000
,
1010
0000
1010
0000
0101
0100
1001
0000
,
0010
0000
0001
0000
0100
0000
0100
0000
0010
0100
0010
0000
1000
0000
0000
0000
,
1002
0000
0010
0000
0013
0100
0000
2000
,
0000
0000
0100
0000
3100
0010
0000
0001
,
2000
0000
0100
0000
3100
0010
0000
0002
,
0000
0000
0010
0000
0013
0100
0000
0000
,
1001
0000
1000
0010
0100
0000
0001
1000
,
0010
1000
0000
0100
0000
0001
1000
0000
,
1001
0000
0001
0100
0010
0000
1000
0001
,
0100
0001
0000
0100
0000
1000
0001
0000
,
1001
0000
1000
0010
1000
0100
0000
0001
,
0010
1000
0000
0100
0000
0101
0000
0000
,
1002
0000
0010
0010
0000
0100
0103
0000
,
2001
0000
0100
0100
0000
0010
3010
0000
,
1001
0000
1000
0010
0100
0001
1000
0100
,
0000
0001
0000
0010
0100
1000
0001
0000
,
1001
0000
0001
0100
0010
1000
0000
0001
,
0101
0000
0101
0000
1010
0010
1000
0001
,
1000
0000
0100
0000
1000
0000
0100
0000
0001
0010
0001
0000
0000
0000
0010
0000
,
0001
0000
0100
0000
1000
0000
0010
1000
0010
1000
0010
0000
1000
0000
0001
0000
,
0202
0303
0220
0330
,
2020
0000
0000
3030
,
1001
0000
0001
0100
0010
1000
0001
0000
,
0100
0001
0010
0100
1000
0001
0100
0000
,
0010
1000
0100
0010
0001
1000
0010
0000
,
1000
0001
0100
0010
1000
0001
0010
0000
,
0001
1000
0010
0100
0001
1000
0100
0000
,
1000
0100
0010
0001
0010
1000
0010
0000
,
0001
0010
0100
1000
0100
0001
0100
0000
,
1000
0000
0010
0000
0100
0000
0001
0000
0100
0010
0100
0010
0100
0000
0000
0000
,
1001
0000
0001
0001
0100
0000
1000
1000
,
0010
0000
0001
0001
0100
0000
0100
0000
,
1001
0000
1000
1000
0100
0000
0001
0001
,
0010
0000
1000
1000
0100
0000
0100
0000
,
1001
0000
0001
0001
0010
0000
1000
1000
,
0010
0100
0010
0000
0110
0000
0110
0000
,
2020
3030
0220
0330
,
0202
0000
0000
0000
0303
0000
0000
0000
0010
0000
0000
0010
1000
0000
0001
0000
,
1001
0000
0100
1000
0100
0001
0010
0100
,
1000
0001
0010
1000
0100
0010
0001
0010
,
0001
0000
1000
0010
0000
0000
1000
0000
0001
0100
0000
0000
0001
0000
1000
0000
,
0010
0010
0010
0010
0110
0000
0110
0000
,
1001
0000
1000
0100
0000
0001
0010
0100
,
1000
0001
0010
1000
0010
0011
0000
0000
,
0101
0000
0000
0000
0010
0000
1010
0000
0000
0000
0100
0010
0100
0000
0001
0000
,
1000
0010
0100
0000
0101
0000
0110
0000
,
1001
0000
0001
0010
0100
1000
0010
1000
0000
0010
0100
0000
0101
0000
0100
0010
,
0100
0000
0000
0000
1100
0000
0000
0010
0011
0000
0000
0000
0001
0000
0100
0000
,
0010
1000
0001
0010
1000
0010
0001
0100
,
0010
0000
1000
0001
0010
0000
0110
0000
0000
1010
0000
0000
1000
0000
0001
0000
,
1000
0100
1000
0100
1000
0000
0000
0000
0001
0000
0010
0000
0100
0000
1000
0000
,
0001
0000
1000
0010
0100
0001
1000
0010
,
0100
0000
0001
1000
0000
0100
0001
0000
0011
0000
0000
0000
0001
0000
0001
1000
,
0100
0010
0001
0010
1010
0000
0000
1001
0000
0000
0000
0000
1000
0100
0010
0001
,
0100
0000
1000
0100
0001
0100
1000
0000
0001
0100
0001
0100
0001
0010
0100
1000
,
0010
0000
0001
0010
1000
0010
0001
0000
1000
0010
1000
0010
1000
0000
0100
0000
,
0010
0001
1000
0010
0000
0001
0010
1000
,
0100
0010
0100
1000
0001
0000
0001
0010
,
0100
1000
0001
0100
0000
1000
0100
0001
,
0010
0100
0010
0001
1000
0010
0220
0000
,
0000
0000
0000
0000
0000
0000
0000
0000
0330
0000
0000
0000
0100
0000
0000
0001
,
0000
0000
0100
0000
0000
1000
0000
0000
0001
0000
0100
0000
0220
0000
0000
0000
,
0000
0000
0000
0000
0000
0000
0000
0000
0330
0000
0000
0000
0010
0000
0000
1000
,
0000
0000
0010
0000
0000
0001
0000
0000
1000
0000
0010
0000
0110
0000
0000
0000
,
1001
0000
0110
0000
1001
0000
0001
0010
,
1000
0100
0001
0000
0000
0000
0000
0000
;

//---------------dance-single - ----------------
#NOTES:
     dance-single:
     :
     Medium:
     6:
     0.453,0.556,0.376,0.110,0.005: // measure 1
0000
0000
0000
0000
,  // measure 2
0000
0000
0000
0000
,  // measure 3
0000
0000
0000
0000
,  // measure 4
0000
0000
0000
0000
,  // measure 5
1000
0100
0000
0000
1000
0100
0000
0000
,  // measure 6
1000
0001
0000
0000
1000
0001
0000
0000
,  // measure 7
0010
0000
0010
0000
0010
0001
0010
0000
,  // measure 8
0001
1000
0110
0000
,  // measure 9
1001
0000
1000
0000
1000
0010
0000
0000
,  // measure 10
0010
0100
0001
0000
,  // measure 11
0001
0000
0001
0000
0001
0100
0000
0000
,  // measure 12
0100
0010
1000
0000
,  // measure 13
0001
0100
0010
0100
,  // measure 14
0001
0100
1000
0100
,  // measure 15
0001
0100
0001
1000
,  // measure 16
0001
0010
1000
0010
,  // measure 17
0001
0100
0010
1000
,  // measure 18
0100
0001
0100
1000
,  // measure 19
2002
0000
0000
3003
,  // measure 20
0100
0000
0000
0100
0000
0000
0100
0000
,  // measure 21
1001
0000
1000
0000
0001
0100
0000
0010
,  // measure 22
0000
0100
0000
0010
0000
1000
0010
0000
,  // measure 23
1001
0000
0001
0000
1000
0010
0000
0100
,  // measure 24
0010
0000
0010
0000
0010
0100
0010
0000
,  // measure 25
1000
0100
1000
0100
1000
0100
0000
0000
,  // measure 26
1000
0010
1000
0000
0001
0010
0100
0000
,  // measure 27
1001
0000
0110
0000
,  // measure 28
2002
0000
0000
3003
,  // measure 29
0101
0000
1000
0000
0100
0010
0100
0000
,  // measure 30
1000
0000
0001
0000
0010
0100
0010
0000
,  // measure 31
0001
0000
1000
0000
0100
0010
0100
0000
,  // measure 32
1000
0000
0001
0000
0010
0100
0010
0000
,  // measure 33
1000
0100
1000
0000
0001
0100
0001
0000
,  // measure 34
0100
0010
0100
0000
0001
0100
0001
0000
,  // measure 35
1000
0100
1000
0000
0010
0100
0010
0000
,  // measure 36
1000
0001
1000
0000
0100
0010
0001
0000
,  // measure 37
1001
0000
1000
1000
1000
0000
0000
0010
,  // measure 38
0100
0001
1001
0110
,  // measure 39
1001
0000
0001
0001
0001
0000
0000
0100
,  // measure 40
0010
1000
1001
0110
,  // measure 41
1001
0000
0001
0001
0001
0000
0000
0100
,  // measure 42
0010
1000
1100
1100
,  // measure 43
1010
0000
0110
0000
,  // measure 44
2002
0000
0000
3003
,  // measure 45
0101
1000
0100
0001
,  // measure 46
0010
1000
0001
0010
,  // measure 47
0100
1000
0001
1000
,  // measure 48
0010
0010
0010
0010
0010
0000
0110
0000
,  // measure 49
1001
0000
0100
0001
0000
0001
0100
0000
,  // measure 50
0001
0000
1100
0000
0000
1100
0000
0000
,  // measure 51
1001
0000
0010
1000
0000
1000
0010
0000
,  // measure 52
1000
0100
1000
0000
0001
0000
0100
0000
,  // measure 53
0220
0000
0000
0330
,  // measure 54
0101
0000
0101
0000
1001
0000
1000
0010
,  // measure 55
1000
0000
0100
0010
0001
0010
0001
1000
,  // measure 56
0001
0000
0100
0000
0110
0000
0001
1000
,  // measure 57
0001
1000
0001
0000
0010
0000
0100
0000
,  // measure 58
1000
0000
0010
0000
1000
0000
1000
0001
,  // measure 59
1000
0000
0010
0000
0110
0000
0010
1000
,  // measure 60
0100
0000
0010
0000
0001
0000
0000
0011
0000
0000
0000
0000
0001
0000
0001
0000
,  // measure 61
0100
1000
1000
0010
0001
1000
0001
0001
,  // measure 62
0100
1000
1000
0010
0001
1000
0001
1000
,  // measure 63
0001
0000
0010
0100
0000
0100
0010
0000
,  // measure 64
0001
0000
0110
0000
1000
0000
1000
0001
,  // measure 65
1000
0000
0100
0010
0000
0010
0100
0000
,  // measure 66
1000
0110
0001
2002
,  // measure 67
0000
0000
3003
0010
,  // measure 68
0000
0010
0000
0000
0010
0000
2002
0000
,  // measure 69
0000
0000
3003
0100
,  // measure 70
0000
0100
0000
0000
0100
0000
1001
0000
,  // measure 71
0001
0000
0110
0000
1000
0000
0010
0010
,  // measure 72
0010
0010
0110
0000
0000
0000
0000
0000
;

//---------------dance-single - ----------------
#NOTES:
     dance-single:
     :
     Beginner:
     2:
     0.108,0.230,0.110,0.000,0.000: // measure 1
0000
0000
0000
0000
,  // measure 2
0000
0000
0000
0000
,  // measure 3
0000
0000
0000
0000
,  // measure 4
0000
0000
0000
0000
,  // measure 5
0000
0000
0000
0000
,  // measure 6
0000
0000
0000
0000
,  // measure 7
1000
0000
0000
0000
,  // measure 8
0001
0000
0000
0000
,  // measure 9
1001
0000
0000
0000
,  // measure 10
0000
0000
0000
0000
,  // measure 11
0100
0000
0000
0000
,  // measure 12
0000
0000
0000
0000
,  // measure 13
0010
0000
0010
0000
,  // measure 14
0010
0000
0000
0000
,  // measure 15
0100
0000
0100
0000
,  // measure 16
0100
0000
0000
0000
,  // measure 17
1001
0000
0001
0000
,  // measure 18
0001
0000
0000
0000
,  // measure 19
1000
0000
0000
0000
,  // measure 20
0001
0000
0000
0000
,  // measure 21
0100
0000
0000
0000
,  // measure 22
0010
0000
0000
0000
,  // measure 23
0100
0000
0000
0000
,  // measure 24
0001
0000
0001
0000
,  // measure 25
1001
0000
1000
0000
,  // measure 26
0010
0000
0100
0000
,  // measure 27
1001
0000
0000
0000
,  // measure 28
1001
0000
0000
0000
,  // measure 29
0000
0010
0000
0000
,  // measure 30
0000
0010
0000
0000
,  // measure 31
0000
0100
0000
0000
,  // measure 32
0000
0100
0000
0000
,  // measure 33
0000
0001
0000
0000
,  // measure 34
0000
0001
0000
0000
,  // measure 35
0000
1000
0000
0000
,  // measure 36
0000
1000
0000
0000
,  // measure 37
0010
0000
0010
0000
,  // measure 38
0010
0000
0000
0000
,  // measure 39
0100
0000
0100
0000
,  // measure 40
0100
0000
0000
0000
,  // measure 41
0001
0000
0001
0000
,  // measure 42
0001
0000
0000
0000
,  // measure 43
1001
0000
0000
0000
,  // measure 44
1001
0000
0000
0000
,  // measure 45
1000
0000
0000
0000
,  // measure 46
0000
0000
0000
0000
,  // measure 47
0001
0000
0000
0000
,  // measure 48
0110
0000
0000
0000
,  // measure 49
1001
0000
0000
0000
,  // measure 50
0000
0000
0000
0000
,  // measure 51
0010
0000
0000
0000
,  // measure 52
0000
0000
0100
0000
,  // measure 53
1001
0000
0000
0000
,  // measure 54
0000
0010
0000
0000
,  // measure 55
0000
0000
0100
0000
,  // measure 56
0010
0000
0000
0000
,  // measure 57
1000
0000
0000
0001
,  // measure 58
0000
0000
1000
0000
,  // measure 59
0010
0000
0000
0000
,  // measure 60
0100
0000
0000
0000
,  // measure 61
0001
0000
0000
0000
,  // measure 62
0010
0000
0000
0000
,  // measure 63
1001
0000
0000
0000
,  // measure 64
0000
0000
0000
0000
,  // measure 65
0100
0000
0000
0000
,  // measure 66
0000
0000
0000
0000
,  // measure 67
0010
0000
0000
0000
,  // measure 68
0000
0000
0000
0000
,  // measure 69
0001
0000
0000
0000
,  // measure 70
0000
0000
0000
0000
,  // measure 71
1000
0000
0001
0000
,  // measure 72
0100
0000
1001
0000
;

//---------------dance-double - ----------------
#NOTES:
     dance-double:
     :
     Easy:
     4:
     0.337,0.360,0.459,0.147,0.000:
00000000
00000000
00000000
00000000
,
00000000
00000000
00000000
00000000
,
00000000
00000000
00000000
00000000
,
00000000
00000000
00000000
00000000
,
00000110
00000000
00000001
00000000
,
00000110
00000000
00001000
00000000
,
00010000
00001000
00010000
00000100
,
00010000
00100000
01100000
00000000
,
10010000
00000000
10000000
00000000
,
01000000
00000000
00100000
00000000
,
00010000
00000000
00001000
00000000
,
00010000
00000000
00001000
00000000
,
00000120
00000000
00001000
00000000
,
00001030
00000000
00000000
00000000
,
00000210
00000000
00000001
00000000
,
00000301
00000000
00000000
00000000
,
00000101
00000000
00000010
00000000
,
00011000
00000000
01000000
00000000
,
20200000
00000000
00000000
30300000
,
02200000
00000000
00000000
03300000
,
10010000
01000000
10000000
01000000
,
10000000
01000000
00100000
00010000
,
00001000
00010000
00001000
00000010
,
00000100
00000100
00000010
00000010
,
00000001
00000010
00001000
00000000
,
00000001
00000010
00000001
00000010
,
00001100
00000000
00000110
00000000
,
00002002
00000000
00000000
00003003
,
00001001
00000010
00000001
00000010
,
00000001
00001000
00000001
00001000
,
00000100
00001000
00000100
00001000
,
00010000
00001000
00010000
00001000
,
00010000
00100000
00010000
00100000
,
01000000
00100000
01000000
00100000
,
01000000
10000000
01000000
10000000
,
01000000
00100000
00010000
10010000
,
11000000
00000000
01010000
00000000
,
00101000
00000000
00000000
00101000
00000000
00000000
00000000
00000000
,
00001100
00000000
00000101
00000000
,
00010010
00000000
00000000
00010010
00000000
00000000
00000000
00000000
,
00110000
00000000
10100000
00000000
,
01001000
00000000
00000000
01001000
00000000
00000000
00000000
00000000
,
00011000
00000000
00011000
00000000
,
00022000
00000000
00000000
00033000
,
00010000
00001000
00010000
00001000
,
00000100
00000010
00000001
00000010
,
00000100
00000000
00000000
00001000
00000000
00000000
00000001
00000000
,
00001000
00000001
00001000
00000000
00001001
00000000
00000000
00000000
,
00000010
00000000
00000000
00000110
00000000
00000000
00000100
00000000
,
00000000
00000000
00001001
00000000
00000000
00001001
00000000
00000000
,
00000001
00000001
00000010
00000100
,
00001000
00010000
01000000
10000000
,
20020000
00000000
00000000
00000000
,
30030000
01100000
01100000
10000000
,
10000000
01000000
00100000
00010000
,
00001000
00000010
00000001
00000100
,
00000010
00000100
00000001
00000010
,
00000100
00001000
00010000
00001000
,
00010000
00100000
10000000
01000000
,
00100000
01000000
00100000
00000000
00000000
00000000
01100000
00000000
,
00000000
01100000
00000000
00000000
00001000
00010000
00000010
00000000
,
00000000
00000110
00000000
00000000
00010000
00001000
01000000
00000000
,
00100000
01000000
00010000
10000000
,
00100000
00011000
00000000
00000010
,
00000100
00000010
00001000
00000001
,
00000010
00011000
00010000
00011000
,
00000000
00000000
00000000
02200000
,
00000000
00000000
03300000
00011000
,
00000000
00000000
00000000
00000220
,
00000000
00000000
00000330
00011000
,
00000000
00011000
00000000
00100000
,
01000000
10010000
00000000
00000000
;
