#TITLE:MIRACLE FLYER!!;
#SUBTITLE:;
#ARTIST:TЁЯRA;
#TITLETRANSLIT:;
#SUBTITLETRANSLIT:;
#ARTISTTRANSLIT:TERRA;
#CREDIT:DMAxel;
#BANNER:MIRACLE FLYER!!.png;
#BACKGROUND:MIRACLE FLYER!!-bg.png;
#LYRICSPATH:;
#CDTITLE:Pop'n Music.png;
#MUSIC:MIRACLE FLYER!!.mp3;
#OFFSET:-2.820;
#SAMPLESTART:42.502;
#SAMPLELENGTH:12.000;
#SELECTABLE:YES;
#BPMS:0.000=175.000;
#STOPS:;
#BGCHANGES:;

//---------------dance-single - ----------------
#NOTES:
     dance-single:
     :
     Easy:
     4:
     0.297,0.337,0.194,0.068,0.000: // measure 1
0000
0000
0000
0000
,  // measure 2
0000
0000
0000
0000
,  // measure 3
0000
0000
0000
0000
,  // measure 4
0010
0000
0100
0000
,  // measure 5
0010
0000
1000
0000
,  // measure 6
0010
0000
0100
0000
,  // measure 7
0000
0022
0000
0000
,  // measure 8
0000
0000
0000
0033
,  // measure 9
0000
2200
0000
0000
,  // measure 10
0000
0000
3300
0000
,  // measure 11
0000
2002
0000
0000
,  // measure 12
0000
3003
0010
0000
,  // measure 13
0100
0000
0010
0000
,  // measure 14
1000
0000
0001
0000
,  // measure 15
1000
0000
0001
0000
,  // measure 16
0010
0000
0001
0000
,  // measure 17
1000
0000
0100
0000
,  // measure 18
1000
0000
0010
0000
,  // measure 19
0100
0000
0010
0000
,  // measure 20
0000
1001
1000
1000
,  // measure 21
0000
0000
0001
0000
,  // measure 22
0100
0000
1001
0001
,  // measure 23
0001
0000
1000
0000
,  // measure 24
0010
0100
0100
0100
,  // measure 25
0000
0010
0000
0000
,  // measure 26
0000
1100
1000
0001
,  // measure 27
1000
0001
0100
0010
,  // measure 28
0100
0011
0100
0010
,  // measure 29
1000
1001
0000
0000
,  // measure 30
0000
1001
0010
0100
,  // measure 31
0010
1000
0100
1000
,  // measure 32
0001
0010
0001
0100
,  // measure 33
0010
1000
0010
1000
,  // measure 34
0001
0100
0001
0010
,  // measure 35
0001
0010
0100
1000
,  // measure 36
0100
0010
0001
0010
,  // measure 37
0001
1000
0100
1000
,  // measure 38
0010
1001
0100
0010
,  // measure 39
1000
0100
1000
0001
,  // measure 40
0010
0011
0100
1000
,  // measure 41
0100
0010
0001
1000
,  // measure 42
0001
1001
0100
0010
,  // measure 43
1000
0100
1000
0001
,  // measure 44
0010
0001
0100
0010
,  // measure 45
1000
0100
0010
0001
,  // measure 46
0100
1001
0000
0010
,  // measure 47
0000
0100
0000
1001
,  // measure 48
0000
0010
0000
0100
,  // measure 49
0000
1001
0000
0100
,  // measure 50
0000
0010
0000
1001
,  // measure 51
0000
0100
0000
0010
,  // measure 52
0000
1001
1000
0100
,  // measure 53
1000
0010
0100
0001
,  // measure 54
0010
0000
0000
0000
,  // measure 55
0000
1001
0100
0010
,  // measure 56
1000
0100
1000
0001
,  // measure 57
0010
0001
0100
0010
,  // measure 58
1000
0100
0010
0001
,  // measure 59
0010
0100
1000
0001
,  // measure 60
0010
0100
1000
0100
,  // measure 61
1000
0010
0100
0001
,  // measure 62
0010
0001
1000
0100
,  // measure 63
1000
0011
0000
0000
,  // measure 64
0000
1100
0000
0000
,  // measure 65
0000
1001
0000
0000
,  // measure 66
0000
0101
0000
0000
,  // measure 67
0000
1010
0100
0001
,  // measure 68
0010
0001
0010
0100
,  // measure 69
1000
0010
1000
0100
,  // measure 70
1000
0001
0000
0000
,  // measure 71
0000
1000
0100
1000
,  // measure 72
0100
0010
0001
0010
,  // measure 73
0001
0010
0100
1000
,  // measure 74
0100
1000
0100
0010
,  // measure 75
0001
0010
0001
0010
,  // measure 76
0100
1000
0010
1000
,  // measure 77
0010
0100
0001
0100
,  // measure 78
0001
2000
0000
0000
,  // measure 79
0000
3002
0000
0000
,  // measure 80
0000
0000
0000
1003
;

//---------------dance-single - ----------------
#NOTES:
     dance-single:
     :
     Challenge:
     9:
     0.670,0.674,0.304,0.017,0.030: // measure 1
0000
0000
0000
0000
,  // measure 2
0000
0000
0000
0000
,  // measure 3
0000
0000
0000
0000
1001
0000
0001
0010
,  // measure 4
0100
1000
0000
0010
0000
0100
0000
0001
,  // measure 5
0000
1000
0001
0000
1000
0000
0001
0000
,  // measure 6
1000
0100
0010
0001
0000
0010
0100
0001
,  // measure 7
0100
1000
0001
0010
0000
0010
0001
0000
,  // measure 8
0001
1000
0000
1000
0100
0010
0001
0100
,  // measure 9
0010
0000
0010
1000
0000
1000
0001
0000
,  // measure 10
0001
0100
0000
0100
0010
1000
0100
0010
,  // measure 11
0001
0000
0100
0010
0100
0010
0000
1000
,  // measure 12
0001
0000
1000
0010
1000
0000
0001
0100
,  // measure 13
0001
0100
0010
0000
1000
0010
1000
0010
,  // measure 14
0100
0000
0001
0100
0001
0000
1000
0010
,  // measure 15
1000
0010
0100
0000
0001
0100
0001
0100
,  // measure 16
0010
0000
1000
0100
1000
0100
0010
0001
,  // measure 17
0010
0100
0000
0100
0001
0100
1010
0000
,  // measure 18
0101
0000
0001
0010
0100
1000
0010
0100
,  // measure 19
0001
0010
0000
0010
0001
0010
1100
0000
,  // measure 20
0011
0000
0001
0010
0100
1000
0100
1000
,  // measure 21
0010
1000
0010
0100
0010
0100
0011
0000
,  // measure 22
1100
0000
1000
0100
0010
0001
0010
0001
,  // measure 23
0010
0100
1000
0010
1000
0001
0100
0001
,  // measure 24
1100
0000
0011
0100
1000
0100
0010
0001
,  // measure 25
1000
0001
0000
0001
0100
0010
1000
0001
,  // measure 26
1000
0000
0001
0100
0010
0000
0010
0100
,  // measure 27
0001
0010
0001
0000
0001
0100
0010
1000
,  // measure 28
0100
0000
0100
1000
0010
0100
0010
1000
,  // measure 29
0001
1000
0000
0001
1000
0001
1001
0000
,  // measure 30
0000
0000
1001
0100
0010
0001
0010
0001
,  // measure 31
0100
0010
1000
0010
0000
1000
0000
0010
,  // measure 32
1000
0000
1000
0001
0010
0100
1000
0010
,  // measure 33
0100
0001
0010
0001
0000
0010
0000
1001
,  // measure 34
0000
0000
1000
0100
1000
0010
1000
0100
,  // measure 35
1000
0010
0001
0100
0001
0010
0001
0100
,  // measure 36
0001
0010
1000
0100
1000
0010
1000
0100
,  // measure 37
1000
0010
0100
0001
0010
0001
0010
0100
,  // measure 38
1000
0100
1000
0000
0001
0010
0001
0100
,  // measure 39
0001
1000
0001
0100
0001
0010
1000
0100
,  // measure 40
1000
0010
1000
0100
0001
0010
0001
0100
,  // measure 41
0001
1000
0001
0000
1000
0100
0010
0100
,  // measure 42
1000
0100
0011
0000
0001
0010
0100
0010
,  // measure 43
0001
0010
1100
0000
1000
0100
0010
0100
,  // measure 44
1000
0100
0011
0000
0001
0010
0100
0010
,  // measure 45
0001
0010
1100
0000
1010
0000
0101
0000
,  // measure 46
0011
0000
1001
0000
0010
0000
0100
0010
,  // measure 47
0000
0100
0000
0001
0010
0100
1000
0100
,  // measure 48
0010
0001
0000
0000
0100
0000
0010
0100
,  // measure 49
0000
0010
0000
1000
0100
0010
0001
0010
,  // measure 50
0100
1000
0011
0000
1100
0000
0001
1000
,  // measure 51
0000
0110
0000
1000
0010
0100
0001
0100
,  // measure 52
0010
1000
0101
0000
1010
0000
1000
0001
,  // measure 53
0000
0110
0000
0010
0100
0001
1000
0010
,  // measure 54
0100
0002
0000
0000
0000
0000
0000
0000
,  // measure 55
1003
0000
1001
0100
0010
0001
0010
0100
,  // measure 56
0010
0001
0010
0100
1000
0100
0010
0100
,  // measure 57
1000
0000
0001
0010
0100
1000
0100
0010
,  // measure 58
0100
1000
0100
0010
0001
0010
0100
0010
,  // measure 59
0001
0000
1001
0100
0010
0001
0010
0100
,  // measure 60
0010
0001
0010
0100
1000
0100
0010
0100
,  // measure 61
1000
0000
0001
0010
0100
1000
0100
0010
,  // measure 62
0100
1000
0100
0010
0001
0010
0100
0010
,  // measure 63
0101
0000
0000
0000
1010
0000
0000
0000
0001
0000
0010
0100
1000
0000
0001
0000
,  // measure 64
1000
0000
0100
0010
0001
0000
0000
0000
1010
0000
0000
0000
0101
0000
0000
0000
,  // measure 65
1001
0000
0000
0000
0001
0000
0010
0000
0100
0000
1000
0100
0010
0000
0001
0000
,  // measure 66
0100
0000
0010
1000
0100
0000
0010
0000
0001
0000
0100
0010
1000
0000
0000
0000
,  // measure 67
0011
0000
1001
0010
1000
0010
0100
0001
,  // measure 68
0010
0001
0100
0010
1000
0100
1000
0010
,  // measure 69
1000
0000
0100
0000
0001
0000
0000
0000
0100
0000
0000
0000
0010
1000
0010
0000
,  // measure 70
0100
0001
0100
0000
0002
0000
0000
0000
0000
0000
0000
0000
1000
0000
0000
0000
,  // measure 71
1003
0000
0001
0010
0100
1000
0100
0010
,  // measure 72
0001
0010
0000
0010
0001
0010
0100
1000
,  // measure 73
0100
0010
0000
0010
0100
0001
0010
0100
,  // measure 74
1000
0100
0010
0001
0010
0100
1000
0001
,  // measure 75
1000
0000
1000
0100
0010
0001
0010
0100
,  // measure 76
1000
0010
0000
0010
1000
0100
0010
0001
,  // measure 77
0010
0100
0000
0100
0010
1000
0100
0010
,  // measure 78
0001
0010
0100
1000
0001
0010
0001
1000
,  // measure 79
0100
1000
0001
0100
0000
0100
0010
0000
,  // measure 80
0010
1000
0000
1000
0001
1000
1001
0000
;

//---------------dance-single - ----------------
#NOTES:
     dance-single:
     :
     Hard:
     8:
     0.546,0.539,0.372,0.076,0.000: // measure 1
0000
0000
0000
0000
,  // measure 2
0000
0000
0000
0000
,  // measure 3
0000
0000
0000
0000
1001
0000
1000
0100
,  // measure 4
0000
1000
0000
0100
0000
1000
0000
0010
,  // measure 5
0000
1001
0000
0000
0001
0000
1000
0000
,  // measure 6
0001
0010
0000
0001
0000
0010
0000
1001
,  // measure 7
0000
0000
1000
0100
0000
0100
1000
0000
,  // measure 8
1000
0001
0000
0001
0010
0000
0001
0000
,  // measure 9
0010
0000
0100
1000
0000
1000
0100
0000
,  // measure 10
0100
0001
0000
0001
0100
0000
0001
0000
,  // measure 11
0100
0000
0010
0100
0010
0100
0000
0001
,  // measure 12
1000
0001
0010
0001
,  // measure 13
0010
0100
1000
0101
,  // measure 14
1010
0001
0010
0001
,  // measure 15
0100
0010
1000
0011
,  // measure 16
1100
0001
0010
0100
,  // measure 17
1000
0010
0100
0101
,  // measure 18
1010
1000
0010
0100
,  // measure 19
0001
1000
0100
0011
,  // measure 20
1100
0000
1000
0100
1000
0010
0100
0000
,  // measure 21
0001
0000
0100
0000
0010
0000
1000
0001
,  // measure 22
1000
0000
0001
0100
0001
0100
0010
0000
,  // measure 23
0100
0000
0010
0000
1000
0000
0010
0100
,  // measure 24
0010
0000
1000
0010
1000
0010
0100
0000
,  // measure 25
0001
1000
0010
0100
,  // measure 26
0001
0000
1000
0010
0100
0000
0100
0010
,  // measure 27
0000
0010
1000
0000
1000
0001
0000
0001
,  // measure 28
0100
0000
0100
0001
0100
0010
0100
0001
,  // measure 29
1000
0001
0000
1000
0001
1000
1001
0000
,  // measure 30
0000
1001
0010
0100
,  // measure 31
1000
0100
0010
0001
0010
0000
0100
1000
,  // measure 32
0100
0000
0010
0000
0001
0000
0100
0010
,  // measure 33
1000
0000
0100
0010
0001
0010
0100
1000
,  // measure 34
0000
1002
0010
0010
,  // measure 35
0013
2000
0010
0010
,  // measure 36
3010
0200
0010
0010
,  // measure 37
0010
0000
0310
1000
0001
0100
0010
0000
,  // measure 38
1001
2001
0001
0001
,  // measure 39
0001
3001
0100
0010
,  // measure 40
1000
0002
0010
0010
,  // measure 41
0010
0000
0010
0000
0013
0000
0100
1000
,  // measure 42
0100
0010
1001
0000
0100
0000
0010
0000
,  // measure 43
1000
0100
1000
0000
0001
0010
0001
0000
,  // measure 44
1000
0100
0010
0001
0010
0100
1000
0001
,  // measure 45
0010
0100
1000
0000
0101
0000
1010
0000
,  // measure 46
1100
0000
1001
0000
0100
0000
0010
0100
,  // measure 47
0000
0010
0000
1000
0100
0010
0001
0010
,  // measure 48
0100
1000
0000
0000
0010
0000
0100
0010
,  // measure 49
0000
0100
0000
0001
0010
0100
1000
0100
,  // measure 50
0010
0001
1100
0000
0011
0000
1000
0001
,  // measure 51
0000
0100
0000
0001
0100
0010
1000
0010
,  // measure 52
0100
0001
1010
0000
0101
0000
0001
1000
,  // measure 53
0000
0010
0000
0100
0010
1000
0001
0100
,  // measure 54
0010
1000
0000
0000
0000
0000
0000
0000
,  // measure 55
1001
1001
0100
0010
,  // measure 56
0100
0000
0001
0010
0001
0000
1000
0010
,  // measure 57
1000
0000
0001
0010
0100
1000
0001
1000
,  // measure 58
0010
0100
0001
0000
1000
0000
0001
0010
,  // measure 59
0100
1000
0101
0000
0010
0000
1000
0000
,  // measure 60
0100
0011
0100
1000
,  // measure 61
0001
0000
0110
0000
1000
0010
0100
0000
,  // measure 62
0001
0100
0010
0000
1000
0001
0100
0000
,  // measure 63
1001
0000
1001
0000
0100
0010
0100
0000
,  // measure 64
0001
0010
0001
0000
0101
0000
1010
0000
,  // measure 65
1001
0000
1000
0100
1000
0000
0010
0100
,  // measure 66
0010
0000
1000
0001
1000
0000
0011
0000
,  // measure 67
1100
0000
1001
0000
1000
0010
1000
0000
,  // measure 68
0001
0010
0001
0000
1000
0100
1000
0000
,  // measure 69
0010
0100
0010
0000
1000
0010
2000
0000
,  // measure 70
3002
2003
0000
3002
,  // measure 71
0000
0000
1003
0100
0010
0001
0010
0100
,  // measure 72
1000
0100
0000
1100
0000
1100
0000
0001
,  // measure 73
0010
1000
0000
1000
0100
0010
0001
0010
,  // measure 74
0100
1000
0001
0000
0101
0000
1000
0000
,  // measure 75
1010
0000
0001
0010
0100
1000
0100
0010
,  // measure 76
0001
0100
0000
0011
0000
0011
0000
1000
,  // measure 77
0100
0001
0000
1000
0100
0010
0001
0010
,  // measure 78
0100
1000
0100
0000
0100
1000
0000
1000
,  // measure 79
0001
0000
0001
0010
0000
0010
0100
0000
,  // measure 80
0100
1000
0000
0001
1000
0001
1000
0000
;

//---------------dance-single - ----------------
#NOTES:
     dance-single:
     :
     Beginner:
     2:
     0.136,0.202,0.101,0.000,0.000: // measure 1
0000
0000
0000
0000
,  // measure 2
0000
0000
0000
0000
,  // measure 3
0000
0000
0000
0000
,  // measure 4
0000
0000
0000
0000
,  // measure 5
0000
0000
0000
0000
,  // measure 6
0000
0000
0000
0000
,  // measure 7
0000
0010
0000
0000
,  // measure 8
0000
0000
0000
0000
,  // measure 9
0000
0100
0000
0000
,  // measure 10
0000
0000
0000
0000
,  // measure 11
0000
0010
0000
0000
,  // measure 12
0000
1001
0000
0000
,  // measure 13
0000
0000
0000
0000
,  // measure 14
0000
1000
0000
0000
,  // measure 15
0000
0000
0000
0000
,  // measure 16
0000
0001
0000
0000
,  // measure 17
0000
0000
0000
0000
,  // measure 18
0000
0100
0000
0000
,  // measure 19
0000
0000
0000
0000
,  // measure 20
0000
0001
0000
0000
,  // measure 21
0000
0000
0000
0000
,  // measure 22
0000
1000
0000
0000
,  // measure 23
0000
0000
0000
0000
,  // measure 24
0000
0010
0000
0000
,  // measure 25
0000
0000
0000
0000
,  // measure 26
0000
1000
0000
0000
,  // measure 27
0000
0000
0000
0000
,  // measure 28
0000
0001
0000
0000
,  // measure 29
0000
0100
0100
0000
,  // measure 30
0000
0010
0100
0000
,  // measure 31
0010
0000
0100
0000
,  // measure 32
0010
1000
0001
0000
,  // measure 33
0100
0000
0001
0000
,  // measure 34
0100
0010
1000
0000
,  // measure 35
0100
0000
1000
0000
,  // measure 36
0001
0100
0010
0000
,  // measure 37
0100
0000
0010
0000
,  // measure 38
0100
0001
1000
0000
,  // measure 39
0100
0000
1000
0000
,  // measure 40
0010
0100
0001
0000
,  // measure 41
0100
0000
0010
0000
,  // measure 42
0100
0001
0000
0000
,  // measure 43
0000
1001
0000
0000
,  // measure 44
0000
0110
0000
0000
,  // measure 45
0000
1001
0000
0000
,  // measure 46
0000
0010
0000
0010
,  // measure 47
0000
0010
0000
0010
,  // measure 48
0000
0100
0000
0100
,  // measure 49
0000
0100
0000
0100
,  // measure 50
0000
0001
0000
0001
,  // measure 51
0000
0001
0000
0001
,  // measure 52
0000
1000
0000
1000
,  // measure 53
0000
1000
0000
1000
,  // measure 54
0000
0000
0000
0000
,  // measure 55
0000
1001
0000
0000
,  // measure 56
0010
0000
0100
0000
,  // measure 57
0010
0000
1000
0000
,  // measure 58
0100
0000
1000
0000
,  // measure 59
0001
0000
0010
0000
,  // measure 60
0001
0000
0100
0000
,  // measure 61
0010
0000
0100
0000
,  // measure 62
0010
0000
1000
0000
,  // measure 63
0000
1001
0000
0000
,  // measure 64
0000
0000
0000
0000
,  // measure 65
0000
1001
0000
0000
,  // measure 66
0000
0000
0000
0000
,  // measure 67
0000
0110
0000
0000
,  // measure 68
0000
1001
0000
0000
,  // measure 69
0000
1001
0000
0000
,  // measure 70
0000
0110
0000
0000
,  // measure 71
0000
0000
0100
0000
,  // measure 72
0010
0000
1000
0000
,  // measure 73
0100
0000
1000
0000
,  // measure 74
0001
0000
0010
0000
,  // measure 75
0001
0000
0100
0000
,  // measure 76
0010
0000
0100
0000
,  // measure 77
0010
0000
1000
0000
,  // measure 78
0010
0000
0000
0000
,  // measure 79
0000
1000
0000
0000
,  // measure 80
0000
0000
0000
1001
;

//---------------dance-single - ----------------
#NOTES:
     dance-single:
     :
     Medium:
     6:
     0.463,0.539,0.338,0.101,0.000: // measure 1
0000
0000
0000
0000
,  // measure 2
0000
0000
0000
0000
,  // measure 3
0000
0000
0001
0000
,  // measure 4
1000
0000
0001
0000
,  // measure 5
0100
0000
0010
0000
,  // measure 6
1000
0000
0100
0000
,  // measure 7
0010
0000
0001
0010
0000
0010
0001
0000
,  // measure 8
0001
1000
0000
1000
0010
0000
0000
0000
,  // measure 9
0000
0000
0100
0001
0000
0001
0010
0000
,  // measure 10
0010
1000
0000
1000
0010
0000
0000
0000
,  // measure 11
0000
0000
0100
0000
0000
0010
0000
1000
,  // measure 12
0001
1000
0100
1000
,  // measure 13
0100
0010
0001
1010
,  // measure 14
0101
1000
0100
1000
,  // measure 15
0010
0100
0001
1100
,  // measure 16
0011
1000
0100
0010
,  // measure 17
0001
0100
0010
1010
,  // measure 18
0101
0001
0100
0010
,  // measure 19
1000
0001
0010
1100
,  // measure 20
0011
0001
0010
0100
,  // measure 21
1000
0000
0010
0000
0100
0000
0001
1000
,  // measure 22
0001
1000
0100
0010
,  // measure 23
0001
0000
0100
0000
0001
0000
0100
0010
,  // measure 24
0100
0000
0001
0100
0001
0000
0010
0000
,  // measure 25
0100
1000
0100
0010
,  // measure 26
0001
0000
0100
0010
0100
0000
0010
0000
,  // measure 27
0000
0100
0000
0000
0001
0000
0000
1000
,  // measure 28
0000
0000
0001
0010
0001
0000
1000
0100
,  // measure 29
1000
0100
0000
2000
0000
0000
3001
0000
,  // measure 30
0000
1001
0100
0010
,  // measure 31
0011
0101
1001
0001
,  // measure 32
0010
0000
0100
0000
1000
0000
0010
0100
,  // measure 33
0001
1100
1010
1001
,  // measure 34
0000
2001
0100
0100
,  // measure 35
3100
0002
0100
0100
,  // measure 36
0103
0020
0100
0100
,  // measure 37
0100
0130
0001
1000
,  // measure 38
1001
1002
1000
1000
,  // measure 39
1000
1003
0010
0100
,  // measure 40
0001
2000
0100
0100
,  // measure 41
0100
0000
0100
0000
3100
0000
0010
0001
,  // measure 42
0010
1001
0010
0100
,  // measure 43
0001
0010
0100
1000
,  // measure 44
0001
0010
0100
0000
0100
0010
0001
0000
,  // measure 45
1000
0002
1000
1000
,  // measure 46
1003
0000
1001
0000
0010
0000
0100
0010
,  // measure 47
0000
0100
0000
0001
0010
0000
0100
0000
,  // measure 48
0010
0001
0000
0000
0100
0000
0010
0100
,  // measure 49
0000
0010
0000
1000
0100
0000
0010
0000
,  // measure 50
0100
1000
0011
0000
1100
0000
0001
1000
,  // measure 51
0000
0010
0000
1000
0010
0000
0100
0000
,  // measure 52
0010
1000
0101
0000
1010
0000
1000
0001
,  // measure 53
0000
0100
0000
0010
0100
0000
0001
0000
,  // measure 54
0100
0001
0000
0000
0000
0000
0000
0000
,  // measure 55
1001
1001
0010
0100
,  // measure 56
0010
1000
0100
0010
,  // measure 57
0001
0000
1000
0100
1000
0000
0001
0000
,  // measure 58
0010
0000
0100
0000
1000
0000
0001
0010
,  // measure 59
0001
2100
0001
0001
,  // measure 60
3001
0012
1000
1000
,  // measure 61
1003
0000
0110
0000
0001
0100
0010
0000
,  // measure 62
1000
0010
0100
0000
0001
1000
0010
0000
,  // measure 63
1001
0000
1001
0000
0010
0100
0010
0000
,  // measure 64
1000
0100
1000
0000
1010
0000
0101
0000
,  // measure 65
1001
0000
0001
0010
0001
0000
0100
0010
,  // measure 66
0100
0000
0001
1000
0001
0000
1100
0000
,  // measure 67
0011
0000
1001
0000
0001
0100
0001
0000
,  // measure 68
1000
0100
1000
0000
0001
0010
0001
0000
,  // measure 69
0100
0010
0100
0000
0001
0100
0002
0000
,  // measure 70
0000
2003
0000
3002
,  // measure 71
0000
0000
1003
0100
1000
0000
0100
0000
,  // measure 72
0010
0001
0000
0010
0000
0001
0000
1000
,  // measure 73
0100
0000
0000
0100
1000
0000
0100
0000
,  // measure 74
0010
0001
0010
0000
0001
0000
0010
0000
,  // measure 75
0100
1000
0100
0010
,  // measure 76
0001
1000
0000
0100
0000
1000
0000
0001
,  // measure 77
0010
0000
0000
0001
0010
0000
0001
0000
,  // measure 78
0100
0000
0011
0000
0000
1100
0000
0000
,  // measure 79
1001
0000
1000
0100
0000
0100
0010
0000
,  // measure 80
0010
0001
0000
1000
0001
1000
0001
0000
;
