#TITLE:METALGEAR SOLID;
#SUBTITLE:~Main Theme;
#ARTIST:ESPACIO BROTHERS;
#TITLETRANSLIT:;
#SUBTITLETRANSLIT:;
#ARTISTTRANSLIT:;
#CREDIT:DMAxel;
#BANNER:METALGEAR SOLID ~Main Theme.png;
#BACKGROUND:METALGEAR SOLID ~Main Theme-bg.png;
#LYRICSPATH:METALGEAR SOLID ~Main Theme.lrc;
#CDTITLE:beatmania.png;
#MUSIC:METALGEAR SOLID ~Main Theme.mp3;
#OFFSET:-0.580;
#SAMPLESTART:60.494;
#SAMPLELENGTH:12.000;
#SELECTABLE:YES;
#BPMS:0.000=140.000;
#STOPS:168.000=1.286
,198.000=0.857
;
#BGCHANGES:-0.500=METALGEAR SOLID ~Main Theme.avi=1.000=1=0=1,
99999=-nosongbg-=1.000=0=0=0 // don't automatically add -songbackground-
;

//---------------dance-single - ----------------
#NOTES:
     dance-single:
     :
     Easy:
     3:
     0.245,0.244,0.109,0.119,0.000:
0000
0000
0000
0000
,
0100
0010
0100
0000
,
1001
0000
0001
1000
,
0001
0001
0010
0000
,
0220
0000
0000
0330
,
0100
0001
2000
0000
,
3010
0100
0010
1000
,
0001
0100
0010
0000
,
0220
0000
0000
0330
,
0100
0001
1000
0000
,
0010
0100
0001
0000
,
0100
0010
0100
0000
,
0220
0000
0000
0330
,
0100
0001
1000
0000
,
0010
0100
0010
0000
,
0100
0001
1000
0000
,
0100
1000
0100
0000
,
1000
0001
0010
0000
,
0001
1000
0001
0000
,
0010
0001
1000
0000
,
0010
0100
0010
0000
,
0220
0000
0000
0330
,
1000
0100
1000
0100
,
1000
0001
1000
0001
,
0010
0001
0010
0001
,
1000
0001
1000
0001
,
1000
0010
1000
0010
,
1000
0001
1000
0001
,
0100
0001
0100
0001
,
1000
0100
0010
0000
,
0001
0010
0100
0000
,
0110
0000
0000
0100
,
0100
0000
0000
0000
,
1001
0000
0000
0000
,
0110
0000
0000
0000
,
0010
0100
0010
0100
,
0001
0100
0001
0100
,
0010
1000
0010
1000
,
0100
0000
0000
0000
,
0010
0010
0000
0000
,
0100
0000
0000
0000
,
0020
0000
0000
0030
,
0110
0001
0001
0001
,
0001
1000
0010
1000
,
0000
1000
1000
1000
,
1000
0110
0000
0000
,
0000
0001
0100
0001
,
0100
0001
1000
0001
,
1000
0010
1000
0010
,
1000
0100
0010
0010
,
0100
0010
0000
0100
,
0001
1000
0000
0100
,
0010
0100
0000
1000
,
0220
0000
0000
0000
,
0000
0000
0000
0330
;

//---------------dance-single - ----------------
#NOTES:
     dance-single:
     :
     Hard:
     7:
     0.438,0.406,0.237,0.168,0.064:
0000
0000
0000
0000
,
1001
0000
0001
0010
0100
0000
1000
0000
,
1001
0000
1000
0000
1000
0010
0100
0010
,
1000
0100
0010
0000
0011
0000
1000
0000
,
0220
0000
0000
0330
,
0010
0001
0010
0001
1000
0010
0000
0000
,
1001
0000
0001
0000
0001
0100
1000
0000
,
0100
1000
0100
1000
0001
0100
0000
0000
,
0220
0000
0000
0330
,
0010
0000
0000
1000
0000
0000
0001
0000
0010
0000
0001
0000
0100
0000
0000
0000
,
0100
0000
0000
0001
0000
0000
1000
0000
0100
0000
1000
0000
0010
0000
0000
0000
,
0010
0000
0000
1000
0000
0000
0001
0000
0010
0000
0001
0000
0100
0000
0000
0000
,
0100
0000
0000
0100
0000
0000
1001
0000
0000
0000
0000
0000
0000
0000
0000
0000
,
1001
0000
1000
0000
0001
1000
0100
0010
,
0001
0100
0001
0000
1000
0000
0001
0010
,
1000
0000
0001
0000
1000
0001
0010
0100
,
1000
0010
1000
0000
0001
0000
1000
0100
,
0001
0000
1000
0000
0001
1000
0100
0010
,
0001
1000
0001
0000
0100
0000
0001
0010
,
1000
0000
0001
0000
1000
0001
0010
0100
,
1000
0000
0000
0100
0000
0000
1000
0000
0001
0000
0100
0000
0000
0000
0000
0000
,
0220
0000
0000
0330
,
1001
0000
1000
0000
0010
1000
0100
0010
,
0001
0100
0001
0000
1000
0000
0001
0010
,
2000
0000
0001
0000
3001
0100
0010
0100
,
0002
0000
0010
0000
0013
0000
0001
0010
,
2000
0000
0001
0000
3001
0010
0100
0010
,
0002
0000
0100
0000
0103
0000
0100
0001
,
2000
0000
0010
0000
3010
0000
0010
1000
,
0001
0000
0000
0010
0000
0000
0001
0000
0100
0000
0010
0000
1000
0000
0000
0000
,
1000
0000
0000
0100
0000
0000
1000
0000
0010
0000
0100
0000
0001
0000
0000
0000
,
0100
0010
0100
0000
0101
0000
1000
0000
,
0010
0100
0010
0000
1010
0000
0001
0000
,
1001
0000
1000
0000
0100
0000
0001
0100
,
1000
0000
0001
0000
0100
0010
0100
0000
,
0001
0000
0000
0010
0000
0000
0100
0000
1000
0000
0010
0000
0000
0000
1000
0000
,
0001
0000
0000
0010
0000
0000
0100
0000
1000
0000
0010
0000
0000
0000
1000
0000
,
0001
0000
0000
0100
0000
0000
0010
0000
1000
0000
0100
0000
0000
0000
1000
0000
,
0001
0010
1000
0001
,
1001
1000
0010
0100
,
0010
0010
1000
0001
,
0001
0001
1000
1000
,
0110
0000
0101
0000
1001
0000
0001
0010
,
1000
0001
1000
0001
1000
0000
0100
0000
,
0001
0000
1010
0000
1001
0000
1000
0100
,
0001
0220
0000
0000
,
0330
0000
0010
0100
0010
1000
0200
0000
,
0001
0301
1001
0000
0100
0010
0100
0001
,
0010
0000
1001
0000
0100
0010
0100
0001
,
0020
0000
1000
0000
1030
0000
0000
0000
1001
0000
0000
0000
0100
0000
0000
0001
,
0000
0000
0010
0000
0100
0000
0010
0000
0000
0000
0001
0000
1000
0000
0000
0100
,
0000
0000
0010
0000
0100
0000
0010
0000
0000
0000
0001
0000
1000
0000
0000
0001
,
0000
0010
0100
0010
0000
0001
1000
0000
,
2002
0000
0000
0000
,
0000
0000
0000
3003
;

//---------------dance-single - ----------------
#NOTES:
     dance-single:
     :
     Challenge:
     8:
     0.544,0.488,0.326,0.148,0.139: // measure 1
0000
0000
0000
0000
,  // measure 2
0010
0100
1000
0001
0001
1000
0100
0010
,  // measure 3
0110
0000
0010
1000
0001
0100
0100
0100
,  // measure 4
0001
0010
1000
0010
0001
1000
0100
0010
,  // measure 5
0220
0000
0000
0330
,  // measure 6
1000
0100
0001
1000
0100
1000
0001
0000
,  // measure 7
1001
0000
0000
0000
1000
0000
0001
0010
0000
0000
0001
0000
1000
0000
0000
0000
,  // measure 8
0001
0010
1000
0001
0010
0001
1000
0100
,  // measure 9
0020
0000
0001
0000
0001
0000
0030
0000
0000
0001
1000
0000
0001
0000
0010
0000
,  // measure 10
0011
0000
0000
0010
0000
0000
1000
0000
0001
0000
0010
0000
0100
0000
0000
0000
,  // measure 11
1100
0000
0000
0100
0000
0000
0001
0000
1000
0000
0100
0000
0010
0000
0000
0000
,  // measure 12
0011
0000
0000
0010
0000
0000
1000
0000
0001
0000
0010
0000
0100
0000
0000
0000
,  // measure 13
0110
0000
0000
0110
0000
0000
1001
0000
0000
0000
0000
0000
0000
0000
0000
0000
,  // measure 14
0010
0100
0010
1000
0001
0010
0100
0000
,  // measure 15
1000
0001
0100
0010
0100
0001
1000
0000
,  // measure 16
0010
0100
0010
1000
0001
0010
1000
0000
,  // measure 17
0001
1000
0010
0100
0010
1000
0001
0000
,  // measure 18
0100
0010
0100
0001
1000
0100
0001
0000
,  // measure 19
1000
0001
0010
0100
0010
0100
1000
0000
,  // measure 20
0010
0100
0010
1000
0001
0010
1000
0100
,  // measure 21
0010
0000
0100
1000
0000
0100
1000
0000
0001
0000
0010
0000
1000
0000
0100
0000
,  // measure 22
0020
0100
0100
0030
,  // measure 23
0021
0000
1030
0000
1000
0001
0010
0100
,  // measure 24
1200
0000
0301
0000
0001
1000
0100
0010
,  // measure 25
0021
0000
1030
0000
1000
0001
0010
0100
,  // measure 26
1200
0000
0301
0000
0001
1000
0010
0100
,  // measure 27
0201
0000
1300
0000
1000
0001
0100
0010
,  // measure 28
1020
0000
0031
0000
0001
1000
0010
0100
,  // measure 29
0201
0000
1300
0000
0001
1000
0010
0100
,  // measure 30
0101
0000
0000
0001
0000
0000
1000
0000
0001
0000
0010
0000
0100
0000
0000
0000
,  // measure 31
1010
0000
0000
1000
0000
0000
0001
0000
1000
0000
0100
0000
0010
0000
0000
0000
,  // measure 32
0001
0000
0100
0000
0001
0000
1000
0100
0000
0000
1000
0000
0010
0000
0000
0000
,  // measure 33
1000
0000
0010
0000
1000
0000
0001
0010
0000
0000
0001
0000
0100
0000
0000
0000
,  // measure 34
0001
0000
0010
0000
0001
0000
1000
0010
0000
0000
1000
0000
0100
0000
0000
0000
,  // measure 35
1000
0000
0100
0000
1000
0000
0001
0100
0000
0000
0001
0000
0010
0000
0000
0000
,  // measure 36
0011
0000
0000
0001
0000
0000
1000
0000
0100
0000
0001
0000
1000
0000
0100
1000
,  // measure 37
0100
0000
0000
1000
0000
0000
0001
0000
0010
0000
1000
0000
0001
0000
0010
0001
,  // measure 38
0010
0000
0000
0001
0000
0000
1000
0000
0100
0000
0001
0000
1000
0000
0100
1000
,  // measure 39
0100
2000
0002
3003
,  // measure 40
0101
0100
1000
0001
,  // measure 41
1010
0010
0001
1000
,  // measure 42
0101
0100
1010
0010
,  // measure 43
1001
0000
0010
0100
1000
0001
0100
0010
,  // measure 44
0100
0000
0001
0010
0001
0000
1000
0000
0100
0000
0001
0000
1000
0000
0100
0000
,  // measure 45
0010
0001
1001
0000
1010
0000
0010
0001
,  // measure 46
1000
0000
0010
0000
0110
0000
0000
0000
0000
0000
0000
0000
0000
1000
0001
0000
,  // measure 47
0010
0001
1000
0100
0001
0100
1000
0001
,  // measure 48
0010
0001
0001
0010
1000
0010
0001
1000
,  // measure 49
0100
1000
0001
0010
1000
0010
0001
1000
,  // measure 50
0100
0000
0010
0000
0010
0000
0000
0000
1001
0000
0000
0000
1010
0000
0000
1010
,  // measure 51
0000
0000
0010
0000
0001
0000
1000
0000
0001
0000
0100
0001
0100
0000
0000
0101
,  // measure 52
0000
0000
0100
0000
1000
0000
0001
0000
1000
0000
0100
1000
0100
0000
0000
1100
,  // measure 53
0000
0000
0100
0000
0001
0000
1000
0000
0001
0000
0010
0001
0010
0000
0000
0000
,  // measure 54
2002
0000
0000
0000
,  // measure 55
0000
0000
0000
3003
;

//---------------dance-single - ----------------
#NOTES:
     dance-single:
     :
     Medium:
     6:
     0.420,0.433,0.455,0.099,0.005:
0000
0000
0000
0000
,
0001
0000
0010
0000
0100
0000
1000
0010
,
0100
0010
1000
0001
,
0200
0000
0001
0000
0001
0000
0301
1000
,
0010
0000
0000
0000
,
1001
0000
1000
0001
0010
0001
0000
0000
,
1001
0100
0010
0001
,
1001
0000
0001
1000
0100
1000
0000
0000
,
1001
0000
0000
0000
,
0101
0100
1001
1000
,
1010
0010
1001
0001
,
0101
0100
1001
1000
,
0010
0000
0000
0010
0000
0000
0110
0000
0000
0000
0000
0000
0000
0000
0000
0000
,
1001
0000
0001
0000
1000
0001
0010
0100
,
1000
0000
1010
0000
0001
0000
1000
0100
,
0001
0000
0101
0000
0100
0001
0010
0001
,
2000
0000
0100
0000
3100
0000
0001
0010
,
1000
0000
1010
0000
0010
1000
0100
1000
,
0002
0000
0010
0000
0013
0000
1000
0100
,
0001
0000
0101
0000
1000
0000
0001
0010
,
1000
1010
0001
1000
,
0220
0000
0000
0330
,
0101
0100
1100
0010
,
0101
0100
1100
0001
,
1010
0010
0011
1000
,
1010
0000
0010
0000
0011
0000
1000
0001
,
0200
0000
0010
0000
0310
1000
0100
0010
,
0001
1000
0001
0000
0001
0000
0001
1000
,
0020
0000
0100
0000
0130
0001
0010
0100
,
1000
0001
1000
0000
1000
0000
0010
0000
,
1001
0001
0001
0100
,
1100
0000
0001
0000
0010
0001
0010
0000
,
0010
0000
0010
0001
1000
0000
1000
0000
,
0011
0000
1000
0000
0100
1000
0100
0000
,
0100
0100
1000
0001
,
1001
0000
0001
0100
0010
1000
0000
0001
,
0001
0000
1000
0010
0100
0001
0000
1000
,
1000
0000
0001
0100
0010
1000
0000
0001
,
0200
0010
0310
0000
,
1001
0001
1000
0100
,
1000
1000
0010
0100
,
0001
0001
1000
1000
,
0110
0000
0010
1000
0001
0000
0100
0010
,
0100
0000
0010
1000
0001
0000
0001
0000
,
1001
0000
0100
0001
1000
0000
0010
0100
,
0010
0000
1001
0000
0000
0000
0000
1000
,
1000
1001
1010
1001
,
0100
0100
1001
0000
0110
0000
1001
0000
,
0010
1001
0101
1001
,
0010
0010
1001
0000
0001
0000
1001
0000
,
0001
1000
0100
1000
0100
0000
1000
0000
,
1000
0001
0010
0001
0010
0000
0001
0000
,
0001
1000
0010
1000
0000
0001
1000
0000
,
2002
0000
0000
0000
,
0000
0000
0000
3003
;

//---------------dance-single - ----------------
#NOTES:
     dance-single:
     :
     Beginner:
     1:
     0.083,0.131,0.099,0.000,0.000:
0000
0000
0000
0000
,
0010
0000
0000
0000
,
0010
0000
0000
0000
,
0010
0000
0000
0000
,
0110
0000
0000
0000
,
1000
0000
0000
0000
,
0000
0000
0000
0000
,
0001
0000
0000
0000
,
1001
0000
0000
0000
,
0001
0000
0000
0000
,
0001
0000
0000
0000
,
1000
0000
0000
0000
,
1001
0000
0000
0000
,
0100
0000
0000
0000
,
0100
0000
0000
0000
,
0100
0000
0000
0000
,
0100
0000
0000
0000
,
0010
0000
0000
0000
,
0010
0000
0000
0000
,
0010
0000
0000
0000
,
0010
0000
0000
0000
,
0110
0000
0000
0000
,
0001
0000
0000
0000
,
1000
0000
0000
0000
,
0001
0000
0000
0000
,
1000
0000
0000
0000
,
0100
0000
0000
0000
,
0010
0000
0000
0000
,
0001
0000
0000
0000
,
1000
0000
0000
0000
,
0001
0000
0000
0000
,
1001
0000
0000
0000
,
0000
0000
0000
0000
,
0010
0000
0000
0000
,
0000
0000
0000
0000
,
0010
0000
0000
0000
,
0000
0000
0000
0000
,
0010
0000
0000
0000
,
0000
0000
0000
0000
,
0100
0000
0000
0000
,
0000
0000
0000
0000
,
0000
0000
0000
0000
,
0100
0110
0000
0010
,
0000
0010
0000
0000
,
0000
1001
0000
1000
,
0000
1000
0000
0000
,
0000
0110
0000
0000
,
0000
0100
0000
0000
,
0000
0110
0000
0000
,
0000
0010
0000
1000
,
0000
0000
0000
0001
,
0000
0000
0000
1000
,
0000
0000
0000
0000
,
1001
0000
0000
0000
;

//---------------dance-double - ----------------
#NOTES:
     dance-double:
     :
     Easy:
     4:
     0.298,0.379,0.237,0.287,0.000:
00000000
00000000
00000000
00000000
,
00010000
00010000
00100000
01000000
,
10010000
10000000
10000000
10000000
,
01000000
00100000
00010000
00000000
,
00022000
00000000
00000000
00033000
,
00001000
00010000
00000020
00000000
,
00010030
00001000
00010000
00001000
,
00000100
00000010
00000100
00000000
,
00000220
00000000
00000000
00000330
,
00000100
00000001
00001000
00001000
,
00000001
00000010
00000100
00000100
,
00001000
00000100
00001000
00010000
,
00022000
00000000
00000000
00033000
,
00010000
00001000
02000000
00000000
,
03100000
01000000
00020000
00000000
,
01030000
00010000
20000000
00000000
,
31000000
00100000
00020000
00000000
,
00031000
00100000
00002000
00000000
,
00013000
00000100
00002000
00000000
,
00003100
00000010
00000002
00000000
,
00001003
00001000
00000010
00000100
,
00000220
00000000
00000000
00000330
,
00001002
00000010
00000010
00000013
,
00002001
00000100
00000100
00003100
,
00012000
00100000
00100000
00103000
,
00021000
00000100
00000100
00030100
,
00120000
10000000
10000000
10030000
,
21000000
00010000
00010000
30010000
,
00102000
00010000
00010000
00013000
,
00020100
00001000
00001000
00031000
,
00010000
00001000
00010000
00000000
,
00011000
00000000
00000000
00010000
,
00000100
00000000
00000000
00000000
,
00001001
00000000
00000000
00000000
,
00000110
00000000
00000000
00000000
,
00000100
00000010
00000100
00000000
,
00001001
00000001
00000010
00000000
,
00001001
00001000
00000100
00000000
,
00000220
00000000
00000000
00000330
,
00000001
00001000
00000000
00000000
,
00010000
00000000
00000000
00000000
,
00002000
00000000
00000000
00003000
,
00011000
00010000
00001000
00010000
,
00001000
00100000
01000000
10000000
,
00010000
10000000
10000000
00100000
,
01000000
00011000
00000000
00000000
,
00000000
00001000
00010000
00001000
,
00010000
00001000
00000100
00000010
,
00000001
00000100
00000001
00001000
,
00000010
00000010
00000110
00001001
,
00000001
00000010
00000001
00001000
,
00001000
00000100
00010000
00001000
,
00010000
00100000
01000000
00100000
,
00022000
00000000
00000000
00000000
,
00000000
00000000
00000000
00033000
;
