#TITLE:MERMAID;
#SUBTITLE:(Delaction Remix);
#ARTIST:TSUKASA;
#TITLETRANSLIT:;
#SUBTITLETRANSLIT:;
#ARTISTTRANSLIT:;
#CREDIT:DMAxel;
#BANNER:MERMAID (Delaction Remix).png;
#BACKGROUND:MERMAID (Delaction Remix)-bg.png;
#LYRICSPATH:;
#CDTITLE:HIME TRANCE presents TSUKASA MIX.png;
#MUSIC:MERMAID (Delaction Remix).mp3;
#OFFSET:-3.500;
#SAMPLESTART:74.868;
#SAMPLELENGTH:12.000;
#SELECTABLE:YES;
#BPMS:0.000=144.550;
#STOPS:;
#BGCHANGES:;

//---------------dance-single - ----------------
#NOTES:
     dance-single:
     :
     Easy:
     3:
     0.224,0.288,0.224,0.147,0.000: // measure 1
0000
0000
0000
0000
,  // measure 2
0000
0000
0000
0000
,  // measure 3
0000
0000
0000
0000
,  // measure 4
0000
0000
0000
0000
,  // measure 5
0000
0000
0000
0000
,  // measure 6
0000
0000
0000
0000
,  // measure 7
0000
0000
0000
0000
,  // measure 8
1000
0000
0002
0000
,  // measure 9
1003
0000
0002
0000
,  // measure 10
1003
0000
0002
0000
,  // measure 11
0103
0000
0010
0000
,  // measure 12
0100
0000
0020
0000
,  // measure 13
0130
0000
0020
0000
,  // measure 14
0130
0000
0020
0000
,  // measure 15
1030
0000
0001
0000
,  // measure 16
1001
0000
0010
0000
,  // measure 17
0001
0000
0010
0000
,  // measure 18
0100
0000
1000
0000
,  // measure 19
0010
0000
0100
0000
,  // measure 20
1001
0000
0010
0000
,  // measure 21
1001
0000
0100
0000
,  // measure 22
1001
0000
0010
0000
,  // measure 23
1001
0000
0100
0000
,  // measure 24
1001
0010
0100
1000
,  // measure 25
0100
0010
0001
0100
,  // measure 26
0020
0000
0000
0000
,  // measure 27
0030
0000
0000
0000
,  // measure 28
2002
0000
0000
0000
,  // measure 29
3003
0000
0000
0000
,  // measure 30
1010
0000
0000
0000
,  // measure 31
0100
0000
0000
0000
,  // measure 32
0101
0000
0010
0000
,  // measure 33
1001
0000
0000
0000
,  // measure 34
1100
0000
0000
0000
,  // measure 35
0100
0000
0000
0000
,  // measure 36
1001
0000
0110
0000
,  // measure 37
1001
0000
0000
0000
,  // measure 38
0010
0000
0100
0000
,  // measure 39
0010
0000
0000
0000
,  // measure 40
0200
0000
0000
0000
,  // measure 41
0320
0000
0000
0000
,  // measure 42
0030
0000
0000
0000
,  // measure 43
1001
0000
0000
0000
,  // measure 44
0100
1000
0010
0010
,  // measure 45
0100
0001
0010
0010
,  // measure 46
0001
1000
0100
1000
,  // measure 47
0010
0100
0010
1001
,  // measure 48
0100
0010
0001
0010
,  // measure 49
0100
0100
1000
0010
,  // measure 50
1100
0000
0011
0000
,  // measure 51
2002
0000
0000
3003
,  // measure 52
1001
0010
0001
0001
,  // measure 53
0010
0100
1000
1000
,  // measure 54
0010
0100
0010
0100
,  // measure 55
0001
0010
0100
1000
,  // measure 56
0010
1000
0010
0010
,  // measure 57
0100
0001
0010
0001
,  // measure 58
0110
0000
1001
0000
,  // measure 59
0220
0000
0000
0330
,  // measure 60
0001
0010
0100
0100
,  // measure 61
1000
0010
0100
0100
,  // measure 62
0001
0010
0100
1000
,  // measure 63
0010
0100
0001
1001
,  // measure 64
0100
1000
0010
0100
,  // measure 65
0001
0010
0100
1000
,  // measure 66
1001
0000
0010
0000
,  // measure 67
2002
0000
0000
3003
;

//---------------dance-single - ----------------
#NOTES:
     dance-single:
     :
     Hard:
     8:
     0.498,0.519,0.319,0.052,0.121: // measure 1
0000
0000
0000
0000
,  // measure 2
0000
0000
0000
0000
,  // measure 3
0000
0000
0000
0000
,  // measure 4
0000
0000
0000
0000
,  // measure 5
0000
0000
0000
0000
,  // measure 6
0000
0000
0000
0000
,  // measure 7
0000
0000
0000
0000
,  // measure 8
0001
0000
0010
0000
0100
0000
0000
0000
1000
0000
0000
0001
0000
0000
1000
0000
,  // measure 9
0100
0000
0010
0000
0001
0000
0000
0000
1000
0000
0000
0001
0000
0000
1000
0000
,  // measure 10
0001
0000
0010
0000
0100
0000
0000
0000
1000
0000
0000
0001
0000
0000
1000
0000
,  // measure 11
0100
0010
0001
0000
0100
0100
0100
0000
,  // measure 12
0001
0000
0010
0000
0100
0000
0000
0000
1000
0000
0000
1000
0000
0000
0000
0000
,  // measure 13
1000
0000
0100
0000
0010
0000
0000
0000
0001
0000
0000
0001
0000
0000
0000
0000
,  // measure 14
0001
0000
0100
0000
0010
0000
0000
0000
1000
0000
0000
1000
0000
0000
0000
0000
,  // measure 15
1000
0010
0100
0000
0001
0001
0001
0000
,  // measure 16
0010
0000
1000
0000
0100
0000
1000
0000
0100
0000
0000
0010
0000
0000
0001
0000
,  // measure 17
0100
0000
0001
0000
0010
0000
0001
0000
0010
0000
0000
0100
0000
0000
1000
0000
,  // measure 18
0010
0000
0100
0000
0010
0000
0100
0000
0001
0000
0000
0100
0000
0000
0010
0000
,  // measure 19
1000
0100
0010
0000
0001
0001
0001
0000
,  // measure 20
1001
0000
0010
0000
0001
0000
0010
0000
0001
0000
0000
0010
0000
0000
1000
0000
,  // measure 21
1001
0000
0100
0000
1000
0000
0100
0000
1000
0000
0000
0100
0000
0000
0001
0000
,  // measure 22
1001
0000
0100
0000
0001
0000
0100
0000
0001
0000
0000
0100
0000
0000
1000
0000
,  // measure 23
1001
0010
1000
0010
1000
1000
1000
0000
,  // measure 24
0001
0010
0001
0010
1000
0100
1000
0100
,  // measure 25
0001
0100
0001
0100
1000
0010
1000
0000
,  // measure 26
2002
0000
0000
0000
,  // measure 27
3003
0000
0000
0000
,  // measure 28
0220
0000
0000
0000
,  // measure 29
0330
0000
0000
0000
,  // measure 30
0101
0000
0000
0010
0000
0000
1000
0000
0100
0000
1000
0000
0100
0000
0000
0000
,  // measure 31
1000
0000
0010
0100
0010
0100
0010
0000
,  // measure 32
1010
0100
1000
0100
0000
0001
1001
0000
,  // measure 33
0101
0010
0001
0000
0010
1000
1001
0000
,  // measure 34
0101
0000
0000
0010
0000
0000
0001
0000
1000
0000
0001
0000
1000
0000
0000
0000
,  // measure 35
0100
1000
0010
1000
0100
0010
0001
0000
,  // measure 36
1100
0100
0100
0000
0011
0010
0010
0000
,  // measure 37
1001
0000
0000
1100
0000
0000
1001
0000
0000
0000
0001
0000
0010
0000
0000
0000
,  // measure 38
0001
0010
0100
0000
1000
0100
0010
0000
,  // measure 39
0001
0100
0000
0101
0000
0110
0000
0010
,  // measure 40
1000
0100
1000
0100
1000
0100
1000
0100
,  // measure 41
0010
0001
0010
1000
0010
0001
0010
0100
,  // measure 42
2002
0000
0000
3003
,  // measure 43
1001
0000
0000
0000
,  // measure 44
0001
0000
0000
0010
0000
0000
1000
0000
0100
0000
0010
0000
0001
0000
0001
0000
,  // measure 45
1000
0010
1000
0100
0010
0001
1000
0000
,  // measure 46
0100
1000
1000
0100
0010
0001
1001
0000
,  // measure 47
0010
0001
0010
0001
0100
0010
1000
0000
,  // measure 48
1001
0000
0000
0010
0000
0000
0001
0000
0010
0000
0100
0000
1000
0000
1000
0000
,  // measure 49
0001
0100
0001
0010
0100
1000
0001
0000
,  // measure 50
1001
0100
0100
0000
1001
0010
0010
0100
,  // measure 51
1001
0000
0000
0100
0000
0000
1000
0000
0000
0000
0100
0000
0010
0000
0000
0000
,  // measure 52
1001
0000
0000
0010
0000
0000
1000
0000
0100
0000
0010
0000
0001
0000
0001
0000
,  // measure 53
1000
0100
1000
0010
0100
0001
1000
0000
,  // measure 54
0010
1000
1000
0100
0010
0001
1001
0000
,  // measure 55
0100
1000
0100
1000
0010
0100
0001
0000
,  // measure 56
1001
0000
0000
0100
0000
0000
0001
0000
0010
0000
0100
0000
1000
0000
1000
0000
,  // measure 57
0001
0010
0001
0100
0010
1000
0001
0000
,  // measure 58
1001
0100
0100
0000
1001
0010
0010
0100
,  // measure 59
1001
0000
0000
0010
0000
0000
0001
0000
0000
0000
0010
0000
0100
0000
0000
0000
,  // measure 60
1001
0000
0000
0100
0000
0000
1000
0000
0100
0000
0010
0000
0001
0000
0100
0000
,  // measure 61
0001
0010
1000
0100
1000
0010
0001
0000
,  // measure 62
0010
0001
0010
0100
1000
0001
1001
0000
,  // measure 63
0100
1000
0100
1000
0010
0100
0001
0000
,  // measure 64
1001
0000
0000
0010
0000
0000
0001
0000
0010
0000
0100
0000
1000
0000
0010
0000
,  // measure 65
1000
0100
0001
0010
0001
0100
1000
0000
,  // measure 66
1001
0100
0100
0000
1001
0010
0010
0100
,  // measure 67
0001
0100
0000
0010
1000
0000
0001
0100
0000
0010
0100
0010
0100
0000
0000
0000
;

//---------------dance-single - ----------------
#NOTES:
     dance-single:
     :
     Challenge:
     10:
     0.661,0.749,0.371,0.052,0.466: // measure 1
0000
0000
0000
0000
,  // measure 2
0000
0000
0000
0000
,  // measure 3
0000
0000
0000
0000
,  // measure 4
0000
0000
0000
0000
,  // measure 5
0000
0000
0000
0000
,  // measure 6
0000
0000
0000
0000
,  // measure 7
0000
0000
0000
0000
,  // measure 8
1001
0000
0100
0000
0010
0000
0010
0000
0001
0000
0000
1000
0000
0000
0001
0000
,  // measure 9
0010
0000
0100
0000
1000
0000
1000
0000
0001
0000
0000
1000
0000
0000
0001
0000
,  // measure 10
1000
0000
0100
0000
0010
0000
0010
0000
0001
0000
0000
1000
0000
0000
0001
0000
,  // measure 11
0010
0100
1000
0010
0100
0100
0110
0000
,  // measure 12
1000
0000
0100
0000
0010
0000
0010
0000
0001
0000
0100
0001
0000
0000
0100
0000
,  // measure 13
0001
0000
0010
0000
0100
0000
0100
0000
1000
0000
0010
1000
0000
0000
0100
0000
,  // measure 14
1000
0000
0010
0000
0100
0000
0100
0000
0001
0000
0010
0001
0000
0000
0100
0000
,  // measure 15
0001
0100
0010
1000
0010
0010
0110
0000
,  // measure 16
1001
0000
0001
0000
0010
0000
0001
0000
0010
0000
1000
0100
0000
0000
1000
0000
,  // measure 17
0010
0000
1000
0000
0100
0000
1000
0000
0100
0000
0001
0010
0000
0000
0001
0000
,  // measure 18
0100
0000
0010
0000
0100
0000
0010
0000
1000
0000
0001
0010
0000
0000
1000
0000
,  // measure 19
0001
0010
0100
1000
0010
0010
0110
0000
,  // measure 20
1001
0000
0100
0000
1000
0000
0100
0000
1000
0000
0001
0100
0000
0000
1000
0000
,  // measure 21
1001
0000
0010
0000
0001
0000
0010
0000
0001
0000
1000
0010
0000
0000
0001
0000
,  // measure 22
1001
0000
0010
0000
1000
0000
0010
0000
1000
0000
0001
0010
0000
0000
1000
0000
,  // measure 23
1001
0100
0001
0100
0001
0001
1001
0000
,  // measure 24
1001
0100
1000
0100
0001
0010
0001
0010
,  // measure 25
1000
0000
0010
0000
1000
0000
0010
0000
0001
0000
0100
0010
0100
0010
0100
0000
,  // measure 26
2002
0000
0000
0000
,  // measure 27
3003
0000
0000
0000
,  // measure 28
0220
0000
0000
0000
,  // measure 29
0330
0000
0000
0000
,  // measure 30
1001
0000
0100
0001
0000
0000
0010
0000
0100
0000
0100
0000
0100
0000
0010
0000
,  // measure 31
1000
0100
0001
0100
0010
0100
0010
0000
,  // measure 32
1001
0000
0010
0000
0001
0000
0100
0010
0100
0000
1010
0000
1001
0000
0000
0000
,  // measure 33
1001
0000
0100
0000
1000
0000
0010
0100
0010
0000
0101
0000
1001
0000
0000
0000
,  // measure 34
1001
0000
0100
1000
0000
0000
0100
0000
0010
0000
0010
0000
0010
0000
0100
0000
,  // measure 35
0001
0010
1000
0010
0100
0010
0100
0000
,  // measure 36
1001
0000
0010
0001
0010
0000
0001
0000
1001
0000
0100
1000
0100
0000
1000
0000
,  // measure 37
0001
0100
0000
0100
0010
0000
0010
1000
0000
0001
1000
0001
1000
0000
0000
0000
,  // measure 38
0000
0100
1000
0100
1000
0000
0000
0000
0000
0001
0010
0001
0010
0000
0000
0000
,  // measure 39
0000
0001
0100
0001
0000
0100
0001
0100
0000
0010
1000
0010
0000
1000
0010
1000
,  // measure 40
0100
1000
0100
1000
0100
1000
0100
0001
,  // measure 41
0010
1000
0010
0001
0100
1000
0100
0010
,  // measure 42
0001
1000
0001
1000
0001
1000
0001
1000
0001
1000
0001
1000
0001
0000
0000
0000
,  // measure 43
2002
0000
0000
3003
,  // measure 44
1001
0000
0010
0100
0000
0100
0001
0000
0010
0000
0100
0000
1000
0000
1000
0000
,  // measure 45
0001
0100
0001
0100
0001
0000
0010
0000
0100
0000
1000
0000
0001
0000
0000
0000
,  // measure 46
0010
0000
0001
1000
0001
1000
0010
0000
0100
0001
0100
0000
1001
0000
0000
0000
,  // measure 47
1000
0010
1000
0000
0100
0000
1000
0010
0100
0000
0001
0000
0101
0000
0000
0000
,  // measure 48
1001
0000
0010
0100
0000
0100
1000
0000
0100
0000
0010
0000
0001
0000
0001
0000
,  // measure 49
1000
0010
1000
0010
1000
0000
0100
0000
0010
0000
0001
0000
1000
0000
0000
0000
,  // measure 50
1001
0000
0010
0001
0010
0001
0010
0000
1001
0000
0100
1000
0100
1000
0100
0000
,  // measure 51
1000
0010
0000
0010
0100
0000
0001
0100
0000
0010
0100
0010
0100
0000
0000
0000
,  // measure 52
1001
0000
0000
0010
0100
0000
0001
0000
0010
0000
0100
0000
1000
0000
1000
0000
,  // measure 53
0001
0010
0001
0010
0001
0000
0100
0000
0010
0000
1000
0000
0001
0000
0000
0000
,  // measure 54
0100
0000
0001
0100
0001
0100
0010
0000
1000
0010
1000
0000
1001
0000
0000
0000
,  // measure 55
0001
0100
0001
0000
0010
0000
0001
0100
0010
0000
1000
0000
1010
0000
0000
0000
,  // measure 56
1001
0000
0000
0100
0010
0000
1000
0000
0100
0000
0010
0000
0001
0000
0001
0000
,  // measure 57
1000
0100
1000
0100
1000
0000
0010
0000
0100
0000
0001
0000
1000
0000
0000
0000
,  // measure 58
1001
0000
0100
0001
0100
0001
0100
0000
1001
0000
0010
1000
0010
1000
0010
0000
,  // measure 59
1000
0010
0000
0010
0100
0000
0001
0100
0000
0010
0100
0010
0100
0000
0000
0000
,  // measure 60
1001
0000
0100
0001
0000
0010
0100
0000
1000
0000
0100
0000
0001
0000
0010
0000
,  // measure 61
1000
0001
1000
0001
1000
0000
0010
0000
0001
0000
0100
0000
1000
0000
0000
0000
,  // measure 62
0100
0000
1000
0010
0100
0010
0100
0000
0001
0100
0001
0000
1001
0000
0000
0000
,  // measure 63
0001
0100
0001
0000
0010
0000
0001
0100
0010
0000
1000
0000
1010
0000
0000
0000
,  // measure 64
1001
0000
0010
1000
0000
0100
0010
0000
0001
0000
0010
0000
1000
0000
0100
0000
,  // measure 65
0001
0100
0010
0100
0010
0000
1000
0010
1000
0000
0001
0000
0011
0000
0000
0000
,  // measure 66
1001
0000
0010
0001
0010
0001
0100
0000
1001
0000
0100
1000
0100
1000
0010
0000
,  // measure 67
1000
0001
0000
0001
0100
0000
0010
1000
0000
0001
0010
0001
0010
0000
0000
0000
;

//---------------dance-single - ----------------
#NOTES:
     dance-single:
     :
     Beginner:
     2:
     0.112,0.171,0.086,0.000,0.000: // measure 1
0000
0000
0000
0000
,  // measure 2
0000
0000
0000
0000
,  // measure 3
0000
0000
0000
0000
,  // measure 4
0000
0000
0000
0000
,  // measure 5
0000
0000
0000
0000
,  // measure 6
0000
0000
0000
0000
,  // measure 7
0000
0000
0000
0000
,  // measure 8
0001
0000
0000
0000
,  // measure 9
1000
0000
0000
0000
,  // measure 10
0001
0000
0000
0000
,  // measure 11
1000
0000
0000
0000
,  // measure 12
0010
0000
0000
0000
,  // measure 13
0100
0000
0000
0000
,  // measure 14
0010
0000
0000
0000
,  // measure 15
0100
0000
0000
0000
,  // measure 16
1001
0000
0010
0000
,  // measure 17
0001
0000
0010
0000
,  // measure 18
0001
0000
1000
0000
,  // measure 19
0001
0000
1000
0000
,  // measure 20
0100
0000
1000
0000
,  // measure 21
0100
0000
1000
0000
,  // measure 22
1001
0000
0010
0000
,  // measure 23
0001
0000
1000
0000
,  // measure 24
0100
0000
1000
0000
,  // measure 25
0001
0000
1000
0000
,  // measure 26
1001
0000
0000
0000
,  // measure 27
0000
0000
0000
0000
,  // measure 28
0010
0000
0000
0000
,  // measure 29
0000
0000
0000
0000
,  // measure 30
1001
0000
0000
0000
,  // measure 31
0000
0000
0000
0000
,  // measure 32
0100
0000
0000
0000
,  // measure 33
1000
0000
0000
0000
,  // measure 34
0001
0000
0000
0000
,  // measure 35
0010
0000
0000
0000
,  // measure 36
0001
0000
1000
0000
,  // measure 37
0001
0000
0000
0000
,  // measure 38
1000
0000
0000
0000
,  // measure 39
0001
0000
0000
0000
,  // measure 40
1000
0000
0000
0000
,  // measure 41
0001
0000
0000
0000
,  // measure 42
1000
0000
0000
0000
,  // measure 43
1001
0000
0000
0000
,  // measure 44
0010
0000
0100
0000
,  // measure 45
0010
0000
0000
0000
,  // measure 46
1000
0000
0001
0000
,  // measure 47
1000
0000
0000
0000
,  // measure 48
0010
0000
0100
0000
,  // measure 49
0010
0000
0000
0000
,  // measure 50
1000
0000
0001
0000
,  // measure 51
1000
0000
0000
0000
,  // measure 52
0001
0000
0010
0000
,  // measure 53
0001
0000
0000
0000
,  // measure 54
1000
0000
0100
0000
,  // measure 55
1000
0000
0000
0000
,  // measure 56
0001
0000
0100
0000
,  // measure 57
0001
0000
0000
0000
,  // measure 58
1000
0000
0010
0000
,  // measure 59
1000
0000
0000
0000
,  // measure 60
1001
0000
0000
0000
,  // measure 61
0010
0000
0001
0000
,  // measure 62
1001
0000
0100
0000
,  // measure 63
1000
0000
0001
0000
,  // measure 64
1001
0000
0010
0000
,  // measure 65
1000
0000
0100
0000
,  // measure 66
1001
0000
0000
0000
,  // measure 67
1001
0000
0000
0000
;

//---------------dance-single - ----------------
#NOTES:
     dance-single:
     :
     Medium:
     5:
     0.380,0.432,0.311,0.268,0.009: // measure 1
0000
0000
0000
0000
,  // measure 2
0000
0000
0000
0000
,  // measure 3
0000
0000
0000
0000
,  // measure 4
0000
0000
0000
0000
,  // measure 5
0000
0000
0000
0000
,  // measure 6
0000
0000
0000
0000
,  // measure 7
0000
0000
0000
0000
,  // measure 8
1001
0000
0100
0000
2000
0000
0000
0001
,  // measure 9
3001
0000
1000
0000
0002
0000
0000
1000
,  // measure 10
1003
0000
0010
0000
0200
0000
0000
0010
,  // measure 11
0310
0000
1001
0000
0100
0010
0100
0000
,  // measure 12
0001
0000
1000
0000
0002
0000
0000
0010
,  // measure 13
0013
0000
0001
0000
2000
0000
0000
0100
,  // measure 14
3100
0000
1000
0000
0020
0000
0000
0100
,  // measure 15
0130
0000
1001
0000
0100
0010
0100
0000
,  // measure 16
0001
0100
0001
0000
0100
0000
0010
0000
,  // measure 17
0100
0010
0100
0000
0010
0000
1000
0000
,  // measure 18
0100
1000
0100
0000
1000
0000
0100
0000
,  // measure 19
0010
0000
0001
0000
1000
0001
1000
0000
,  // measure 20
1001
0000
0100
0000
1000
0100
0010
0000
,  // measure 21
1001
0000
0010
0000
0001
0010
0100
0000
,  // measure 22
1001
0000
0100
1000
0100
1000
0100
1000
,  // measure 23
0100
0000
1000
0000
0100
0010
0001
0000
,  // measure 24
1001
0000
0010
0001
0010
0001
0010
0000
,  // measure 25
1001
0000
0010
0100
0010
0100
0010
0000
,  // measure 26
2002
0000
0000
0000
,  // measure 27
0000
3003
0000
0000
,  // measure 28
0220
0000
0000
0000
,  // measure 29
0330
0000
0000
0000
,  // measure 30
2200
0000
0000
0300
,  // measure 31
0002
0000
0000
3003
,  // measure 32
0022
0000
0000
0030
0003
1000
1001
0000
,  // measure 33
1010
0000
0000
0000
0001
0001
1001
0000
,  // measure 34
0202
0000
0000
0300
,  // measure 35
2000
0000
0000
3003
,  // measure 36
1001
0000
0110
0000
,  // measure 37
2002
0000
0000
3003
,  // measure 38
0200
0000
2300
0000
,  // measure 39
3002
0000
0000
0000
,  // measure 40
0103
0100
0100
0100
,  // measure 41
0010
0010
0010
0010
,  // measure 42
2002
0000
0000
3003
,  // measure 43
1001
0000
0000
0000
,  // measure 44
1001
0000
0010
0000
0001
0010
0100
1000
,  // measure 45
0100
0000
1000
0000
0100
0010
0001
0000
,  // measure 46
1000
0001
1000
0000
0010
0100
0010
0000
,  // measure 47
0100
0000
0010
1000
0100
0010
0001
0000
,  // measure 48
1001
0000
0010
0001
0010
0100
1000
0000
,  // measure 49
0010
1000
0010
0000
0100
0001
0100
0000
,  // measure 50
0011
0001
1100
1000
,  // measure 51
2002
0000
0000
3003
,  // measure 52
1001
0000
0100
0000
1000
0100
0010
0001
,  // measure 53
0100
0001
0100
0000
0010
1000
0010
0000
,  // measure 54
1001
0000
0010
0000
1000
0001
1000
0000
,  // measure 55
0100
1000
0100
1000
0010
0100
0100
0000
,  // measure 56
1001
0000
0001
1000
0100
0010
0001
0000
,  // measure 57
0100
0010
0100
0000
0001
1000
0001
0000
,  // measure 58
0110
1000
0110
0001
,  // measure 59
2002
0000
0000
3003
,  // measure 60
0011
0000
0100
0000
1000
0100
0010
0000
,  // measure 61
0001
0001
0001
0000
0100
0010
0100
0000
,  // measure 62
0001
0100
0001
0100
0010
0010
0010
0000
,  // measure 63
1000
0010
0100
0010
1000
0000
1001
0000
,  // measure 64
0011
0000
0100
0000
1000
0100
0010
0001
,  // measure 65
1000
0010
0100
0000
0010
1000
0100
0000
,  // measure 66
2001
0000
3002
0000
,  // measure 67
0103
0000
0000
0010
0000
0000
0100
0000
0000
0001
0000
0000
1000
0000
0000
0000
;
