#TITLE:MENTAL MELTDOWN;
#SUBTITLE:;
#ARTIST:GUHROOVY fw. DJ TECHNORCH;
#TITLETRANSLIT:;
#SUBTITLETRANSLIT:;
#ARTISTTRANSLIT:;
#CREDIT:DMAxel;
#BANNER:MENTAL MELTDOWN.png;
#BACKGROUND:MENTAL MELTDOWN-bg.png;
#LYRICSPATH:;
#CDTITLE:beatmaniaIIDX.png;
#MUSIC:MENTAL MELTDOWN.mp3;
#OFFSET:-0.300;
#SAMPLESTART:43.239;
#SAMPLELENGTH:12.000;
#SELECTABLE:YES;
#BPMS:0.000=145.000;
#STOPS:;
#BGCHANGES:-0.500=MENTAL MELTDOWN.AVI=1.000=1=0=1,
99999=-nosongbg-=1.000=0=0=0 // don't automatically add -songbackground-
;

//---------------dance-single - ----------------
#NOTES:
     dance-single:
     :
     Easy:
     4:
     0.253,0.438,0.292,0.026,0.000: // measure 1
0000
0000
0000
0000
,  // measure 2
0000
0000
0000
0000
,  // measure 3
0000
0000
0000
0000
,  // measure 4
0000
0000
0000
0000
,  // measure 5
0000
0000
0000
0000
,  // measure 6
1001
0001
0000
0000
,  // measure 7
1001
1000
0000
0000
,  // measure 8
1001
0001
0000
0000
,  // measure 9
1001
1000
1000
1000
,  // measure 10
1001
0000
0000
0000
,  // measure 11
0000
0000
0000
0000
,  // measure 12
0001
0000
0000
0000
,  // measure 13
0000
0000
0000
0000
,  // measure 14
1000
0000
0000
0000
,  // measure 15
0000
0000
0000
0000
,  // measure 16
1000
0000
0000
0000
,  // measure 17
0010
0000
0000
0000
,  // measure 18
0110
1000
0001
1000
,  // measure 19
0110
0001
1000
0001
,  // measure 20
1001
0000
0000
0000
,  // measure 21
1000
0000
0000
0000
,  // measure 22
0110
0001
1000
0001
,  // measure 23
0110
1000
0001
1000
,  // measure 24
0110
0000
0000
0000
,  // measure 25
0001
0000
0000
0000
,  // measure 26
1001
0000
0000
0000
,  // measure 27
0001
0010
0001
0010
,  // measure 28
0001
1000
0001
1000
,  // measure 29
0100
1000
0100
1000
,  // measure 30
0001
1000
0001
1000
,  // measure 31
0001
0010
0001
0010
,  // measure 32
0001
1000
0001
1000
,  // measure 33
0100
1000
0100
1000
,  // measure 34
0001
1000
0001
1000
,  // measure 35
1001
0000
0000
0000
,  // measure 36
0001
0100
0001
0100
,  // measure 37
1001
0000
0000
0000
,  // measure 38
1000
0010
1000
0010
,  // measure 39
1001
0000
0000
0000
,  // measure 40
1000
0100
1000
0100
,  // measure 41
0010
0001
0010
0001
,  // measure 42
1001
0000
0000
0000
,  // measure 43
1001
0000
0000
0000
,  // measure 44
2000
0000
0000
3000
,  // measure 45
1001
0000
0000
0000
,  // measure 46
0002
0000
0000
0003
,  // measure 47
1001
0000
0110
0000
,  // measure 48
1001
0000
0110
0000
,  // measure 49
1001
1000
1000
1000
,  // measure 50
0100
0010
0001
0000
,  // measure 51
1001
0000
0000
0000
,  // measure 52
0002
0000
0000
0000
,  // measure 53
1003
0010
1000
0010
,  // measure 54
0100
0010
0100
0010
,  // measure 55
0100
0001
0100
0001
,  // measure 56
1000
0001
1000
0000
,  // measure 57
1001
0001
0010
0001
,  // measure 58
0100
0010
0100
0010
,  // measure 59
1000
0010
1000
0010
,  // measure 60
1000
0001
1000
0001
,  // measure 61
1001
1000
0100
1000
,  // measure 62
0010
0100
0010
0100
,  // measure 63
0010
1000
0100
0010
,  // measure 64
0001
1000
0001
1000
,  // measure 65
1001
0001
0010
0001
,  // measure 66
1001
1000
0100
1000
,  // measure 67
1001
0010
0100
0010
,  // measure 68
1001
0110
0110
0110
,  // measure 69
1001
0000
0000
0000
;

//---------------dance-single - ----------------
#NOTES:
     dance-single:
     :
     Hard:
     8:
     0.471,0.555,0.146,0.137,0.077: // measure 1
0000
0000
0000
0000
,  // measure 2
0000
0000
0000
0000
,  // measure 3
0000
0000
0000
0000
,  // measure 4
0000
0000
0000
0000
,  // measure 5
0000
0000
0000
0000
,  // measure 6
1000
0000
1000
0000
1000
0000
0000
0000
0000
0010
0000
0000
1000
0000
0000
0000
,  // measure 7
0001
0001
0001
0100
0000
0100
0010
0000
,  // measure 8
1000
0000
1000
0000
1000
0000
0000
0000
0000
0010
0000
0000
1000
0000
0000
0000
,  // measure 9
0001
0001
0001
0100
0010
0100
0010
0000
,  // measure 10
2002
0000
0000
3003
,  // measure 11
0200
0000
0000
0000
,  // measure 12
0320
0000
0000
0000
,  // measure 13
0230
0000
0000
0300
,  // measure 14
2002
0000
0000
3003
,  // measure 15
0020
0000
0000
0000
,  // measure 16
0230
0000
0000
0000
,  // measure 17
0320
0000
0000
0030
,  // measure 18
0100
0001
0100
0001
0100
0010
0100
0000
,  // measure 19
0010
1000
0010
1000
0010
0100
0010
0000
,  // measure 20
1000
0010
0001
0000
0100
0010
0100
0000
,  // measure 21
0001
0100
1000
0000
0010
0100
0010
0000
,  // measure 22
0100
0001
0100
0001
0100
0010
0100
0000
,  // measure 23
0010
1000
0010
1000
0010
0100
0010
0000
,  // measure 24
1000
0010
0001
0000
0100
0010
0100
0000
,  // measure 25
0001
0100
1000
0000
0010
0100
0010
0000
,  // measure 26
2002
0000
0000
3003
,  // measure 27
0010
0001
0010
0001
0010
0000
0110
0000
,  // measure 28
0010
0001
0010
0100
1000
0001
1000
0000
,  // measure 29
0100
1000
0100
1000
0100
0000
0110
0000
,  // measure 30
0100
1000
0100
0010
0001
1000
0001
0000
,  // measure 31
0010
0001
0010
0001
0010
0000
0110
0000
,  // measure 32
0100
0001
0010
0100
1000
0001
1000
0000
,  // measure 33
0100
1000
0100
1000
0100
0000
0110
0000
,  // measure 34
0010
1000
0100
0010
0001
1000
0001
0000
,  // measure 35
1000
0000
1000
0000
1000
0000
0000
0000
0000
0100
0000
0000
1000
0000
0000
0000
,  // measure 36
0100
0010
0001
0010
0001
0010
0000
0000
,  // measure 37
0001
0000
0001
0000
0001
0000
0000
0000
0000
0010
0000
0000
0001
0000
0000
0000
,  // measure 38
0010
0100
1000
0100
1000
0100
0000
0000
,  // measure 39
1000
0000
1000
0000
1000
0000
0000
0000
0000
0010
0000
0000
1000
0000
0000
0000
,  // measure 40
0100
0010
0001
0010
0001
0010
0000
0000
,  // measure 41
0001
0000
0001
0000
0001
0000
0000
0000
0000
0100
0000
0000
0001
0000
0000
0000
,  // measure 42
0010
0100
0010
0100
1000
0001
1000
0000
,  // measure 43
1001
0000
0000
0000
,  // measure 44
0100
1000
0100
1000
0100
0000
1000
0010
1000
0010
1000
0000
0000
0000
0000
0000
,  // measure 45
1001
0000
0000
0000
,  // measure 46
0010
0001
0010
0001
0010
0000
0001
0100
0001
0100
0001
0000
0000
0000
0000
0000
,  // measure 47
1001
0000
0000
0000
0010
1000
0010
0000
0000
0000
0000
0000
0100
0001
0100
0000
,  // measure 48
0000
0000
0000
0000
0010
0100
0010
0000
0000
0000
0000
0000
1000
0001
1000
0000
,  // measure 49
0001
0010
0000
0010
0000
0001
0000
1000
,  // measure 50
0100
0010
0100
0010
0100
0010
0001
0000
,  // measure 51
0220
0000
0000
0330
,  // measure 52
2002
0000
0000
3003
,  // measure 53
0100
1000
0100
1000
0100
0010
0100
1000
,  // measure 54
0001
0010
0100
1000
0001
1000
0001
0000
,  // measure 55
0010
0001
0010
0001
0010
0100
0010
0001
,  // measure 56
1000
0100
0010
0001
1000
0001
1000
0000
,  // measure 57
0010
0010
0010
1000
0100
0010
0001
0010
,  // measure 58
1000
0010
0001
1000
0001
1000
0001
0000
,  // measure 59
0100
0100
0100
0001
0010
0100
1000
0100
,  // measure 60
0001
0100
1000
0001
1000
0001
1000
0000
,  // measure 61
0001
0010
1000
0010
0100
0010
0100
0010
,  // measure 62
1000
0010
0001
0100
0010
0100
0010
0100
,  // measure 63
0001
0100
1000
0010
0100
0010
0100
0010
,  // measure 64
1000
0010
0001
0100
0010
0100
0010
0000
,  // measure 65
0110
0010
1000
0001
0010
0001
1000
0000
,  // measure 66
0110
0100
0001
1000
0100
1000
0001
0000
,  // measure 67
0110
0010
1000
0001
0010
0001
1000
0000
,  // measure 68
0110
0100
0001
1000
0100
0001
0100
1000
,  // measure 69
1001
0000
0000
0000
;

//---------------dance-single - ----------------
#NOTES:
     dance-single:
     :
     Challenge:
     9:
     0.607,0.701,0.129,0.155,0.494: // measure 1
0000
0000
0000
0000
,  // measure 2
0000
0000
0000
0000
,  // measure 3
0000
0000
0000
0000
,  // measure 4
0000
0000
0000
0000
,  // measure 5
0000
0000
0000
0000
,  // measure 6
0001
0000
1000
0000
0001
0000
0000
0010
0000
0100
0000
0000
1001
0000
0000
0000
,  // measure 7
1000
0001
1000
0100
0010
0100
0010
0001
,  // measure 8
1000
0000
0001
0000
1000
0000
0000
0100
0000
0010
0000
0000
1001
0000
0000
0000
,  // measure 9
0001
1000
0001
0010
0100
0010
0100
1000
,  // measure 10
0200
1000
0000
1300
,  // measure 11
0020
0001
0000
0031
,  // measure 12
0100
1000
0100
1000
,  // measure 13
0001
0010
0001
1000
,  // measure 14
2001
0010
0000
3010
,  // measure 15
0200
0001
0000
0301
,  // measure 16
0010
0100
0010
0100
,  // measure 17
2002
0000
0000
3003
,  // measure 18
0010
0000
1000
0000
0010
0000
0000
1000
0000
0000
1000
0000
0001
0000
0000
0000
,  // measure 19
0100
0000
0001
0000
0100
0000
0000
0001
0000
0000
0001
0000
1000
0000
0000
0000
,  // measure 20
0001
0010
1000
0010
0100
0010
1000
1000
,  // measure 21
0100
0010
0001
0100
0010
0100
0001
0000
,  // measure 22
0010
0000
0001
0000
0010
0000
0000
0001
0000
0000
0001
0000
1000
0000
0000
0000
,  // measure 23
0100
0000
1000
0000
0100
0000
0000
1000
0000
0000
1000
0000
0001
0000
0000
0000
,  // measure 24
1000
0100
0001
0100
0010
0100
0001
0001
,  // measure 25
0010
0100
0000
0100
1000
0000
0100
0010
0000
0010
0001
0000
1000
0000
1000
0000
,  // measure 26
2002
0000
0000
3003
,  // measure 27
0100
0000
1000
0000
0100
0000
2000
0000
0000
0010
0000
0000
3010
0000
0000
0000
,  // measure 28
0100
0000
0001
0010
0000
0000
0001
0000
0010
0000
0100
0000
1000
0000
0001
0000
,  // measure 29
0010
0000
0001
0000
0010
0000
0002
0000
0000
0100
0000
0000
0103
0000
0000
0000
,  // measure 30
0010
1000
0000
0010
1000
0000
0001
0100
0000
0001
0100
0000
0001
0000
1000
0000
,  // measure 31
0010
0000
0100
0000
0010
0000
2000
0000
0000
0010
0000
0000
3010
0000
0000
0000
,  // measure 32
0100
0000
0001
0100
0000
0000
0001
0000
0010
0000
0100
0000
1000
0000
0001
0000
,  // measure 33
0100
0000
0010
0000
0100
0000
0002
0000
0000
0100
0000
0000
0103
0000
0000
0000
,  // measure 34
0010
0000
0000
1000
0000
0000
0000
0000
0000
0010
0000
0000
1000
0000
0000
0000
0000
0000
0001
0000
0000
0100
0000
0000
0000
0000
0000
0001
0000
0000
0100
0000
0000
0000
0000
0000
0010
0000
0000
0000
0100
0000
0000
0000
0010
0000
0000
0000
,  // measure 35
0100
0000
0001
0000
0100
0000
0000
0001
0000
1000
0000
0000
1001
0000
0000
0000
,  // measure 36
0010
0000
0000
0100
0000
0000
1000
0000
0000
0100
0000
0000
1000
0000
0010
0000
1000
0000
0010
0000
0100
0000
0010
0000
,  // measure 37
1000
0000
0100
0000
1000
0000
0000
0001
0000
1000
0000
0000
1001
0000
0000
0000
,  // measure 38
0100
0010
0001
0010
0001
0100
0100
0100
,  // measure 39
0001
0000
0010
0000
0001
0000
0000
1000
0000
0001
0000
0000
1001
0000
0000
0000
,  // measure 40
0010
0000
0000
0100
0000
0000
1000
0000
0000
0100
0000
0000
1000
0000
0010
0000
1000
0000
0010
0000
0100
0000
0010
0000
,  // measure 41
1000
0000
0001
0000
1000
0000
0000
0010
0000
0100
0000
0000
1001
0000
0000
0000
,  // measure 42
0100
0010
0100
0010
0001
0100
0010
0100
,  // measure 43
2002
0000
0000
3003
,  // measure 44
0010
0001
0010
0001
0010
0000
0001
0100
0001
0100
0001
0000
0100
0010
0100
0010
,  // measure 45
2000
0000
0000
3000
,  // measure 46
0100
1000
0100
1000
0100
0000
1000
0010
1000
0010
1000
0000
0010
0100
0010
0100
,  // measure 47
0001
0000
0000
0000
0100
0001
0100
0000
0001
0000
1000
0000
0010
1000
0010
1000
,  // measure 48
0010
0000
1000
0000
0010
0100
0010
0000
1000
0000
0001
0000
0100
0010
0100
0010
,  // measure 49
0100
0000
0000
0001
0100
0000
0000
0001
0100
0000
0000
1000
0010
0000
0000
1000
,  // measure 50
0010
0000
0100
0000
0010
0000
0100
0000
0001
1000
0001
1000
0001
1000
0001
0000
,  // measure 51
0200
0000
0020
0300
,  // measure 52
2030
0000
0000
0000
0000
0000
0000
0000
0000
0000
0000
0000
3001
0000
1000
0000
0001
0000
1000
0000
0000
0001
0000
0000
,  // measure 53
0010
0000
0001
0000
0010
0000
0001
0100
0000
0001
0100
0000
0001
0000
1000
0010
,  // measure 54
0000
1000
0100
0000
0010
0000
0001
0000
1000
0000
0001
1000
0000
0001
0010
0000
,  // measure 55
0100
0000
1000
0000
0100
0000
1000
0010
0000
1000
0010
0000
1000
0000
0001
0100
,  // measure 56
0000
0001
0010
0000
0100
0000
1000
0000
0001
1000
0001
1000
0001
1000
0001
0000
,  // measure 57
0100
0000
0010
0000
0100
0000
0001
0010
0000
0010
0100
0000
1000
0000
0100
0000
,  // measure 58
0001
0000
1000
0000
0001
0000
1000
0100
0000
0100
0010
0000
0001
0000
0000
0000
,  // measure 59
0100
0000
0010
0000
0100
0000
0001
0010
0000
0010
0100
0000
1000
0000
0010
0000
,  // measure 60
1000
0010
1000
0000
0001
0100
0001
0000
0100
0010
0100
0010
0100
0000
0000
0000
,  // measure 61
0010
0000
0100
0000
0010
0000
1000
0100
0000
0100
0010
0000
0001
0000
0100
0000
,  // measure 62
0001
0000
1000
0000
0001
0000
0010
0100
0000
0100
1000
0000
0010
0000
0100
0010
,  // measure 63
0100
0000
0001
0000
0010
0000
0100
1000
0000
1000
0010
0000
0100
0000
0001
0010
,  // measure 64
0000
0010
0100
0000
1000
0000
0001
0000
1000
0000
0010
0000
0100
0000
0000
0000
,  // measure 65
0110
0000
0100
0000
0001
0000
1000
0100
0000
1000
0010
0000
0110
0000
0000
0000
,  // measure 66
0110
0000
0010
0000
1000
0000
0001
0010
0000
0001
0100
0000
0110
0000
0000
0000
,  // measure 67
1000
0100
1000
0100
0010
0000
0001
0100
0000
0001
0010
0000
0100
0000
1000
0000
,  // measure 68
0001
0010
0001
0010
0100
0000
1000
0010
0000
0100
0010
0000
1000
0000
0001
0000
,  // measure 69
1001
0000
0000
0000
;

//---------------dance-single - ----------------
#NOTES:
     dance-single:
     :
     Beginner:
     2:
     0.082,0.175,0.077,0.000,0.000:
0000
0000
0000
0000
,
0000
0000
0000
0000
,
0000
0000
0000
0000
,
0000
0000
0000
0000
,
0000
0000
0000
0000
,
1000
0000
0000
0000
,
0000
0000
0000
0000
,
0001
0000
0000
0000
,
0000
0000
0000
0000
,
1001
0000
0000
0000
,
0000
0000
0000
0000
,
0000
0000
0000
0000
,
0000
0000
0000
0000
,
1001
0000
0000
0000
,
0000
0000
0000
0000
,
0000
0000
0000
0000
,
1000
0000
0000
0000
,
0001
0000
0000
0000
,
0100
0000
0000
0000
,
0001
0000
0000
0000
,
0000
0000
0000
0000
,
1000
0000
0000
0000
,
0010
0000
0000
0000
,
1000
0000
0000
0000
,
0010
0000
0000
0000
,
1001
0000
0000
0000
,
0010
0000
0000
0000
,
0100
0000
0000
0000
,
0010
0000
0000
0000
,
1000
0000
0000
0000
,
0001
0000
0000
0000
,
1000
0000
0000
0000
,
0001
0000
0000
0000
,
0100
0000
0000
0000
,
0010
0000
0000
0000
,
0000
0000
0000
0000
,
0010
0000
0000
0000
,
0000
0000
0000
0000
,
0100
0000
0000
0000
,
0000
0000
0000
0000
,
0100
0000
0000
0000
,
0001
0000
0000
0000
,
1001
0000
0000
0000
,
1000
0000
0000
0000
,
1001
0000
0000
0000
,
0001
0000
0000
0000
,
1001
0000
1000
0000
,
0001
0000
1000
0000
,
0001
0000
1000
0000
,
0001
0000
0000
0000
,
1001
0000
0000
0000
,
0000
0000
0000
0000
,
1000
0000
0000
0000
,
0100
0000
0000
0000
,
1000
0000
0000
0000
,
0001
0000
0000
0000
,
0010
0000
0000
0000
,
0001
0000
0000
0000
,
1000
0000
0000
0000
,
0001
0000
0001
0000
,
1001
0000
0000
0000
,
1000
0000
0000
0000
,
0010
0000
0000
0000
,
0100
0000
0000
0000
,
0001
0000
0000
0000
,
0001
0000
0000
0000
,
1000
0000
1000
0000
,
1000
0000
0001
0000
,
1001
0000
0000
0000
;

//---------------dance-single - ----------------
#NOTES:
     dance-single:
     :
     Medium:
     6:
     0.394,0.496,0.343,0.043,0.000: // measure 1
0000
0000
0000
0000
,  // measure 2
0000
0000
0000
0000
,  // measure 3
0000
0000
0000
0000
,  // measure 4
0000
0000
0000
0000
,  // measure 5
0000
0000
0000
0000
,  // measure 6
1001
0000
1000
0000
0010
0100
0010
0000
,  // measure 7
1001
0000
0101
0000
0100
0010
0100
0000
,  // measure 8
1001
0000
1000
0000
0010
0100
0010
0000
,  // measure 9
1001
0110
0110
0110
,  // measure 10
1002
0000
0000
0000
,  // measure 11
2003
0000
0000
0000
,  // measure 12
3001
0000
0000
0000
,  // measure 13
0000
0000
0000
1001
,  // measure 14
2000
0000
0000
0000
,  // measure 15
3002
0000
0000
0000
,  // measure 16
1003
0000
0000
0000
,  // measure 17
1001
0000
0000
0000
,  // measure 18
0100
0001
0100
0001
0100
0000
0001
0000
,  // measure 19
1000
0010
1000
0010
1000
0000
0001
0000
,  // measure 20
0100
0010
0100
0010
,  // measure 21
1000
0001
1000
0001
,  // measure 22
0010
0001
0010
0001
0010
0000
0001
0000
,  // measure 23
1000
0100
1000
0100
1000
0000
0001
0000
,  // measure 24
0100
0010
0100
0010
,  // measure 25
1000
0001
1000
0001
1000
0001
1000
0000
,  // measure 26
1001
0000
0000
0000
,  // measure 27
0100
1000
0100
0000
1000
0000
1001
0000
,  // measure 28
1000
0100
0010
0001
,  // measure 29
0010
0001
0010
0000
0001
0000
1001
0000
,  // measure 30
0001
0010
0100
1000
,  // measure 31
0010
1000
0010
0000
1000
0000
1001
0000
,  // measure 32
1000
0100
0010
0001
,  // measure 33
0100
0001
0100
0000
0001
0000
1001
0000
,  // measure 34
0100
0010
0100
0010
0100
0010
0100
0000
,  // measure 35
1001
0001
0000
0000
,  // measure 36
1000
0010
1000
0010
,  // measure 37
1001
1000
0000
0000
,  // measure 38
0001
0100
0001
0100
,  // measure 39
1001
0001
1000
0001
,  // measure 40
0100
0010
0100
0010
0100
0010
0100
0010
,  // measure 41
0100
0001
0010
0100
,  // measure 42
1001
1000
0001
1000
,  // measure 43
1001
0000
0000
0000
,  // measure 44
0001
0010
0001
1000
0100
1000
0001
0000
,  // measure 45
1001
0000
0000
0000
,  // measure 46
1000
0100
1000
0001
0010
0001
1000
0000
,  // measure 47
1001
0001
0110
1000
,  // measure 48
1001
1000
0110
0001
,  // measure 49
1001
0011
1001
0011
,  // measure 50
0100
1000
0100
1000
0100
1000
0100
0000
,  // measure 51
1001
0000
0000
0000
,  // measure 52
2000
0000
0000
0000
,  // measure 53
3001
0100
0001
0000
0100
0001
0100
0000
,  // measure 54
0010
1000
0010
1000
0010
1000
0001
0000
,  // measure 55
1000
0010
1000
0000
0010
1000
0010
0000
,  // measure 56
0100
0001
0100
0001
0100
0001
1000
0000
,  // measure 57
0100
1000
0100
0000
1000
0100
1000
0000
,  // measure 58
0100
1000
0100
1000
0100
1000
0001
0000
,  // measure 59
0010
0001
0010
0000
0001
0010
0001
0000
,  // measure 60
0010
0001
0010
0001
0010
0001
1000
0000
,  // measure 61
1001
0000
0001
0000
0010
0001
0100
0000
,  // measure 62
0001
1000
0001
1000
0001
1000
0001
0000
,  // measure 63
1001
0000
1000
0000
0100
1000
0010
0000
,  // measure 64
1000
0001
1000
0001
1000
0001
1000
0000
,  // measure 65
1001
0000
0001
0000
0100
0001
0010
0000
,  // measure 66
1001
0000
1000
0000
0010
1000
0100
0000
,  // measure 67
1000
0001
0100
0000
0010
1000
0001
0000
,  // measure 68
1001
0110
0110
0110
,  // measure 69
1001
0000
0000
0000
;
