#TITLE:MEET MY FRIEND;
#SUBTITLE:;
#ARTIST:EDDY HUNTINGTON;
#TITLETRANSLIT:;
#SUBTITLETRANSLIT:;
#ARTISTTRANSLIT:;
#CREDIT:DMAxel;
#BANNER:MEET MY FRIEND.png;
#BACKGROUND:MEET MY FRIEND-bg.png;
#LYRICSPATH:MEET MY FRIEND.lrc;
#CDTITLE:Dancemania SuperClassics 1.png;
#MUSIC:MEET MY FRIEND.mp3;
#OFFSET:-7.440;
#SAMPLESTART:51.584;
#SAMPLELENGTH:12.000;
#SELECTABLE:YES;
#BPMS:0.000=130.300;
#STOPS:;
#BGCHANGES:;

//---------------dance-single - ----------------
#NOTES:
     dance-single:
     :
     Easy:
     3:
     0.215,0.219,0.130,0.090,0.000:
0001
1001
1000
0000
,
1000
1001
0001
0000
,
0100
0110
0010
0000
,
0010
0110
0100
0000
,
0010
0010
0010
0000
,
0100
0100
0100
0000
,
0010
0010
0010
0000
,
1000
0001
1000
0000
,
0001
0100
0001
0000
,
0001
1000
0001
0000
,
1000
0010
1000
0000
,
1000
0001
1000
0000
,
0010
0100
0010
0000
,
0010
1000
0010
0000
,
0100
0010
0100
0000
,
0100
0001
0100
0000
,
0002
0000
0000
0000
,
2003
0000
0000
0000
,
3001
1000
0001
0000
,
0200
0000
0000
0020
0300
0000
0000
0000
,
2030
0000
0000
0000
,
3002
0000
0000
0000
,
1003
0001
1000
0000
,
0020
0000
0000
0000
,
0130
0010
0110
0000
,
0001
1000
1001
0000
,
0100
0100
0010
1000
,
0002
0000
0000
0003
,
0100
0010
0110
0000
,
0001
1000
1001
0000
,
0100
0100
0001
1000
,
0200
0000
0000
0300
,
1000
0000
0000
0001
,
0100
0000
0000
0010
,
1000
0000
0000
1000
,
0001
0010
0001
0000
,
0001
0000
0000
0100
,
0001
0000
0000
1000
,
0010
0000
0000
1000
,
0001
0010
0100
0000
,
1000
0001
1001
0000
,
0010
0100
0110
0000
,
1000
1000
0001
0001
,
0010
0100
1000
0000
,
0001
1000
1001
0000
,
0100
0010
0110
0000
,
0001
0001
1000
1000
,
0100
0010
0001
0000
,
1000
0000
0000
1001
;

//---------------dance-single - ----------------
#NOTES:
     dance-single:
     :
     Medium:
     5:
     0.358,0.340,0.190,0.080,0.000:
2000
0010
3010
0000
,
1000
0001
1000
0001
1000
0000
0000
0000
,
0002
0100
0103
0000
,
0001
1000
0001
1000
0001
0000
0000
0000
,
0100
0000
0100
0000
0100
0001
1000
0000
,
0010
0000
0010
0000
0010
1000
0001
0000
,
0100
0000
0100
0000
0100
0001
1000
0000
,
0010
0000
0010
0000
0010
0100
0010
1000
,
0001
0010
0001
0000
1000
0000
0001
0000
,
1000
0100
1000
0000
0001
0000
1000
0000
,
0001
0100
0010
0000
1000
0000
1000
0010
,
0100
0001
1000
0001
,
1000
0010
1000
0000
0001
0000
1000
0000
,
0001
0100
0001
0000
1000
0000
0001
0000
,
1000
0010
0100
0000
0001
0000
0001
0000
,
0001
0100
0010
0000
1000
0100
0010
0001
,
0000
0000
0000
0000
0000
0100
0001
1000
,
0000
0000
0000
0000
0000
0010
1000
0001
,
0010
0000
0010
0000
0010
0001
0010
0000
,
0002
0000
0000
2003
0000
3100
0010
0001
,
0000
0000
0000
0000
0000
0100
0001
1000
,
0000
0000
0000
0000
0000
0100
1000
0001
,
0100
0000
0100
0000
0100
1000
0100
0000
,
1000
0010
0100
0000
0001
0100
0010
0000
,
0101
0000
0100
0000
0101
0000
1000
0100
,
1000
0100
1000
0001
0100
0000
0000
0000
,
1010
0000
0010
0000
1010
0000
0001
0100
,
2000
0100
3001
0000
,
0011
0000
0010
0000
0011
0000
1000
0010
,
1000
0010
1000
0001
0010
0000
0000
0000
,
1100
0000
0100
0000
1100
0000
0001
0100
,
2000
0100
3001
0000
,
1000
0001
0000
0000
0000
0100
0010
0100
,
0001
1000
0000
0000
0000
0010
0100
0010
,
1000
0001
0000
0000
0000
0100
0010
0100
,
0001
0100
1100
0000
,
0001
1000
0000
0000
0000
0010
0100
0010
,
1000
0001
0000
0000
0000
0100
0010
0100
,
0001
1000
0000
0000
0000
0010
0100
0010
,
1000
0100
0101
0000
,
0101
0000
0010
0000
0101
0000
1000
0100
,
1000
0001
0100
0001
1000
0000
0000
0000
,
1010
0000
0100
0000
1010
0000
0001
0100
,
2000
0100
3001
0000
,
1100
0000
0010
0000
1100
0000
0001
0100
,
0001
1000
0100
1000
0001
0000
0000
0000
,
0011
0000
0100
0000
0011
0000
1000
0100
,
0002
0100
1003
0000
,
1000
0100
0001
1001
;

//---------------dance-single - ----------------
#NOTES:
     dance-single:
     :
     Hard:
     7:
     0.517,0.511,0.299,0.070,0.190: // measure 1
0001
0000
0000
0000
0011
0000
0000
0010
0000
0000
0000
0000
0000
0000
0010
0000
,  // measure 2
0001
0100
0010
1000
0100
0000
0000
0000
,  // measure 3
1000
0000
0000
0000
1100
0000
0000
0100
0000
0000
0000
0000
0000
0000
0000
0000
,  // measure 4
1000
0100
0010
0001
1000
0000
0000
0000
,  // measure 5
1000
0000
0000
0000
1000
0000
0000
1000
0000
0001
0100
0000
0110
0000
0000
0000
,  // measure 6
0001
0000
0000
0000
0001
0000
0000
0001
0000
1000
0010
0000
0110
0000
0000
0000
,  // measure 7
1000
0000
0000
0000
1000
0000
0000
0001
0000
1000
0010
0000
0110
0000
0000
0000
,  // measure 8
0001
0000
0000
0000
0001
0000
0000
1000
0000
0001
0100
0000
0010
0000
0010
0000
,  // measure 9
1000
0000
0010
0000
0100
0000
0001
0000
0100
0000
0000
1000
0000
0000
0100
0000
,  // measure 10
0001
0000
0100
0000
0010
0000
1000
0000
0100
0000
0000
0001
0000
0000
0100
0000
,  // measure 11
1000
0001
0010
0100
0010
0001
1000
0100
,  // measure 12
0010
0000
0001
0000
0100
0000
0000
0000
0020
0000
0000
1000
0000
0000
1030
0000
,  // measure 13
0001
0000
0010
0000
0001
0000
1000
0000
0100
0000
0000
0001
0000
0000
0100
0000
,  // measure 14
1000
0000
0010
0000
1000
0000
0001
0000
0100
0000
0000
1000
0000
0000
0100
0000
,  // measure 15
0001
0010
0100
1000
0001
0010
0100
0010
,  // measure 16
0001
1000
0100
0010
0100
1000
0100
0002
,  // measure 17
0000
0100
0100
0103
0000
1000
0100
0002
,  // measure 18
0000
0100
0100
0103
0000
1000
0100
0001
,  // measure 19
0100
0000
1100
0000
0001
0010
0100
1000
,  // measure 20
0002
0000
0000
2003
0000
3001
0100
2000
,  // measure 21
0000
0100
0100
3100
0000
0001
0100
2000
,  // measure 22
0000
0100
0100
3100
0000
0001
0100
1000
,  // measure 23
0100
0000
0101
0000
1000
0100
0010
0001
,  // measure 24
1000
0100
0001
0100
0010
0001
1000
0010
,  // measure 25
0110
0000
0000
0000
1001
0000
0000
1001
0000
0000
1000
0000
0001
0000
1000
0000
,  // measure 26
0100
0000
0100
0000
0010
0000
0010
0000
0001
0000
1000
0010
0000
1000
0010
0000
,  // measure 27
0100
0000
0101
0000
1100
0000
0010
0001
,  // measure 28
1000
0100
0001
0100
1000
0000
0000
0000
,  // measure 29
0110
0000
0000
0000
1001
0000
0000
1001
0000
0000
0001
0000
1000
0000
0001
0000
,  // measure 30
0010
0000
0010
0000
0100
0000
0100
0000
1000
0000
0001
0100
0000
0001
0100
0000
,  // measure 31
0010
0000
1100
0000
0101
0000
0010
1000
,  // measure 32
0001
0100
1000
0100
0001
0000
0100
0001
,  // measure 33
1000
0100
1000
0000
1000
0001
0100
1000
,  // measure 34
0100
0010
1000
0000
0001
1000
0100
0001
,  // measure 35
0100
0010
0001
0000
1000
0001
0100
1000
,  // measure 36
0100
0000
0010
0000
1000
0000
0001
0000
0100
0010
0000
0000
1000
0000
1000
0000
,  // measure 37
0001
0100
0001
0000
0001
1000
0100
0001
,  // measure 38
0100
0010
0001
0000
1000
0001
0100
1000
,  // measure 39
0100
0010
1000
0000
0001
1000
0100
0001
,  // measure 40
0100
0000
0010
0000
0100
0000
0001
0000
0100
0010
0100
0000
0001
0000
0001
0000
,  // measure 41
0110
0000
0000
0000
1001
0000
0000
1001
0000
0000
0100
0001
0000
0100
0001
0000
,  // measure 42
1000
0000
0100
0000
0001
0000
0100
0000
1000
0000
0010
0100
0000
0010
0100
0000
,  // measure 43
0101
0000
1100
0000
0101
0000
0010
1000
,  // measure 44
0001
0000
0100
0000
1000
0000
0100
0000
0001
1000
0001
0000
1000
0000
1000
0000
,  // measure 45
0110
0000
0000
0000
1001
0000
0000
1001
0000
0000
0010
1000
0000
0010
1000
0000
,  // measure 46
0001
0000
0100
0000
1000
0000
0100
0000
0001
0000
0100
0010
0000
0100
0010
0000
,  // measure 47
1010
0000
0011
0000
1010
0000
0100
0001
,  // measure 48
1000
0000
0100
0000
0001
0000
0100
0000
1000
0000
0000
0000
0001
1000
0001
1000
,  // measure 49
0001
0000
0000
0000
0001
0000
0000
1000
0000
0001
0100
0000
0110
0000
0000
0000
;

//---------------dance-single - ----------------
#NOTES:
     dance-single:
     :
     Beginner:
     2:
     0.097,0.146,0.110,0.000,0.000:
0001
0000
0000
0000
,
0001
0000
0000
0000
,
1000
0000
0000
0000
,
1000
0000
0000
0000
,
0010
0000
0000
0000
,
0010
0000
0000
0000
,
0010
0000
0000
0000
,
0010
0000
0000
0000
,
1000
0000
0000
0000
,
0100
0000
0000
0000
,
0010
0000
0000
0000
,
0001
0000
0000
0000
,
1000
0000
0000
0000
,
0100
0000
0000
0000
,
0010
0000
0000
0000
,
0001
0000
0000
0000
,
1000
0000
0000
0000
,
1000
0000
0000
0000
,
1001
0000
0001
0000
,
1000
0000
0000
0000
,
0001
0000
0000
0000
,
0001
0000
0000
0000
,
1001
0000
1000
0000
,
0010
0000
0000
0000
,
0110
0000
0000
0000
,
0010
0000
0000
0000
,
0100
0000
0000
0000
,
0110
0000
0000
0000
,
1001
0000
0000
0000
,
0001
0000
0000
0000
,
1000
0000
0001
0000
,
1001
0000
0000
0000
,
0100
0000
0000
0000
,
0100
0000
0000
0000
,
0100
0000
0000
0000
,
0100
0000
0000
0000
,
0010
0000
0000
0000
,
0010
0000
0000
0000
,
0010
0000
0000
0000
,
0010
0000
0000
0000
,
1001
0000
0000
0000
,
1000
0000
0000
0000
,
0001
0000
1000
0000
,
1001
0000
0000
0000
,
0110
0000
0100
0000
,
0010
0000
0100
0000
,
0001
0000
1000
0000
,
1001
0000
0000
0000
,
0001
0000
0000
1001
;
