#TITLE:MARIO SYNDROME;
#SUBTITLE:Re-Mix Version;
#ARTIST:SUPER BUBBLE CLUB;
#TITLETRANSLIT:;
#SUBTITLETRANSLIT:;
#ARTISTTRANSLIT:;
#CREDIT:DMAxel;
#BANNER:MARIO SYNDROME Re-Mix Version.png;
#BACKGROUND:MARIO SYNDROME Re-Mix Version-bg.png;
#LYRICSPATH:;
#CDTITLE:DMAxel original simfile.png;
#MUSIC:MARIO SYNDROME Re-Mix Version.mp3;
#OFFSET:-9.860;
#SAMPLESTART:56.253;
#SAMPLELENGTH:12.000;
#SELECTABLE:YES;
#BPMS:0.000=113.780;
#STOPS:;
#BGCHANGES:;

//---------------dance-single - ----------------
#NOTES:
     dance-single:
     :
     Easy:
     2:
     0.151,0.190,0.061,0.141,0.000:
0001
0000
1000
0000
,
0010
0200
0000
0000
,
0310
0000
0100
0000
,
1001
0020
0000
0230
,
0000
0000
0310
0000
,
1001
0000
0000
1000
,
0100
0010
0001
0010
,
0100
1000
0100
0010
,
0001
0010
0100
1001
,
0000
1001
0000
0000
,
0010
0000
1000
0000
,
0010
0000
0000
0000
,
0100
0000
0010
0000
,
1000
0002
0000
0000
,
1003
0000
0010
0000
,
0100
0002
0000
0000
,
0013
0000
0001
0000
,
1000
0020
0000
0000
,
1030
0000
0010
0000
,
0100
0000
0001
0000
,
1001
0000
0100
0000
,
0010
0000
0101
0000
,
1000
0000
0001
0000
,
0010
0000
0100
0000
,
1000
0000
0100
0000
,
0010
0000
0001
0000
,
0100
0000
0010
0000
,
1000
0000
0001
0000
,
0010
0000
0001
0000
,
0100
0000
0010
0000
,
1000
0000
0001
0000
,
0100
0000
0010
0000
,
0100
0000
0010
0000
,
1000
0000
0001
0020
,
0000
0000
0000
0032
,
0000
1003
0000
0002
,
0000
0000
0000
2003
,
0000
0000
3001
0100
,
0000
0010
0000
1000
,
0000
0020
0000
0230
,
0000
0000
0000
0302
,
0000
0000
2000
3003
;

//---------------dance-single - ----------------
#NOTES:
     dance-single:
     :
     Hard:
     7:
     0.414,0.337,0.303,0.081,0.257:
0100
0000
1001
0000
0100
0000
1001
0010
,
0100
0000
1100
0000
0001
0010
0100
1000
,
0001
0001
1001
0000
0100
0000
1001
0100
,
0010
0000
0011
0000
1000
0100
0010
0001
,
1000
0001
0000
1000
0000
0001
0010
0000
0200
0000
0000
0000
0300
0000
0000
0000
,
1000
0100
0010
0001
1000
0100
0010
0001
,
1000
1100
0001
0101
,
1000
0000
1001
0000
0001
1000
0001
0000
,
0100
0101
1000
1100
,
0001
0000
0000
0001
0000
0000
1000
0000
1000
0000
1001
0000
,
0000
0000
0101
0000
0100
1000
0100
0000
,
1000
0000
1001
0000
0001
0010
0100
1000
,
0010
0000
1010
0000
0010
0001
0010
0000
,
0001
0000
1001
0000
1000
0100
0010
0001
,
0100
0000
0101
0000
0100
1000
0100
0000
,
1000
0000
1001
0000
0001
0010
0100
1000
,
0010
0000
1010
0000
0010
0001
0010
0000
,
0001
0000
1001
0000
0001
0100
0010
1000
,
0001
0010
0001
0001
1000
1000
0100
0010
,
0001
0000
1001
0000
1000
0100
0010
0001
,
1000
0100
1000
1000
0001
0001
0010
0100
,
1000
0000
1001
0000
0001
0010
0100
1000
,
0001
0000
0000
0010
0000
0001
0000
0000
0000
1000
0000
0010
0000
1000
0000
0000
,
0002
0000
0000
0000
1003
0000
0000
0100
0000
1000
0000
0001
0100
0001
0000
0000
,
1000
0000
0000
0100
0000
1000
0000
0000
0000
0001
0000
0100
0000
0001
0000
0000
,
2000
0000
0000
0000
3001
0000
0000
0010
0000
0001
0000
1000
0010
1000
0000
0000
,
0001
0101
1000
1100
,
0001
1000
0001
1000
0000
0000
0001
0000
0000
1001
0000
0000
,
1000
1100
0001
0101
,
1000
0000
0001
1000
0001
1000
0001
0000
0000
1001
0000
0000
,
0001
0100
0010
0000
1000
0100
0010
0000
,
0001
1000
0001
1000
0000
0000
0001
0000
0000
1001
0000
0000
,
1000
0010
0100
0000
0001
0010
0100
0000
,
1000
0000
0001
1000
0001
1000
0001
0000
0000
1001
0000
0000
,
0001
0000
0000
0100
0000
0000
0001
0000
2000
0000
0000
0000
3100
0000
0000
0000
,
1000
0000
0000
0001
0000
0100
0010
0100
0000
0000
0000
0001
1000
0000
0010
0000
,
1000
0000
0000
0010
0000
0000
1000
0000
0002
0000
0000
0000
0013
0000
0000
0000
,
0001
0000
0000
1000
0000
0010
0100
0000
0010
0000
0000
1000
0001
0000
0100
0000
,
0001
0000
0000
0100
0000
0000
0010
0000
2000
0000
0000
0000
3001
0000
0000
0000
,
1000
0000
0000
0010
0000
0100
0010
0100
0000
0000
0000
0010
1000
0000
0001
0000
,
1000
0000
0000
0010
0000
0000
0100
0000
0002
0000
0000
0000
1003
0000
0000
0000
,
0001
1000
0000
0001
0000
1000
0010
0000
0200
0000
0000
0000
0310
0000
0000
0000
;

//---------------dance-single - ----------------
#NOTES:
     dance-single:
     :
     Challenge:
     9:
     0.560,0.485,0.222,0.040,0.727: // measure 1
1000
0000
0100
0000
1100
0000
0000
0000
0001
0000
0100
0000
0001
1000
0001
1000
,  // measure 2
0001
0010
0011
0000
1000
0100
0010
0001
,  // measure 3
1000
0000
0010
0000
1010
0000
0000
0000
0001
0000
0010
0000
0001
1000
0001
1000
,  // measure 4
0001
0100
0101
0000
1000
0100
0010
0001
,  // measure 5
1000
0001
0000
0100
0000
0010
0100
0000
0001
1000
0001
1000
0001
0000
0000
0000
,  // measure 6
0100
0001
0100
0001
1000
0100
0010
0100
,  // measure 7
1000
0000
0010
0100
0010
1000
0100
0001
,  // measure 8
0100
0000
0010
0100
0010
1000
1000
0001
,  // measure 9
0001
0000
0100
0010
0100
0001
0100
1000
,  // measure 10
0100
0000
0000
0010
0000
0000
0100
0000
0000
0000
0000
0000
1000
0000
0000
0001
0000
0000
1000
0000
0000
0000
0000
0000
1100
0000
0000
0000
0000
0000
0000
0000
1100
0000
0000
0000
0000
0000
0000
0000
1001
0000
0000
0000
0000
0000
0000
0000
,  // measure 11
0001
0000
0101
0000
1000
0100
1100
0000
,  // measure 12
0001
0000
0000
0000
1001
0000
0000
0000
0010
1000
0010
1000
0001
0000
0010
0000
,  // measure 13
0100
0000
0011
0000
1000
0010
1010
0000
,  // measure 14
0001
0000
0000
0000
1001
0000
0000
0000
0100
0001
0100
0001
1000
0000
0100
0000
,  // measure 15
0010
0000
1100
0000
0001
0100
0101
0000
,  // measure 16
1000
0000
0000
0000
1001
0000
0000
0000
0010
0001
0010
0001
1000
0000
0100
0000
,  // measure 17
0010
0000
0101
0000
1000
0100
1100
0000
,  // measure 18
0001
0000
0000
0000
1001
0000
0000
0000
0100
1000
0100
1000
0001
0100
0000
0100
,  // measure 19
0000
0001
1000
0000
0100
0000
0100
0000
0010
0000
0010
0000
0001
0100
0001
0100
,  // measure 20
0001
0000
1000
0000
1001
0000
0000
0000
0100
0001
0100
0001
1000
0100
1000
0100
,  // measure 21
0000
1000
0001
0000
0010
0000
0010
0000
0100
0000
0100
0000
1000
0010
1000
0010
,  // measure 22
1000
0000
0001
0000
1001
0000
0000
0000
0010
1000
0010
1000
0001
0010
0001
0010
,  // measure 23
0001
0000
0000
0100
0000
0001
0000
0000
0000
1000
0000
0100
0000
1000
0001
0000
,  // measure 24
0010
0000
0000
0000
0100
0000
0000
0000
1000
0000
0000
0000
0001
0000
0000
0000
0000
0000
0100
0000
0000
0010
0000
0000
0000
0000
0000
0010
0000
0000
0000
0000
0000
1000
0000
0000
0001
0000
0000
1000
0000
0000
0001
0000
0000
0000
0000
0000
,  // measure 25
1000
0000
0000
0010
0000
1000
0000
0000
0000
0001
0000
0010
0000
0001
1000
0000
,  // measure 26
0100
0000
0000
0000
0010
0000
0000
0000
0001
0000
0000
0000
1000
0000
0000
0000
0000
0000
0010
0000
0000
0100
0000
0000
0000
0000
0000
0100
0000
0000
0000
0000
0000
0001
0000
0000
1000
0000
0000
0001
0000
0000
1000
0000
0000
0000
0000
0000
,  // measure 27
0010
1000
0000
0002
0000
0000
0103
0000
0010
0100
0000
0010
0100
0000
0000
0000
,  // measure 28
0001
0000
0000
0000
0100
0000
0000
0000
0001
0000
0000
0000
1000
0000
0000
0000
0100
0000
0000
0000
1000
0000
0000
0000
0001
0000
0000
0100
0000
0000
0000
0000
0000
0010
0000
0000
1000
0000
0000
0000
0000
0000
0000
0000
0000
0000
0000
0000
,  // measure 29
0010
1000
0000
0002
0000
0000
0103
0000
0010
0100
0000
0010
0100
0000
0000
0000
,  // measure 30
0001
0000
0000
1000
0000
0000
0000
0000
0010
0000
0000
0000
0100
0000
0000
0000
0010
0000
0000
0000
0100
0000
0000
0000
0001
0000
0000
0010
0000
0000
0000
0000
0000
0100
0000
0000
1000
0000
0000
0000
0000
0000
0000
0000
0000
0000
0000
0000
,  // measure 31
0100
1000
0000
0002
0000
0000
0103
0000
0010
0100
0000
0010
0100
0000
0000
0000
,  // measure 32
0001
0000
0000
0000
0010
0000
0000
0000
0001
0000
0000
0000
1000
0000
0000
0000
0010
0000
0000
0000
1000
0000
0000
0000
0001
0000
0000
0010
0000
0000
0000
0000
0000
0100
0000
0000
1000
0000
0000
0000
0000
0000
0000
0000
0000
0000
0000
0000
,  // measure 33
0100
1000
0000
0002
0000
0000
0103
0000
0010
0100
0000
0010
0100
0000
0000
0000
,  // measure 34
0001
0000
0000
1000
0000
0000
0000
0000
0010
0000
0000
0000
0100
0000
0000
0000
0010
0000
0000
0000
0100
0000
0000
0000
0001
0000
0000
0010
0000
0000
0000
0000
0000
0100
0000
0000
1000
0000
0000
0000
0000
0000
0000
0000
0000
0000
0000
0000
,  // measure 35
0001
0100
0000
0001
0000
1000
0100
0000
0010
0100
0000
0010
0100
0000
0000
0000
,  // measure 36
1000
0010
0000
0100
0000
0001
1000
0001
0000
0000
0000
0100
0010
0100
0010
0100
,  // measure 37
0001
0100
0000
0001
0000
1000
0100
0000
0010
0100
0000
0010
0100
0000
0000
0000
,  // measure 38
1000
0010
0000
0100
0000
0001
0100
0000
0101
0000
0000
0010
0100
0010
0100
0010
,  // measure 39
1000
0010
0000
1000
0000
0001
0010
0000
0100
0010
0000
0100
0010
0000
0000
0000
,  // measure 40
0001
1000
0000
0100
0000
0010
0100
0010
0000
0000
0000
0100
0010
0100
0010
0100
,  // measure 41
1000
0010
0000
1000
0000
0001
0010
0000
0100
0010
0000
0100
0010
0000
0000
0000
,  // measure 42
0001
1000
0000
0100
0000
0010
0100
0000
1000
0001
1000
0001
1000
0000
0000
0000
;

//---------------dance-single - ----------------
#NOTES:
     dance-single:
     :
     Medium:
     5:
     0.332,0.316,0.050,0.061,0.116:
0001
0010
0001
0010
,
0001
1000
1100
0000
,
1000
0100
1000
0100
,
1000
0001
0011
0000
,
2002
0000
0000
3003
,
0010
0100
0001
0010
0100
1000
0100
0010
,
0001
0000
1000
0000
0001
0000
0100
0010
,
0100
0000
0001
0000
1000
0000
0010
0100
,
0010
1000
0001
0100
,
0010
0000
0000
0000
0010
0000
0000
0000
1000
0000
0000
0001
0000
0000
1000
0000
,
0000
0000
0001
0000
1000
0001
1000
0000
,
0010
0000
0100
0000
0001
0010
0001
1000
,
0010
0000
1000
0000
0000
0001
1000
0001
,
0100
0000
0010
0000
1000
0010
0100
0001
,
1000
0000
0010
0000
1000
0000
0001
1000
,
0001
0000
0100
0000
0010
0100
0010
1000
,
0001
0000
0100
0000
0010
1000
0001
0000
,
1000
0000
0010
0000
0100
0001
0010
0100
,
1000
0000
0001
0000
0010
0000
0001
0010
,
1000
0000
0010
0000
0100
0010
1000
0001
,
0100
0000
0010
0000
1000
0000
0001
0010
,
1000
0000
0010
0000
1000
0100
0001
0100
,
1000
0000
0000
0010
0000
0100
0000
0000
0000
0001
0000
1000
0000
0001
0000
0000
,
1000
0010
0100
0000
0001
0000
1000
0001
,
0100
0000
0000
0001
0000
1000
0000
0000
0000
0001
0000
1000
0000
0001
0000
0000
,
0100
0010
1000
0000
1001
0000
0010
0100
,
0001
0000
1000
0010
0100
0000
0010
0000
,
0200
0000
0000
0000
0000
0000
0000
0000
0301
0000
0000
1000
0000
0000
0000
0000
,
0010
0100
0001
0000
1000
0000
0010
0100
,
0002
0000
0000
0000
0000
0000
0000
0000
1003
0000
0000
0001
0000
0000
0000
0000
,
0100
0010
1000
0000
0001
0100
0010
0000
,
2000
0000
0000
0000
0000
0000
0000
0000
3001
0000
0000
0100
0000
0000
0000
0000
,
0001
0010
0100
0000
1000
0100
0010
0000
,
0002
0000
0000
0000
0000
0000
0000
0000
1003
0000
0000
0001
0000
0000
0000
0000
,
0100
0010
0100
0001
0010
0100
1000
0000
,
0001
0000
0000
0100
0000
0010
1000
0010
0000
0000
0000
0000
0000
0000
0000
0000
,
0100
0010
0100
0001
0010
0100
1000
0000
,
0001
0000
0000
0010
0000
0100
1000
0000
0100
0000
0000
0000
1000
0000
0000
0000
,
0010
0100
0010
1000
0100
0010
0001
0000
,
0100
0010
0100
0001
0010
0100
1000
0000
,
0001
0010
0100
1000
0010
0100
0001
0000
,
1000
0010
0000
0100
0000
0001
1000
0000
0001
0000
0000
0000
1100
0000
0000
0000
;

//---------------dance-single - ----------------
#NOTES:
     dance-single:
     :
     Beginner:
     1:
     0.078,0.105,0.020,0.000,0.000:
1000
0000
0000
0000
,
0000
0000
0000
0000
,
0001
0000
0000
0000
,
0000
0000
0000
1001
,
0000
0000
0000
0010
,
0000
0000
0000
0100
,
0100
0000
0010
0000
,
0010
0000
1000
0000
,
1000
0000
0001
0000
,
0001
0100
0000
0000
,
0010
0000
0010
0000
,
0010
0000
0000
0000
,
0100
0000
0100
0000
,
0100
0000
0000
0000
,
0001
0000
0001
0000
,
0001
0000
0000
0000
,
1000
0000
1000
0000
,
1000
0000
0000
0000
,
0010
0000
0000
0000
,
0000
0000
0000
0000
,
0100
0000
0000
0000
,
0000
0000
0000
0000
,
0001
0000
0000
0000
,
1000
0000
0000
0000
,
0001
0000
0000
0000
,
1000
0000
0000
0010
,
0000
0100
0000
0010
,
0000
0000
0000
0100
,
0000
0100
0000
0010
,
0000
0000
0000
1000
,
0000
1000
0000
0001
,
0000
0000
0000
0010
,
0000
0010
0000
0001
,
0000
0000
0000
0100
,
0000
0000
0000
0100
,
0000
0000
0000
0001
,
0000
0000
0000
1000
,
0000
0000
0000
0010
,
0000
0000
0000
0100
,
0000
0000
0000
0001
,
0000
0000
0000
1001
,
0000
0000
1000
0000
;
