#TITLE:魔法のたまご;
#SUBTITLE:;
#ARTIST:Dormir;
#TITLETRANSLIT:MAHOU NO TAMAGO;
#SUBTITLETRANSLIT:;
#ARTISTTRANSLIT:;
#CREDIT:DMAxel;
#BANNER:MAHOU NO TAMAGO.png;
#BACKGROUND:MAHOU NO TAMAGO-bg.png;
#LYRICSPATH:MAHOU NO TAMAGO.lrc;
#CDTITLE:pop'n music.png;
#MUSIC:MAHOU NO TAMAGO.mp3;
#OFFSET:-10.260;
#SAMPLESTART:71.048;
#SAMPLELENGTH:12.000;
#SELECTABLE:YES;
#BPMS:0.000=142.000;
#STOPS:;
#BGCHANGES:;

//---------------dance-single - ----------------
#NOTES:
     dance-single:
     :
     Easy:
     3:
     0.225,0.246,0.098,0.336,0.000: // measure 1
2000
0000
0000
0000
,  // measure 2
3200
0000
0000
0000
,  // measure 3
0302
0000
0000
0000
,  // measure 4
1003
0000
0000
0000
,  // measure 5
0001
1000
0001
0000
,  // measure 6
0010
0001
0100
0000
,  // measure 7
0010
0100
0010
0000
,  // measure 8
0100
0010
1000
0000
,  // measure 9
1000
0001
1000
0000
,  // measure 10
0100
1000
0010
0000
,  // measure 11
0100
0010
0100
0000
,  // measure 12
0010
0100
0001
0000
,  // measure 13
1002
0000
0010
0000
,  // measure 14
0203
0000
0010
0000
,  // measure 15
0320
0000
1000
0000
,  // measure 16
2030
0000
0001
0001
,  // measure 17
3002
0000
0000
0000
,  // measure 18
2003
0000
0000
0000
,  // measure 19
3010
0100
0010
0000
,  // measure 20
1000
0001
0100
0001
,  // measure 21
2000
0000
0010
0000
,  // measure 22
3020
0000
0100
0000
,  // measure 23
0230
0000
0001
0000
,  // measure 24
0302
0000
1003
0000
,  // measure 25
0002
0000
0100
0000
,  // measure 26
0203
0000
0010
0000
,  // measure 27
0320
0000
1000
0000
,  // measure 28
1030
0001
0100
0010
,  // measure 29
2002
0000
0000
3003
,  // measure 30
0220
0000
0000
0330
,  // measure 31
2002
0000
0000
3003
,  // measure 32
0220
0000
0000
0330
,  // measure 33
2002
0000
0000
3003
,  // measure 34
0022
0000
0000
0033
,  // measure 35
2200
0000
0000
3300
,  // measure 36
0022
0000
0000
0033
,  // measure 37
1001
1000
1000
0010
,  // measure 38
0100
0100
0100
0001
,  // measure 39
0010
0010
0010
0001
,  // measure 40
1000
0001
1000
0001
,  // measure 41
0010
0010
0010
0001
,  // measure 42
0100
0100
0100
0010
,  // measure 43
1000
1000
1000
1000
,  // measure 44
0001
1000
0001
1000
,  // measure 45
1002
0000
1003
0100
,  // measure 46
2000
0000
3001
0010
,  // measure 47
0002
0000
1003
0010
,  // measure 48
1000
0001
0100
0010
,  // measure 49
2000
0000
3001
0100
,  // measure 50
0002
0000
1003
0010
,  // measure 51
2000
0000
3001
0100
,  // measure 52
0010
0100
0001
1000
,  // measure 53
1002
0000
0000
0000
,  // measure 54
0010
0000
0000
0000
,  // measure 55
0013
0000
0000
0000
,  // measure 56
2000
0000
0000
0000
,  // measure 57
0100
0000
0000
0000
,  // measure 58
3100
0000
0000
0000
,  // measure 59
0002
0000
0000
0000
,  // measure 60
1000
0000
0000
0000
,  // measure 61
1003
0000
0000
0000
;

//---------------dance-single - ----------------
#NOTES:
     dance-single:
     :
     Medium:
     5:
     0.327,0.344,0.164,0.262,0.000: // measure 1
0002
0000
0000
0000
,  // measure 2
0023
0000
0000
0000
,  // measure 3
2030
0000
0000
0000
,  // measure 4
3001
0000
0000
0000
,  // measure 5
1001
0000
1000
0000
1000
0001
0100
0000
,  // measure 6
1001
0000
0001
0000
0001
1000
0010
0000
,  // measure 7
1001
0000
1000
0000
0001
0100
0010
0000
,  // measure 8
1001
0000
0001
0000
1000
0010
0100
0000
,  // measure 9
0001
0100
0001
0000
1000
0010
1000
0000
,  // measure 10
0001
0010
0001
0000
0010
0100
1000
0000
,  // measure 11
1000
0100
1000
0000
0100
0010
0001
0000
,  // measure 12
1000
0010
0100
0001
0000
0001
0000
0000
,  // measure 13
0100
0001
1000
0000
0100
0000
0001
0000
,  // measure 14
0100
0001
1000
0000
0001
0000
0100
0000
,  // measure 15
0010
1000
0001
0000
0010
0000
1000
0000
,  // measure 16
0002
0000
1003
0001
,  // measure 17
0200
0000
0301
1000
,  // measure 18
0020
0000
1030
0001
,  // measure 19
0100
0001
1000
0000
0100
0000
0001
0000
,  // measure 20
1000
0100
1000
0000
0001
0100
0010
1000
,  // measure 21
0001
0010
0001
0010
,  // measure 22
1000
0100
1000
0100
,  // measure 23
0001
0000
0100
0000
1000
0000
0010
1000
,  // measure 24
0000
0001
0010
0001
0000
0100
0001
0000
,  // measure 25
1000
0100
1000
0100
,  // measure 26
0001
0010
0001
0010
,  // measure 27
1000
0000
0001
0000
1000
0000
0010
1000
,  // measure 28
0000
0001
0010
0001
0000
0100
0001
0000
,  // measure 29
1002
0000
1000
1003
,  // measure 30
0210
0000
0010
0310
,  // measure 31
2001
0000
0001
3001
,  // measure 32
0120
0000
0100
0130
,  // measure 33
1001
0010
0001
0010
,  // measure 34
0100
1000
1000
0000
,  // measure 35
1001
0100
1000
0100
,  // measure 36
0010
0000
0001
0000
1000
0010
0100
0001
,  // measure 37
1000
0000
0100
0010
0001
0000
1000
0000
,  // measure 38
0001
0000
0010
0100
1000
0000
0001
0000
,  // measure 39
1000
0000
0100
0010
0001
0000
1000
0000
,  // measure 40
0001
1000
0001
0000
0100
0010
0100
0000
,  // measure 41
0001
0000
1000
0000
0001
0100
0010
0000
,  // measure 42
1000
0000
0001
0000
1000
0010
0100
0000
,  // measure 43
0001
0000
1000
0000
0001
0100
0010
0000
,  // measure 44
1000
0001
1000
0000
0010
0100
0010
0000
,  // measure 45
1002
0000
0000
0000
1003
0100
1000
0002
,  // measure 46
0000
0000
0000
0000
0000
1000
0000
2003
,  // measure 47
0000
0000
0000
3001
0000
0100
0000
0001
,  // measure 48
0000
1000
0000
0010
0000
1000
0000
0001
,  // measure 49
2000
0000
0000
0000
3001
0010
0001
2000
,  // measure 50
0000
0000
0000
0000
0000
0001
0000
3002
,  // measure 51
0000
0000
0000
1003
0000
0010
0000
1000
,  // measure 52
0000
0001
0000
0100
0000
0001
1000
0000
,  // measure 53
2020
0000
0000
3030
,  // measure 54
0202
0000
0000
0303
,  // measure 55
0220
0000
0000
0330
,  // measure 56
2200
0000
0000
3300
,  // measure 57
0022
0000
0000
0033
,  // measure 58
0220
0000
0000
0330
,  // measure 59
2002
0000
0000
3003
,  // measure 60
0220
0000
0000
0330
,  // measure 61
1001
0000
0000
0000
;

//---------------dance-single - ----------------
#NOTES:
     dance-single:
     :
     Hard:
     6:
     0.415,0.369,0.139,0.221,0.000: // measure 1
1000
0000
1000
0000
,  // measure 2
0100
0000
0100
0000
,  // measure 3
0001
0000
0001
0000
,  // measure 4
0010
0000
0010
0000
,  // measure 5
0001
0100
0010
0000
1000
0100
1000
0000
,  // measure 6
0001
0100
0010
0000
1000
0100
1000
0100
,  // measure 7
1000
0010
0100
0000
0001
0100
0001
0000
,  // measure 8
1000
0010
0100
0000
0001
0100
0001
0100
,  // measure 9
0001
0010
0100
0000
1000
0010
0100
0000
,  // measure 10
0001
0100
0010
0000
1000
0100
0010
0000
,  // measure 11
0001
0010
1000
0000
0100
0010
0001
1000
,  // measure 12
0001
0010
0100
1000
0000
0012
0000
0000
,  // measure 13
0103
0001
1000
0200
0000
0000
1300
0000
,  // measure 14
0010
1000
0001
0020
0000
0000
0031
0000
,  // measure 15
0100
0001
1000
0200
0000
0000
1300
0100
,  // measure 16
0002
1000
1003
0001
,  // measure 17
0200
0000
0001
0000
0301
0100
1000
0000
,  // measure 18
0020
0000
1000
0000
1030
0010
0001
0000
,  // measure 19
1000
0110
0001
0110
,  // measure 20
1000
1000
0001
0100
0001
0001
1000
0010
,  // measure 21
2000
0001
0001
3001
,  // measure 22
1000
0010
0100
0000
0001
0010
1000
0010
,  // measure 23
0001
0000
0100
0010
1000
0010
1000
0001
,  // measure 24
0000
0100
0010
0100
0000
0100
0001
1000
,  // measure 25
0002
1000
1000
1003
,  // measure 26
0001
0100
0010
0000
1000
0100
0001
0100
,  // measure 27
1000
0000
0010
0100
0001
0100
0001
1000
,  // measure 28
0000
0010
0100
0010
0000
1000
0001
1000
,  // measure 29
1200
0000
0001
0301
,  // measure 30
0021
0000
1000
1030
,  // measure 31
1200
0000
0001
0301
,  // measure 32
0021
0000
1000
1030
,  // measure 33
1001
0000
1000
0001
1000
0000
1000
0100
,  // measure 34
1000
0000
0001
0100
0000
0000
0000
0000
,  // measure 35
1001
0000
0001
1000
0001
0000
0001
0010
,  // measure 36
0001
0000
0100
0001
1000
1000
0001
0001
,  // measure 37
1000
0100
1000
0001
0100
0000
0100
0000
,  // measure 38
0001
0010
0001
1000
0010
0000
0010
0000
,  // measure 39
1000
0010
1000
0001
0000
0010
0001
0100
,  // measure 40
0000
0001
0100
0001
0000
1000
0100
1000
,  // measure 41
0001
0100
0001
1000
0100
0000
0100
0000
,  // measure 42
1000
0010
1000
0001
0010
0000
0010
0000
,  // measure 43
0001
0010
0001
1000
0000
0100
1000
0010
,  // measure 44
0000
1000
0010
1000
0000
0001
0010
0001
,  // measure 45
0200
0000
0001
0000
0301
0010
0100
1000
,  // measure 46
0020
0000
0000
0000
0000
1030
0100
0002
,  // measure 47
1000
0000
1000
0000
1003
0010
0100
0001
,  // measure 48
0000
0100
0010
0100
0000
0001
1000
0100
,  // measure 49
0020
0000
0001
0000
0031
0100
0010
1000
,  // measure 50
0200
0000
0000
0000
0000
1300
0010
0002
,  // measure 51
1000
0000
1000
0000
1003
0100
1000
0010
,  // measure 52
0000
1000
0010
0100
0001
0001
1000
0010
,  // measure 53
0210
0010
0010
0310
,  // measure 54
0102
0100
0100
0103
,  // measure 55
2010
0010
0010
3010
,  // measure 56
0012
0010
0010
0013
,  // measure 57
2100
0100
0100
3100
,  // measure 58
0120
0100
0100
0130
,  // measure 59
1002
1000
1000
1003
,  // measure 60
0210
0010
0010
0310
,  // measure 61
0001
0000
0000
0000
;

//---------------dance-single - ----------------
#NOTES:
     dance-single:
     :
     Challenge:
     7:
     0.480,0.467,0.279,0.197,0.037: // measure 1
2000
0000
0100
0000
,  // measure 2
3002
0000
0010
0000
,  // measure 3
2003
0000
0010
0000
,  // measure 4
3002
0000
0103
0000
,  // measure 5
0101
0110
0101
1001
,  // measure 6
1000
0010
0100
0010
1000
0001
0010
0000
,  // measure 7
1010
0110
1010
1001
,  // measure 8
0001
0100
0010
0100
0001
1000
0100
0000
,  // measure 9
0101
0110
1010
1001
,  // measure 10
1000
0001
0010
0001
1000
0100
0010
0000
,  // measure 11
1010
0110
0101
1001
,  // measure 12
0001
1000
0100
0002
0000
1000
1003
0000
,  // measure 13
0010
1000
0010
1000
0010
0100
0001
0100
,  // measure 14
1000
0010
0100
0001
1000
0100
0001
0000
,  // measure 15
0100
0001
0100
0001
0100
0010
1000
0100
,  // measure 16
0001
0100
0010
1000
0001
0000
0001
0000
,  // measure 17
0200
0000
0001
0000
0301
0100
1000
0000
,  // measure 18
0020
0000
1000
0000
1030
0010
0001
0000
,  // measure 19
0101
0101
1001
1001
,  // measure 20
0010
0000
1000
0010
1000
0000
0100
0000
0010
0000
0001
0100
0001
0000
1000
0000
,  // measure 21
0002
0000
0000
1003
0100
1000
0001
0010
,  // measure 22
0001
1000
0100
0010
0001
0100
0000
0001
,  // measure 23
2000
0000
0000
3001
0010
0001
1000
0100
,  // measure 24
1000
0001
0010
0100
0000
1000
0010
0100
,  // measure 25
0002
0000
0000
1003
0010
1000
0001
0100
,  // measure 26
0001
1000
0100
0001
0000
0100
0001
0010
,  // measure 27
2000
0000
0000
3001
0100
0001
1000
0010
,  // measure 28
1000
0000
0001
0010
0000
0000
0001
0010
0001
0000
1000
0000
0010
0000
0100
0000
,  // measure 29
0102
1000
1000
1003
,  // measure 30
2010
0001
0001
3001
,  // measure 31
0012
1000
1000
1003
,  // measure 32
2100
0001
0001
3001
,  // measure 33
1010
0000
0010
1000
0001
0000
0010
0001
,  // measure 34
1000
0000
0010
0020
0000
0000
0030
0000
,  // measure 35
0101
0000
0100
0001
1000
0000
0100
1000
,  // measure 36
0001
0000
0000
0000
0100
0000
0100
0000
0001
0010
0001
0000
1000
0000
0100
0000
,  // measure 37
0010
0001
0100
0001
0100
0001
1000
0100
,  // measure 38
0000
0100
1000
0100
1000
0001
0100
0001
,  // measure 39
0000
0001
0010
0001
0010
0001
1000
0010
,  // measure 40
0000
0010
1000
0010
1000
0001
0010
0001
,  // measure 41
0000
0001
1000
0010
1000
0001
0010
0100
,  // measure 42
0000
1000
0001
0100
0001
1000
0100
0010
,  // measure 43
0000
0001
1000
0100
1000
0001
0100
0010
,  // measure 44
1000
0000
0001
0010
0000
0000
0001
0010
0001
0000
1000
0000
0010
0000
0100
0000
,  // measure 45
0001
0010
0100
1000
0100
0001
0100
1000
,  // measure 46
0001
0010
0100
0010
0001
1000
0010
0000
,  // measure 47
1000
0100
0010
0001
0010
1000
0010
0001
,  // measure 48
1000
0100
0010
0100
1000
0001
0100
0000
,  // measure 49
0001
0010
0100
1000
0010
0001
0010
1000
,  // measure 50
0001
0100
0010
0100
0001
1000
0100
0100
,  // measure 51
1000
0100
0010
0001
0100
1000
0100
0001
,  // measure 52
1000
0000
0100
1000
0000
0000
0100
1000
0100
0000
1000
0000
0001
0000
0100
0000
,  // measure 53
2001
0000
0000
0000
0000
3001
0010
0001
,  // measure 54
1002
0000
0000
0000
0000
1003
0100
1000
,  // measure 55
2010
0000
0000
0000
0000
3001
0010
0001
,  // measure 56
0102
0000
0000
0000
0000
1003
0100
1000
,  // measure 57
2010
0000
0000
0000
0000
3001
0100
0001
,  // measure 58
0012
0000
0000
0000
0000
1003
0010
1000
,  // measure 59
2100
0000
0000
0000
0000
3001
0100
0001
,  // measure 60
1002
0000
0000
0000
0000
1003
0010
1000
,  // measure 61
0001
0000
0000
0000
;

//---------------dance-single - ----------------
#NOTES:
     dance-single:
     :
     Beginner:
     1:
     0.054,0.098,0.025,0.000,0.000: // measure 1
0000
0000
0000
0000
,  // measure 2
0000
0000
0000
0000
,  // measure 3
0000
0000
0000
0000
,  // measure 4
0000
0000
0000
0000
,  // measure 5
1000
0000
0000
0000
,  // measure 6
0001
0000
0000
0000
,  // measure 7
1000
0000
0000
0000
,  // measure 8
1000
0000
0000
0000
,  // measure 9
0001
0000
0000
0000
,  // measure 10
1000
0000
0000
0000
,  // measure 11
0001
0000
0000
0000
,  // measure 12
0001
0000
0000
0000
,  // measure 13
0100
0000
0000
0000
,  // measure 14
0000
0000
0000
0000
,  // measure 15
0100
0000
0000
0000
,  // measure 16
0000
0000
0000
0000
,  // measure 17
0010
0000
0000
0000
,  // measure 18
0000
0000
0000
0000
,  // measure 19
0010
0000
0000
0000
,  // measure 20
0010
0000
0100
0000
,  // measure 21
0001
0000
0000
0000
,  // measure 22
0000
0000
0000
0000
,  // measure 23
1000
0000
0000
0000
,  // measure 24
0000
0000
0000
0000
,  // measure 25
0001
0000
0000
0000
,  // measure 26
0000
0000
0000
0000
,  // measure 27
1000
0000
0000
0000
,  // measure 28
0000
0000
0000
0000
,  // measure 29
1000
0000
0000
0000
,  // measure 30
0000
0000
0000
0000
,  // measure 31
0001
0000
0000
0000
,  // measure 32
0000
0000
0000
0000
,  // measure 33
0001
0000
0000
0000
,  // measure 34
0000
0000
0000
0000
,  // measure 35
0001
0000
0000
0000
,  // measure 36
0000
0000
0000
0000
,  // measure 37
1001
0000
0000
0000
,  // measure 38
0001
0000
0000
0000
,  // measure 39
1000
0000
0000
0000
,  // measure 40
0001
0000
0000
0000
,  // measure 41
0010
0000
0000
0000
,  // measure 42
0100
0000
0000
0000
,  // measure 43
1000
0000
0000
0000
,  // measure 44
0001
0000
0000
0000
,  // measure 45
1001
0000
0000
0000
,  // measure 46
1000
0000
0000
0000
,  // measure 47
0100
0000
0000
0000
,  // measure 48
0010
0000
0000
0000
,  // measure 49
0001
0000
0000
0000
,  // measure 50
1000
0000
0000
0000
,  // measure 51
0001
0000
0000
0000
,  // measure 52
0100
0000
0000
0000
,  // measure 53
0110
0000
0000
0000
,  // measure 54
0000
0000
0000
0000
,  // measure 55
0100
0000
0000
0000
,  // measure 56
0000
0000
0000
0000
,  // measure 57
0100
0000
0000
0000
,  // measure 58
0000
0000
0000
0000
,  // measure 59
0010
0000
0000
0000
,  // measure 60
0000
0000
0000
0000
,  // measure 61
0010
0000
0000
0000
;
