#TITLE:Love me Love me Love me;
#SUBTITLE:;
#ARTIST:the LOφSE BEAT;
#TITLETRANSLIT:;
#SUBTITLETRANSLIT:;
#ARTISTTRANSLIT:the LOOSE BEAT;
#CREDIT:DMAxel;
#BANNER:Love me Love me Love me.png;
#BACKGROUND:Love me Love me Love me-bg.png;
#LYRICSPATH:Love me Love me Love me.lrc;
#CDTITLE:pop'n music.png;
#MUSIC:Love me Love me Love me.mp3;
#OFFSET:-7.160;
#SAMPLESTART:61.622;
#SAMPLELENGTH:12.000;
#SELECTABLE:YES;
#BPMS:0.000=158.000;
#STOPS:;
#BGCHANGES:;

//---------------dance-single - ----------------
#NOTES:
     dance-single:
     :
     Hard:
     6:
     0.461,0.463,0.657,0.049,0.000:
1001
0000
1000
0000
0001
0000
0010
0001
,
0000
0100
0010
0000
1000
0100
1000
0000
,
1001
0000
0001
0000
1000
0000
0100
1000
,
0000
0010
0100
0000
0001
0010
0001
0010
,
0002
0000
0100
0000
0103
0001
0000
1000
,
0000
0010
0000
0110
0000
0000
1000
0001
,
2000
0000
0010
0000
3010
1000
0000
0001
,
0000
0100
0000
0010
0100
0000
0001
0000
,
1001
1000
1001
0001
,
0110
1000
0110
0001
,
1001
0000
0001
0000
1000
0010
0000
0110
,
0000
0110
0000
1001
0000
1001
0000
0001
,
1000
0000
1010
0000
0001
1000
0000
0010
,
0000
1000
0000
0001
1000
0100
1000
0000
,
0001
0000
0101
0000
1000
0001
0000
0100
,
0000
0001
0000
1000
0001
0010
0001
0000
,
1001
1000
1010
0001
,
0101
1000
0110
0001
,
1001
0000
1000
0000
0001
0100
0000
0110
,
0000
0110
0000
1001
0000
1001
0000
1000
,
0001
0011
0001
0011
,
1000
1100
1000
1100
,
0001
1001
1000
1001
,
0001
0100
0001
0000
1000
0100
1000
0000
,
1001
1000
1010
1010
,
1001
0001
0101
0101
,
1001
1000
1100
1100
,
1000
0010
1000
0000
0001
0010
0001
0000
,
1001
0001
0011
0011
,
1001
1000
1100
1100
,
1001
0001
0101
0101
,
1001
1000
1010
1010
,
0001
0010
0100
0000
1000
1000
0000
1001
,
0000
0000
0000
0000
0001
1000
0001
0000
,
0101
0000
0000
0101
0000
0000
1010
0000
,
0000
1010
0000
0000
1001
0000
0000
0001
,
0000
0001
0010
0001
1000
0100
0000
1000
,
0000
1000
0100
1000
0001
0010
0000
0001
,
0000
0001
1000
0001
1000
0001
0010
0100
,
1000
0010
0000
0100
0000
0000
0000
1002
,
0000
0010
0010
0010
,
2003
0000
0001
0000
0001
0000
3001
1000
,
0000
0000
0010
0000
0010
0100
0000
1001
,
0000
1001
0000
0110
0000
0110
0000
1000
,
0000
1000
0010
1000
0001
0010
0000
0001
,
0000
0001
0100
0001
1000
0100
0000
1000
,
0000
1000
0001
1000
0001
1000
0100
0010
,
0001
0100
0000
0010
0000
0000
0000
2001
,
0000
0000
0100
0000
3100
0000
1000
0001
,
0000
0000
0000
0000
,
0000
0100
0000
0100
,
0000
0100
0000
0100
,
0000
0100
0000
0100
,
0000
0100
0110
1001
,
1001
0000
1000
0000
0010
0000
1000
0100
,
0000
0010
0100
0000
1000
0010
0100
0000
,
1001
0000
0001
0000
0100
0000
0001
0010
,
0000
0100
0010
0000
0001
0010
0100
1000
,
0000
0000
0000
0000
,
1001
0000
0000
0000
;

//---------------dance-single - ----------------
#NOTES:
     dance-single:
     :
     Easy:
     2:
     0.177,0.232,0.029,0.157,0.000:
1000
0000
1000
0000
,
1000
0000
0000
0000
,
0001
0000
0001
0000
,
0001
0000
2000
0000
,
3001
0000
0100
0000
,
0001
0000
0100
0000
,
0001
0000
0100
0000
,
0001
0000
1000
0000
,
2000
0000
0000
0000
,
3002
0000
0000
0000
,
1003
0000
0010
0000
,
2000
0000
0000
0000
,
3001
0000
1000
0000
,
0010
0000
1000
0000
,
0010
0000
1000
0000
,
0010
0000
1000
0000
,
0002
0000
0000
0000
,
2003
0000
0000
0000
,
3001
0000
0100
0000
,
0020
0000
0000
0000
,
0130
0000
0000
0000
,
0100
0000
0000
0000
,
0100
0000
0000
0000
,
0010
0000
0010
0000
,
0110
0000
0010
0000
,
0010
0000
0000
0000
,
0100
0000
0100
0000
,
0200
0000
0000
0000
,
0310
0000
1000
0000
,
0010
0000
1000
0000
,
0001
0000
0100
0000
,
0001
0000
0100
0000
,
0020
0000
0000
0000
0000
0000
0000
0130
,
0000
0000
0000
0000
,
1001
0000
0000
1000
,
0000
0000
0000
0000
,
1000
0001
1000
0000
,
0001
1000
0001
0000
,
0100
0010
0100
0010
,
0200
0000
0000
0000
,
0320
0000
0000
0000
,
2030
0000
0000
0000
,
3002
0000
0000
0000
0000
0000
0000
2003
,
0000
0000
0000
0000
,
3010
0100
0010
0000
,
0100
0010
0100
0000
,
0001
1000
0001
1000
,
0002
0000
0000
0000
0000
0000
0000
2003
,
0000
0000
0000
0000
0000
0000
0000
3001
,
0000
0000
0000
0000
,
0000
1000
0000
1000
,
0000
1000
0000
1000
,
0000
1000
0000
1000
,
0000
1000
0001
1000
,
0010
0100
0010
0000
,
0100
0001
0100
0000
,
0010
1000
0010
0000
,
1000
0000
0001
0000
1000
0000
0000
1001
,
0000
0000
0000
0000
,
0001
0000
0000
0000
;

//---------------dance-single - ----------------
#NOTES:
     dance-single:
     :
     Medium:
     4:
     0.276,0.289,0.029,0.147,0.000:
0001
1000
0001
1000
,
0001
0000
0001
0000
,
1000
0001
1000
0001
,
1000
0000
2000
0000
,
3001
0000
0100
0000
,
0001
0000
1000
0000
,
0100
0000
1000
0000
,
0010
0000
0100
0000
,
0020
0000
0100
0000
,
0100
0000
0100
0000
,
0130
0000
0001
0000
1000
0000
0000
0010
,
0000
0100
0000
0010
0000
0100
0000
0010
,
1000
0001
1000
0001
,
1000
0000
1000
0000
,
0001
1000
0001
1000
,
0001
0000
0001
0000
,
0200
0000
0010
0000
,
0010
0000
0010
0000
,
0310
0000
1000
0000
0001
0000
0000
0100
,
0000
0010
0000
0100
0000
0010
0000
0100
,
0001
0001
0001
0001
,
1000
1000
1000
1000
,
0001
0001
0001
0001
,
1000
0100
0010
0001
,
1000
1000
1000
1000
,
0001
0001
0001
0001
,
1000
1000
1000
1000
,
0001
0010
0100
1000
,
0001
0001
0001
0001
,
1000
1000
1000
1000
,
0001
0001
0001
0001
,
1000
1000
1000
1000
,
0001
0000
0000
0000
1000
0000
0000
1001
,
0000
0000
0000
0000
,
1001
0000
0000
1000
0000
0000
0010
0000
,
0000
0100
0000
0000
0001
0000
0000
2000
,
0000
0000
3010
0000
1000
0000
0000
0002
,
0000
0000
0103
0000
0001
0000
0000
2000
,
0000
3010
1000
0001
,
0200
0000
0000
0310
0000
0000
0000
2000
,
0000
0001
0000
0000
,
3002
0000
0000
0000
0000
0000
0000
0203
,
0000
0000
0000
0000
0000
0000
0000
0310
,
0000
0100
0000
0010
0000
0100
0000
0020
,
0000
0000
1030
0000
0001
0000
0000
0200
,
0000
0000
0301
0000
1000
0000
0000
0020
,
0000
1030
0001
1000
,
0020
0000
0000
0130
0000
0000
0000
0110
,
0000
0000
0001
0000
1000
0000
0010
0100
,
0000
0000
0000
0000
,
0000
0001
0000
0001
,
0000
0001
0000
0001
,
0000
0001
0000
0001
,
0000
0000
0001
0000
1000
0001
1000
0000
,
0001
0000
0100
0000
0001
0000
0100
0001
,
0000
1000
0100
0000
1000
0000
1000
0000
,
0010
0000
1000
0000
0010
0000
1000
0001
,
0000
0010
0001
0000
1000
0000
1000
0002
,
0000
0000
0000
0000
,
1003
0000
0000
0000
;

//---------------dance-single - ----------------
#NOTES:
     dance-single:
     :
     Beginner:
     1:
     0.076,0.145,0.098,0.000,0.000:
1000
0000
0000
0000
,
0000
0000
0000
0000
,
1000
0000
0000
0000
,
1001
0000
0000
0000
,
0001
0000
0000
0000
,
0000
0000
0000
0000
,
1000
0000
0000
0000
,
0000
0000
0000
0000
,
0001
0000
0000
0000
,
0000
0000
0000
0000
,
0001
0000
0000
0000
,
0000
0000
0000
0000
,
1001
0000
0000
0000
,
0000
0000
0000
0000
,
1000
0000
0000
0000
,
0000
0000
0000
0000
,
0001
0000
0000
0000
,
0000
0000
0000
0000
,
1000
0000
0000
0000
,
0000
0000
0000
0000
,
1001
0000
0000
0000
,
1000
0000
0000
0000
,
1000
0000
0000
0000
,
1000
0000
0000
0000
,
1001
0000
0000
0000
,
0001
0000
0000
0000
,
0001
0000
0000
0000
,
0001
0000
0000
0000
,
1001
0000
0000
0000
,
1000
0000
0000
0000
,
1001
0000
0000
0000
,
0001
0000
0000
0000
,
1001
0000
0000
0000
,
0000
0000
0000
0000
,
0100
0000
0000
0000
,
0000
0000
0000
0000
,
0010
0000
0000
0000
,
1000
0000
0000
0000
,
0001
0000
0000
0000
,
1000
0000
0000
0000
,
0001
0000
0000
0000
,
0000
0000
0000
0000
,
0000
0000
0000
0000
,
0100
0000
0000
0000
,
0100
0000
0000
0000
,
0001
0000
0000
0000
,
1000
0000
0000
0000
,
0001
0000
0000
0000
,
0000
0000
0000
0000
0000
0000
0000
1001
,
0000
0000
0000
0000
,
1000
0000
0000
0000
,
0000
0000
0000
0000
,
1000
0000
0000
0000
,
0000
0000
0000
0000
,
1001
0000
0000
0000
,
0001
0000
0000
0000
,
1000
0000
0000
0000
,
0001
0000
0000
0000
0000
0000
0000
1000
,
0000
0000
0000
0000
,
1001
0000
0000
0000
;

//---------------dance-single - ----------------
#NOTES:
     dance-single:
     :
     Challenge:
     8:
     0.589,0.550,0.961,0.118,0.064: // measure 1
0101
0000
0101
0000
1001
0000
0010
1000
,  // measure 2
0001
0001
0010
0000
0001
0010
0100
0000
,  // measure 3
1010
0000
1010
0000
1001
0000
0100
0001
,  // measure 4
1000
1000
0100
0000
1000
0100
0010
0001
,  // measure 5
1001
0000
1100
0000
0001
0100
0000
0001
,  // measure 6
0000
1001
0000
1100
0000
0010
0001
1000
,  // measure 7
0100
0000
0011
0000
1000
0010
0000
1000
,  // measure 8
0000
1001
0000
0010
0001
1000
0100
0000
,  // measure 9
1001
0000
1000
0100
0001
0000
0001
0100
,  // measure 10
1000
0000
1000
0100
0001
0000
0001
0100
,  // measure 11
1000
0000
0000
0000
1001
0000
0000
0001
1000
0000
1100
0000
0000
0000
0101
0000
,  // measure 12
0000
0101
0000
1100
0000
1100
0000
0001
,  // measure 13
1000
0000
0000
0000
1001
0000
0000
0001
1000
0000
0100
0000
0000
0000
0010
0000
,  // measure 14
0000
1001
0000
0101
0000
1000
0001
0100
,  // measure 15
0101
0000
0000
0000
1001
0000
0000
1000
0001
0000
0010
0000
0000
0000
0100
0000
,  // measure 16
0000
1001
0000
0010
1000
0001
0001
0000
,  // measure 17
1001
0000
0001
0100
1000
0000
1000
0100
,  // measure 18
0001
0000
0001
0100
1000
0000
1000
0100
,  // measure 19
0001
0000
0000
0000
1001
0000
0000
1000
0001
0000
0101
0000
0000
0000
1100
0000
,  // measure 20
0000
1100
0000
0101
0000
0101
0000
0101
,  // measure 21
1001
1100
1001
1100
,  // measure 22
1001
0101
1001
0101
,  // measure 23
1001
1100
1001
0101
,  // measure 24
0010
1000
0100
0000
0010
0001
1000
0000
,  // measure 25
1001
0101
1001
0101
,  // measure 26
1001
1100
1001
1100
,  // measure 27
1001
0011
1001
1010
,  // measure 28
0100
0001
0010
0000
0100
1000
0001
0000
,  // measure 29
0011
1001
0011
1001
,  // measure 30
1010
1001
1010
1001
,  // measure 31
1100
1001
0101
1001
,  // measure 32
1100
1001
0101
1001
,  // measure 33
0001
0000
0001
0000
0100
0000
0000
0010
1000
0000
0001
0000
0000
0000
1002
0000
,  // measure 34
0000
0000
1000
0000
1003
0000
0000
0000
0001
1000
0001
1000
0001
0000
0000
0000
,  // measure 35
0101
0000
1000
1100
0000
0000
1100
0000
,  // measure 36
0001
0000
0001
0000
0100
0000
0000
0000
0001
1000
0001
1000
0001
0000
0201
0000
,  // measure 37
0000
0301
0010
0100
1000
0001
0000
0201
,  // measure 38
0000
0301
0010
0100
1000
0001
0000
0201
,  // measure 39
0000
0301
0010
0100
1000
0010
0100
0010
,  // measure 40
1000
0001
0000
0011
0000
0100
1000
0002
,  // measure 41
0000
0100
1000
0100
,  // measure 42
2003
0000
0001
0000
0100
0000
3001
0200
,  // measure 43
0000
0000
0001
0000
0301
1000
0000
1100
,  // measure 44
0000
1100
0000
0101
0000
0101
0000
1020
,  // measure 45
0000
1030
0100
0010
0001
1000
0000
1020
,  // measure 46
0000
1030
0100
0010
0001
1000
0000
1020
,  // measure 47
0000
1030
0100
0010
0001
0100
0010
0100
,  // measure 48
0001
1001
0000
1100
0000
0010
0001
2000
,  // measure 49
0000
0000
0000
0000
3010
0000
0100
0000
0010
1000
0010
1000
0010
0000
1001
0000
,  // measure 50
0000
0000
0000
0000
,  // measure 51
1000
0000
0010
0000
0100
0000
0001
1000
,  // measure 52
0000
1000
0001
0000
0100
0000
0100
0000
,  // measure 53
0001
0000
0100
0000
0010
0000
1000
0001
,  // measure 54
0000
0000
0001
0000
1000
0000
0000
0000
0001
0100
0001
0100
0001
0000
1000
0000
,  // measure 55
1100
0000
1100
0000
1001
0000
0100
1000
,  // measure 56
0001
0001
0100
0010
1000
0100
0010
0000
,  // measure 57
0011
0000
0011
0000
1001
0000
0010
0001
,  // measure 58
1000
1000
0010
0100
0001
0100
1000
0200
,  // measure 59
0000
0000
0000
0300
,  // measure 60
1001
0000
0000
0000
;
