#TITLE:LOVE♡トロピカ~ナ Final;
#SUBTITLE:(TV Edit);
#ARTIST:Sister MAYO with 愛河里花子;
#TITLETRANSLIT:Love Tropicana Final;
#SUBTITLETRANSLIT:;
#ARTISTTRANSLIT:Sister MAYO with Rikako Aikawa;
#CREDIT:Kyon;
#BANNER:Love Tropicana Final (TV Edit).png;
#BACKGROUND:Love Tropicana Final (TV Edit)-bg.png;
#LYRICSPATH:Love Tropicana Final (TV Edit).lrc;
#CDTITLE:Dj DMA Original Simfile.png;
#MUSIC:Love Tropicana Final (TV Edit).mp3;
#OFFSET:0.220;
#SAMPLESTART:9.208;
#SAMPLELENGTH:12.000;
#SELECTABLE:YES;
#BPMS:0.000=144.900;
#STOPS:;
#BGCHANGES:0.240=Love Tropicana Final (TV Edit).avi=1.000=1=0=1,
99999=-nosongbg-=1.000=0=0=0 // don't automatically add -songbackground-
;

//---------------dance-single - ----------------
#NOTES:
     dance-single:
     :
     Hard:
     7:
     0.438,0.448,0.159,0.085,0.067: // measure 1
0000
0000
0000
0000
,  // measure 2
0000
0000
1000
0001
,  // measure 3
0010
0001
1000
0010
,  // measure 4
1000
0100
1000
0010
,  // measure 5
0100
0001
2000
0000
,  // measure 6
0000
0000
3010
0000
,  // measure 7
0000
0000
0000
0000
1000
0100
0010
0001
,  // measure 8
0100
0010
1000
0100
0010
0001
0100
0010
,  // measure 9
0100
0000
0001
0000
1000
0100
0010
0001
,  // measure 10
1000
0010
0100
0001
1000
0000
0010
0000
,  // measure 11
0100
0000
0000
0000
0001
0000
1000
0000
0001
0000
0000
0100
0000
0000
0010
0000
,  // measure 12
0000
0000
1000
0000
0100
0000
0010
0000
0001
0000
0000
0100
0000
0000
0010
0000
,  // measure 13
0000
1000
0000
0001
0200
0000
0000
0010
,  // measure 14
0310
0000
0000
1000
0000
0000
0001
0000
0010
0000
0000
0000
0000
0000
0000
0000
,  // measure 15
0001
0010
0100
1000
0000
1000
0010
0000
,  // measure 16
1001
0000
0000
0010
0000
0100
0010
0000
,  // measure 17
1001
0000
0000
0100
0000
0001
0010
0000
,  // measure 18
1100
0000
1001
1001
0000
0000
0000
0000
,  // measure 19
0110
0000
0000
0000
1000
0001
1000
0000
,  // measure 20
0010
0000
0100
0000
0001
0100
0001
0000
,  // measure 21
1000
0010
1000
0000
0010
0000
0100
0000
,  // measure 22
0001
0000
1000
0000
0001
1000
0001
0000
,  // measure 23
0100
0000
0010
0000
1000
0010
0100
0000
,  // measure 24
0001
0000
1000
0000
0001
1000
0010
0000
,  // measure 25
0100
0000
0001
0000
1000
0100
0010
0001
,  // measure 26
0000
1000
0100
0010
0001
0000
0100
0000
,  // measure 27
0010
1000
0001
0010
,  // measure 28
1001
0000
0001
0000
1000
0100
0010
0001
,  // measure 29
0100
0010
1000
0001
0010
0001
0100
0010
,  // measure 30
1000
0001
0010
0001
0100
0000
0010
0000
,  // measure 31
1000
0000
0000
0001
0000
0000
0000
0000
1000
0000
0000
0000
0110
0000
0000
0000
,  // measure 32
0001
0000
0000
1000
0000
0000
0000
0000
0001
0000
0010
0000
0100
0000
1000
0000
,  // measure 33
0010
0100
0001
1000
0010
0100
0001
0010
,  // measure 34
0001
1000
0010
0100
0010
0000
0100
0000
,  // measure 35
0001
0000
1000
0000
0010
0000
1001
1001
,  // measure 36
0000
0000
2000
0000
,  // measure 37
0000
0000
3001
0000
,  // measure 38
0000
0000
0000
0000
1000
0100
0010
0001
,  // measure 39
0100
0000
0010
0000
1000
0000
0001
0000
0010
0000
0000
0001
0000
0000
0100
0000
,  // measure 40
0000
0001
1000
0001
0100
0010
0100
0001
,  // measure 41
1000
0000
0010
0000
1000
0000
0001
0000
0100
0000
0000
0010
0000
0000
1000
0000
,  // measure 42
0000
0000
0001
0000
0010
0000
1000
0000
0001
0000
0000
0100
0000
0000
0010
0000
,  // measure 43
0000
0000
1000
0000
0010
0000
0001
0000
0100
0000
0000
0010
0000
0000
1000
0000
,  // measure 44
0000
0010
0000
0100
0002
0000
0000
1003
,  // measure 45
0010
0000
0000
0100
0000
0000
0001
0000
2000
0000
0000
0000
0000
0000
0000
3020
,  // measure 46
0000
0000
0000
1030
0000
0001
0100
0000
,  // measure 47
1001
0000
0000
0010
0000
0100
0001
0000
,  // measure 48
0011
0000
0000
1000
0000
0010
0100
0000
,  // measure 49
1100
0000
0010
0200
0000
0000
0000
0000
,  // measure 50
0301
0000
0000
0000
;

//---------------dance-single - ----------------
#NOTES:
     dance-single:
     :
     Challenge:
     8:
     0.601,0.538,0.488,0.110,0.250: // measure 1
0000
0000
0000
0000
,  // measure 2
0000
0000
0000
0000
1001
0100
0010
1000
,  // measure 3
0001
0000
0000
0100
0000
0000
0010
0000
1000
0100
1000
0100
0000
0010
0001
0010
,  // measure 4
0001
1000
0000
0000
1001
0000
0000
0000
0000
0000
0001
0000
0100
0000
0010
0000
,  // measure 5
1000
0000
0000
0010
0000
0000
0100
0000
0001
0010
0100
1000
0000
0100
0000
0010
,  // measure 6
0000
0001
0000
0100
0010
0000
0100
0000
2002
0000
0000
0000
0000
0000
0000
0000
,  // measure 7
0000
0000
3003
0000
1000
0100
0010
0001
,  // measure 8
0100
0010
0100
0001
1000
0010
1000
0001
,  // measure 9
0010
0001
0100
0000
0001
0010
0100
1000
,  // measure 10
0010
0000
0100
0000
0001
0000
1000
0000
0010
0000
0000
0100
0000
0000
1001
0000
,  // measure 11
0000
0000
0100
0000
0010
0000
1000
0000
0001
0000
0000
1000
0000
0000
0110
0000
,  // measure 12
0000
0000
0001
0000
0100
0000
0010
0000
1000
0000
0000
0001
0000
0000
0110
0000
,  // measure 13
0000
1000
0000
0001
2000
0000
0000
3010
,  // measure 14
0100
0000
0000
0010
0000
0000
1000
0000
0002
0000
0000
0000
0000
0000
0000
1003
,  // measure 15
0000
0001
0000
0100
0010
0000
1000
0000
0000
0000
0010
0000
1000
0000
0010
0000
,  // measure 16
0101
0000
0000
0010
0000
1000
0001
0100
,  // measure 17
1010
0000
0000
1001
0000
1000
0001
0010
,  // measure 18
1100
0000
1001
2002
0000
0000
3003
0000
,  // measure 19
0110
0000
0000
0000
0001
0010
0100
1000
,  // measure 20
0010
0100
0001
1000
1100
0000
0011
0000
,  // measure 21
1010
0000
0101
0000
0001
0100
0010
1000
,  // measure 22
0100
0010
0001
0100
0010
0000
1000
0010
,  // measure 23
0100
0001
1000
0000
0000
0001
0010
0100
,  // measure 24
1000
0000
0001
0000
0100
0000
0010
0000
1000
0000
0000
0000
0001
0000
0000
1000
,  // measure 25
0000
0000
0001
1000
0010
1000
0100
0010
,  // measure 26
0001
0000
1000
0000
0010
0000
0100
0000
0001
0000
1000
0000
0001
0000
0000
1001
,  // measure 27
0000
0000
0100
0000
0010
0000
1000
0000
0001
0000
0000
0000
0100
0000
0000
1001
,  // measure 28
0000
1000
0010
0100
1001
0010
0100
0001
,  // measure 29
1000
0010
0100
0001
0010
0100
1000
0010
,  // measure 30
0100
0001
0010
0000
1100
0000
1001
0000
,  // measure 31
0011
0000
0000
1100
0000
0000
0000
0000
0010
0000
0100
0000
0011
0000
0000
0000
,  // measure 32
1100
0000
0000
1001
0000
0000
0000
0000
0001
0000
0010
0000
0100
0000
1000
0000
,  // measure 33
0010
0100
0001
0010
0100
1000
0010
0100
,  // measure 34
0001
0100
0010
1000
0001
0000
1001
0000
,  // measure 35
0100
0010
0100
0001
0010
0100
1000
0002
,  // measure 36
0000
0000
0000
0000
0000
0000
0000
0000
1003
0100
0010
0001
0000
0100
0000
0010
,  // measure 37
0000
1000
0000
0001
0100
0000
0010
0000
1001
0000
0000
0000
0100
0000
0000
0000
,  // measure 38
0010
0000
0100
0000
0001
0010
0100
1000
,  // measure 39
0010
0000
0100
0000
0001
0000
1000
0000
0010
0000
0000
1000
0000
0000
1001
0000
,  // measure 40
0000
0001
0010
0100
1000
0010
0100
0010
,  // measure 41
1000
0000
0001
0000
0100
0000
0010
0000
1000
0000
0000
0010
0000
0000
1001
0000
,  // measure 42
0000
0000
0001
0000
0010
0000
0100
0000
1000
0000
0000
0010
0000
0000
0110
0000
,  // measure 43
0000
0000
1000
0000
0100
0000
0010
0000
0001
0000
0000
0100
0000
0000
0110
0000
,  // measure 44
0000
0001
0000
1000
0020
0000
0130
0000
,  // measure 45
0001
0000
0000
0100
0000
0000
0010
0000
2000
0000
0000
0000
0000
0000
0000
3001
,  // measure 46
0000
0100
0000
0010
1000
0000
1001
0000
0000
0000
0010
0000
0100
0000
0001
0000
,  // measure 47
1100
0000
0000
1001
0000
0010
1000
0100
,  // measure 48
0011
0000
0000
0110
0000
1000
0010
0100
,  // measure 49
1001
0000
0000
0000
0010
0000
0100
0000
0000
0001
0000
1000
0010
0000
0100
0000
,  // measure 50
1001
0000
0000
0000
;

//---------------dance-single - ----------------
#NOTES:
     dance-single:
     :
     Medium:
     5:
     0.326,0.389,0.134,0.098,0.006:
0000
0000
0000
0000
,
0000
0000
0010
1000
,
0001
0010
0100
1000
,
0100
0010
0001
0100
,
0001
1000
0020
0000
,
0000
0000
1030
0000
,
0000
0000
0001
0010
,
0100
0000
1000
0001
1000
0000
0100
0000
,
0010
0000
0001
1000
0001
0000
0010
0000
,
0100
0000
1000
0001
1000
0000
0010
0000
,
0100
0010
1000
0001
0100
0000
0010
0100
,
0010
0000
1000
0000
0001
1000
0001
0000
,
0100
0000
0010
0100
0001
0000
0100
0000
,
0020
0000
1030
0001
,
2002
0000
3003
0010
0000
0100
0001
0000
,
1000
0000
0000
0010
0000
0100
0001
0000
,
1000
0000
0000
0010
0000
1000
0001
0000
,
0100
0000
0010
0100
0000
0000
0000
0000
,
1001
0000
0001
1000
,
0000
0010
0000
1000
,
0000
0010
0000
0100
,
0000
0001
0000
0010
,
0000
0001
0000
0100
,
0000
0010
0000
1000
,
0000
0010
0000
1001
,
0000
0110
0000
1000
,
0000
0001
0000
0100
,
0000
0010
0200
0000
,
0000
0000
0302
0000
,
0000
0000
1003
0100
,
0010
0001
0010
0100
,
1000
0000
0001
0000
0100
0010
1000
0000
,
0010
0100
0001
0000
1000
0010
0100
0000
,
0010
0100
0001
0000
1000
0000
0000
0000
,
0010
0000
0000
0000
0100
0000
0000
1001
,
0000
0000
0220
0000
,
0000
0330
1001
0000
,
0000
0000
0000
0000
1000
0100
0010
0001
,
0000
0100
0010
1000
0001
0000
0100
0000
,
0010
0000
1000
0010
0100
0000
0010
0100
,
0001
0000
0000
0000
0100
0000
0010
0000
0100
0000
0000
0001
0000
0000
1000
0000
,
0000
0001
1000
0010
,
0100
0000
0010
1000
0001
0000
0100
0000
,
0010
1000
0000
0001
0100
0000
0000
0000
,
1001
0001
1000
0010
,
1000
0000
0100
0010
0000
0001
0010
0000
,
1100
0000
0000
0010
0000
0100
0010
0000
,
1001
0000
0000
0100
0000
0001
1000
0000
,
0010
0000
0100
0010
0000
0000
0000
0000
,
1001
0000
0000
0000
;

//---------------dance-single - ----------------
#NOTES:
     dance-single:
     :
     Easy:
     3:
     0.228,0.419,0.098,0.146,0.000:
0000
0000
0000
0000
,
0000
0000
0010
0100
,
0001
1000
0020
0000
,
0230
0000
0301
0010
,
0100
1000
0002
0000
,
0000
0000
1003
0000
,
0000
0000
0010
0100
,
0010
0100
0001
0010
,
0001
1000
0100
1000
,
0100
1000
0100
0010
,
0001
0100
0011
1100
,
1001
0010
0110
1001
,
0010
1000
0002
0000
,
0000
0000
0203
0000
,
0000
0000
0000
0310
0000
0000
0000
0000
,
0000
0000
0000
1000
0000
0000
0000
0000
,
0000
0000
0000
0001
0000
0000
0000
0000
,
0000
0000
0000
0100
0000
0000
0000
0000
,
0010
0000
1000
0001
,
0000
0100
0000
0001
,
0000
0010
0000
0001
,
0000
1000
0000
0100
,
0000
1000
0000
0010
,
0000
0100
0000
0010
,
0000
1000
0000
0001
,
0000
0010
0000
0001
,
0000
0100
0000
0010
,
0000
0100
0010
0100
,
0010
1000
0001
1000
,
0001
0010
0001
0000
,
0000
0000
1100
0000
,
0000
0000
0010
0100
,
0010
1000
0001
1000
,
0100
1000
1001
0000
,
0010
0000
0000
0000
0100
0000
0000
0010
,
0000
0000
2000
0000
,
0000
0000
3001
0000
,
0000
0000
0010
0001
,
0100
0010
1000
0100
,
1000
0010
0100
0010
,
0100
0001
0010
0001
,
1000
0010
2000
0000
,
0000
0000
3002
0000
,
0000
0000
0203
0000
,
0000
0000
0310
0000
,
0000
0000
0000
2000
0000
0000
0000
0000
,
0000
0000
0000
3002
0000
0000
0000
0000
,
0000
0000
0000
0203
0000
0000
0000
0000
,
0000
0000
0000
0310
0000
0000
0000
0000
,
1001
0000
0000
0000
;

//---------------dance-single - ----------------
#NOTES:
     dance-single:
     :
     Beginner:
     2:
     0.108,0.149,0.122,0.000,0.000:
0000
0000
0000
0000
,
0000
0000
1001
0000
,
0000
0000
0000
0000
,
0000
0000
1000
0000
,
0000
0000
0001
0000
,
0000
0000
0100
0000
,
0000
0000
0010
0000
,
0000
0000
0000
0000
,
0000
0000
0100
0000
,
0000
0000
0000
0000
,
0000
0000
0001
0000
,
0000
0000
1000
0000
,
0000
0000
0001
0000
,
0000
0000
0000
0000
,
0000
0000
0000
1001
0000
0000
0000
0000
,
0000
0000
0000
1100
0000
0000
0000
0000
,
0000
0000
0000
0011
0000
0000
0000
0000
,
0000
0000
0000
0000
,
1001
0000
0000
0010
,
0000
0100
0000
0010
,
0000
0100
0000
0010
,
0000
1000
0000
0001
,
0000
1000
0000
0001
,
0000
1000
0000
0001
,
0000
1000
0000
0100
,
0000
1000
0000
0100
,
0000
0010
0000
0001
,
0000
0010
1001
0000
,
0000
0000
0000
0000
,
0000
0000
1000
0000
,
0000
0000
0000
0100
,
0000
0000
0010
0000
,
0000
0000
0001
0000
,
0000
0000
1001
0000
,
0000
0000
0000
0000
0000
0000
0000
1001
,
0000
0000
0010
0000
,
0000
0000
1001
0000
,
0000
0000
1000
0000
,
0000
0000
0100
0000
,
0000
0000
1000
0000
,
0000
0000
0010
0000
,
0000
0000
0100
0000
,
0000
0000
0001
0000
,
0000
0000
0010
0000
,
0000
0000
0001
0000
,
0000
0000
0000
1000
0000
0000
0000
0000
,
0000
0000
0000
0001
0000
0000
0000
0000
,
0000
0000
0000
0100
0000
0000
0000
0000
,
0000
0000
0000
0000
,
1001
0000
0000
0000
;
