#TITLE:Love Me Do;
#SUBTITLE:;
#ARTIST:AKIRA YAMAOKA;
#TITLETRANSLIT:;
#SUBTITLETRANSLIT:;
#ARTISTTRANSLIT:;
#CREDIT:DMAxel;
#BANNER:Love Me Do.png;
#BACKGROUND:Love Me Do-bg.png;
#LYRICSPATH:Love Me Do.lrc;
#CDTITLE:Beatmania IIDX.png;
#MUSIC:Love Me Do.mp3;
#OFFSET:-0.060;
#SAMPLESTART:40.568;
#SAMPLELENGTH:12.000;
#SELECTABLE:YES;
#BPMS:0.000=167.000;
#STOPS:;
#BGCHANGES:;

//---------------dance-single - ----------------
#NOTES:
     dance-single:
     :
     Easy:
     4:
     0.277,0.363,0.066,0.058,0.000: // measure 1
0000
0000
0000
0000
,  // measure 2
0000
0000
0000
0000
,  // measure 3
0000
0000
0000
0000
,  // measure 4
0000
0000
0000
0000
,  // measure 5
0000
1000
0000
1000
,  // measure 6
0000
0001
0000
0001
,  // measure 7
0000
0010
0000
0001
,  // measure 8
0000
0100
0000
0010
,  // measure 9
0100
0100
0000
0010
,  // measure 10
0000
1000
0000
0100
,  // measure 11
0000
1000
0000
0001
,  // measure 12
0000
0010
0000
0001
,  // measure 13
0001
0100
0000
0010
,  // measure 14
0000
0010
0000
0000
,  // measure 15
1000
1000
0000
0010
,  // measure 16
0000
0100
0000
0001
,  // measure 17
0010
0010
0000
0001
,  // measure 18
0000
0100
0000
0001
,  // measure 19
0000
0000
0000
1000
,  // measure 20
0000
0000
0000
0010
,  // measure 21
1000
0010
0010
0100
,  // measure 22
0100
0010
0010
1000
,  // measure 23
1000
0001
0000
0010
,  // measure 24
0000
0001
0000
1000
,  // measure 25
0000
1001
0000
0010
,  // measure 26
0000
0100
0000
0010
,  // measure 27
0000
1001
0000
0100
,  // measure 28
0000
0010
0010
1000
,  // measure 29
0100
0010
0001
1000
,  // measure 30
1000
0010
0010
0100
,  // measure 31
0100
0010
0010
1000
,  // measure 32
1000
0001
0001
1000
,  // measure 33
1000
0001
0010
0100
,  // measure 34
1000
0100
0010
0001
,  // measure 35
0001
0010
0100
1000
,  // measure 36
0100
0010
0001
0100
,  // measure 37
0010
0100
0100
0010
,  // measure 38
0010
1000
1000
0010
,  // measure 39
0010
1000
1000
0100
,  // measure 40
0100
1000
1000
0001
,  // measure 41
0010
0100
1000
0100
,  // measure 42
0010
0001
0100
0010
,  // measure 43
0010
1000
0100
0010
,  // measure 44
0001
0010
0100
1100
,  // measure 45
1100
0010
0000
0100
,  // measure 46
0000
0010
0000
0000
,  // measure 47
1000
1000
0000
0010
,  // measure 48
0100
0001
0001
0010
,  // measure 49
0001
1000
0000
1000
,  // measure 50
0000
0010
0000
0100
,  // measure 51
0100
0001
0000
0001
,  // measure 52
0000
0100
0000
0010
,  // measure 53
0010
2000
0000
0000
,  // measure 54
0000
0000
0000
3010
,  // measure 55
0100
0002
0000
0000
,  // measure 56
0103
0000
0000
0010
,  // measure 57
0100
0020
0000
0000
,  // measure 58
0000
0000
0000
1030
,  // measure 59
0100
2000
0000
0000
,  // measure 60
3001
0000
0000
0010
,  // measure 61
0100
0020
0000
0000
,  // measure 62
0130
0000
0100
0010
,  // measure 63
1000
0200
0000
0000
,  // measure 64
1300
0000
0000
1001
,  // measure 65
0000
0200
0000
0000
,  // measure 66
0000
0000
0000
0310
,  // measure 67
0010
1000
0100
1000
,  // measure 68
0001
0001
1000
0100
,  // measure 69
0010
0001
0001
0100
,  // measure 70
0100
0010
0010
0100
,  // measure 71
0010
1000
1000
0010
,  // measure 72
1001
0000
0000
1000
,  // measure 73
1000
0010
0100
0001
,  // measure 74
0010
0001
0010
0100
,  // measure 75
1000
1000
1000
0100
,  // measure 76
0100
0010
0010
0001
,  // measure 77
0001
0100
0010
1000
,  // measure 78
0100
1000
0010
0100
,  // measure 79
0100
0010
0100
0001
,  // measure 80
0010
0100
1000
1001
,  // measure 81
1001
0000
0000
0000
;

//---------------dance-single - ----------------
#NOTES:
     dance-single:
     :
     Hard:
     7:
     0.527,0.595,0.404,0.305,0.000: // measure 1
0000
0000
0000
0000
,  // measure 2
0000
0000
0000
0000
,  // measure 3
0000
0000
0000
0000
,  // measure 4
0000
0000
0000
0000
,  // measure 5
0000
1000
0100
1000
,  // measure 6
0010
0100
0000
0100
0001
0000
0100
0000
,  // measure 7
0001
0000
0100
0010
0000
0010
1000
0000
,  // measure 8
0010
0100
0001
1001
,  // measure 9
1001
0100
0010
0100
,  // measure 10
0001
0100
0000
0100
0010
0000
0100
0000
,  // measure 11
1001
0100
0010
0100
,  // measure 12
1001
0010
0100
1001
,  // measure 13
1001
1002
0200
0320
,  // measure 14
0230
0320
0230
0303
,  // measure 15
1010
0000
0202
0000
0303
0000
0100
0010
,  // measure 16
0100
0010
1001
0000
1001
0000
0010
0100
,  // measure 17
2001
0020
0230
0320
,  // measure 18
0230
0000
3320
0000
0230
0000
0301
0010
,  // measure 19
1000
0000
0100
1000
0000
1000
0100
0010
,  // measure 20
0001
0100
0010
0000
1000
0000
0011
0000
,  // measure 21
1100
0000
0010
0000
0100
0010
0000
0010
,  // measure 22
1000
0000
1000
0001
0000
0001
0100
0000
,  // measure 23
1001
1100
0011
0100
,  // measure 24
0010
1001
1001
0100
,  // measure 25
0010
0100
1002
0000
0200
0000
0300
0000
,  // measure 26
0020
0000
0230
0000
0303
0000
0010
0100
,  // measure 27
0010
0000
1000
0010
0000
0010
0100
0010
,  // measure 28
0100
0000
0001
0010
0100
1000
0100
0010
,  // measure 29
0001
0100
0020
0000
1000
0000
0001
0000
,  // measure 30
1000
0000
0001
0000
1030
0000
0010
0100
,  // measure 31
0010
0100
0001
0010
,  // measure 32
0001
1000
0100
0110
,  // measure 33
1001
0000
1001
0010
0001
0000
0010
0001
,  // measure 34
0010
0000
0100
1000
0100
0000
1001
0000
,  // measure 35
1001
0000
0010
1000
0010
0000
0100
0001
,  // measure 36
0100
0000
0001
1000
0001
0000
0100
0010
,  // measure 37
0100
0010
0200
0000
0001
0000
1000
0000
,  // measure 38
0001
0000
1000
0000
0301
0000
0100
0010
,  // measure 39
0100
0010
1000
0100
,  // measure 40
1000
0100
0010
0101
,  // measure 41
1001
0000
1001
0000
0100
0010
1000
0000
,  // measure 42
0010
0100
0001
0000
0100
0010
1100
0000
,  // measure 43
1001
0000
1001
0000
0100
0010
0001
0000
,  // measure 44
0010
0100
1000
0000
0010
0100
0010
0100
,  // measure 45
0001
2001
0020
0230
,  // measure 46
0320
0230
0320
3030
,  // measure 47
0100
0010
0100
0000
0010
0000
1000
0100
,  // measure 48
0010
0001
0100
0010
1000
0000
0010
0000
,  // measure 49
1001
1002
0020
0230
,  // measure 50
0320
0000
0230
0000
0313
0000
0100
0010
,  // measure 51
0100
0000
0010
1000
0000
1000
0100
0010
,  // measure 52
0001
0100
0010
0000
0100
0000
0001
1000
,  // measure 53
0001
1000
0001
0000
0010
0000
1000
0000
,  // measure 54
0010
0001
0010
1000
,  // measure 55
0010
0100
0001
0100
,  // measure 56
1000
0000
0100
0000
0001
0000
1000
0001
,  // measure 57
1000
0001
1000
0000
0100
0000
0001
0000
,  // measure 58
0100
1000
0100
0001
,  // measure 59
0100
0010
1000
0100
,  // measure 60
0010
1001
0000
0000
0100
0000
0001
1000
,  // measure 61
0001
1000
0002
0000
0000
0203
0000
0000
,  // measure 62
0310
1001
0000
0000
1000
0000
0100
0000
,  // measure 63
0010
0000
0002
0000
0000
0023
0000
0000
,  // measure 64
0130
1001
0000
0000
0100
0000
0020
0000
,  // measure 65
0000
1030
0100
1000
,  // measure 66
0001
0000
0010
0000
0001
0000
0100
0010
,  // measure 67
0100
0010
1000
0100
,  // measure 68
1000
0000
0001
0000
0010
0000
0001
0010
,  // measure 69
1000
0010
1001
0100
,  // measure 70
1001
0000
0010
0000
1001
0000
1000
0100
,  // measure 71
0001
0100
1001
0010
,  // measure 72
0100
1001
0000
1001
0010
0000
1000
0001
,  // measure 73
1000
0001
1000
0000
0010
0000
0001
0000
,  // measure 74
0010
0000
1000
0000
0010
0000
0001
0100
,  // measure 75
0010
0100
0001
0000
0100
0000
1000
0000
,  // measure 76
0100
0000
0001
0000
0100
0000
1000
0010
,  // measure 77
0100
0010
1001
0000
0100
0000
1001
0000
,  // measure 78
0010
0000
1001
0000
0100
0000
0001
0100
,  // measure 79
0010
0100
1001
0000
0100
0000
1001
0000
,  // measure 80
0010
0000
1001
0000
0100
0000
0001
0010
,  // measure 81
0100
1000
0000
0000
0000
0000
0000
0000
;

//---------------dance-single - ----------------
#NOTES:
     dance-single:
     :
     Challenge:
     8:
     0.654,0.628,0.866,0.000,0.004: // measure 1
0000
0000
0000
0000
,  // measure 2
0000
0000
0000
0000
,  // measure 3
0000
0000
0000
0000
,  // measure 4
0000
0000
0000
0000
,  // measure 5
0000
0011
0101
0011
,  // measure 6
0100
0010
0000
0010
1000
0010
1000
0010
,  // measure 7
0100
0000
0010
0100
0000
0100
0001
0100
,  // measure 8
0001
0010
0000
0001
0000
0100
0010
0100
,  // measure 9
0010
1100
1010
1100
,  // measure 10
0010
0100
0000
0100
0010
1000
0010
1000
,  // measure 11
0100
0000
1000
0001
0000
0001
0100
0001
,  // measure 12
0100
0010
0000
0010
0100
0001
0010
0100
,  // measure 13
1000
0000
0001
0100
1000
0000
0001
0100
,  // measure 14
1000
0000
0001
0100
1000
0000
1001
0000
,  // measure 15
1000
0100
0001
0000
0010
0000
0001
0010
,  // measure 16
1000
0010
0101
0000
0011
0000
1001
0000
,  // measure 17
0110
0000
1000
0100
0001
0000
1000
0100
,  // measure 18
0001
0000
1000
0100
0001
0000
1000
0100
,  // measure 19
0001
0000
0100
0010
0000
0010
1000
0100
,  // measure 20
0010
0001
0000
0001
1000
0100
1000
0100
,  // measure 21
1000
0000
0001
0100
1000
0100
0001
0100
,  // measure 22
1000
0000
0101
0000
1010
0000
1000
0010
,  // measure 23
0001
0010
1100
0000
0011
0000
0100
0000
,  // measure 24
1100
0000
0101
0000
0011
0000
0010
0100
,  // measure 25
0010
0100
0001
0100
1000
0000
0010
0000
,  // measure 26
0101
0000
1010
0000
0100
0000
0001
0100
,  // measure 27
1000
0000
0010
0100
0000
0100
0010
1000
,  // measure 28
0001
0000
0001
0010
0100
1000
0100
1000
,  // measure 29
0001
0010
0101
0000
0011
0000
0101
0000
,  // measure 30
0011
1100
1010
1100
,  // measure 31
1010
1100
0110
0011
,  // measure 32
0110
1100
0110
0011
,  // measure 33
0110
0000
1001
0100
1000
0100
1000
0100
,  // measure 34
0010
0001
0010
0001
0010
0001
1010
0000
,  // measure 35
1001
0000
0101
0010
0001
0010
0001
0010
,  // measure 36
0100
1000
0100
1000
0100
0000
1000
0001
,  // measure 37
1000
0001
1100
0000
1010
0000
1100
0000
,  // measure 38
1010
0000
0101
0000
0011
0000
0001
0100
,  // measure 39
1000
1010
1100
1010
,  // measure 40
0101
0011
0101
0011
,  // measure 41
0110
0000
1001
0100
0001
0100
0001
1000
,  // measure 42
0010
1000
0010
1000
0010
1000
0101
0000
,  // measure 43
0110
0000
1001
0010
1000
0010
1000
0010
,  // measure 44
0100
0001
0100
0001
0100
1000
0100
1000
,  // measure 45
0011
0000
1000
0100
0001
0000
1000
0100
,  // measure 46
0001
0000
1000
0100
0001
0000
0100
0000
,  // measure 47
1001
0010
0001
0000
0100
0000
0001
0010
,  // measure 48
1000
0100
1010
0000
0110
0000
0101
0000
,  // measure 49
1001
0000
0001
0010
1000
0100
1000
0010
,  // measure 50
1000
0100
1000
0010
0001
0100
0001
0010
,  // measure 51
1001
0000
0010
0100
0000
0100
0010
1000
,  // measure 52
0100
0010
0001
0000
0100
0000
0001
1000
,  // measure 53
0001
1000
0011
0000
0011
0000
0001
0100
,  // measure 54
1000
0000
1100
0000
1100
0000
1000
0010
,  // measure 55
0001
0000
0101
0000
0101
0000
0001
0100
,  // measure 56
1000
0000
1010
0000
1010
0000
1000
0100
,  // measure 57
0001
0010
1001
0000
0101
0000
0001
0100
,  // measure 58
1000
0000
1001
0000
1010
0000
1000
0010
,  // measure 59
0001
0000
1001
0000
0011
0000
0001
0010
,  // measure 60
1000
0000
1001
0000
1100
0000
1000
0010
,  // measure 61
0001
0100
1001
0000
0000
1010
0000
0000
,  // measure 62
0010
0101
0000
0000
0011
0000
0110
0000
,  // measure 63
1100
0000
1001
0000
0000
0101
0000
0000
,  // measure 64
0100
0000
1010
0000
0000
0000
0000
0000
0011
0000
0000
0000
1100
0000
0000
0010
,  // measure 65
0000
0100
1001
0010
0100
1000
0100
1000
,  // measure 66
0100
0000
1000
0100
0010
0001
0010
0001
,  // measure 67
0010
0000
0001
0010
0100
1000
0010
1000
,  // measure 68
0010
0000
1000
0010
0100
0001
1010
0000
,  // measure 69
0101
0000
1001
0010
1000
0010
1000
0001
,  // measure 70
0100
0001
0100
0001
0100
0000
0011
0000
,  // measure 71
1100
0000
1001
0100
0001
0100
0001
1000
,  // measure 72
0010
1010
0000
1000
0100
0010
0001
0010
,  // measure 73
0100
0010
1001
0000
1000
0100
0010
0001
,  // measure 74
0100
0001
0100
0000
0001
0010
0100
1000
,  // measure 75
0010
1000
0010
0000
1000
0100
0010
0001
,  // measure 76
0010
0001
0010
0000
0001
0010
0100
1000
,  // measure 77
0100
0000
1001
0010
0001
0010
0001
0010
,  // measure 78
0100
1000
0100
1000
0100
0000
1010
0000
,  // measure 79
0110
0000
1001
0100
1000
0100
1000
0100
,  // measure 80
0010
0001
0010
0001
0010
0100
1000
0010
,  // measure 81
0100
0001
0000
0000
0000
0000
0000
0000
;

//---------------dance-single - ----------------
#NOTES:
     dance-single:
     :
     Medium:
     6:
     0.390,0.496,0.248,0.058,0.000: // measure 1
0000
0000
0000
0000
,  // measure 2
0000
0000
0000
0000
,  // measure 3
0000
0000
0000
0000
,  // measure 4
0000
0000
0000
0000
,  // measure 5
0000
0001
0010
0001
,  // measure 6
0000
0000
0100
0010
,  // measure 7
1000
0000
0100
1000
,  // measure 8
0010
0000
0100
0010
,  // measure 9
0100
0010
1000
0100
,  // measure 10
0000
0000
0010
0001
,  // measure 11
0100
0000
0010
0100
,  // measure 12
0001
0000
1000
0100
,  // measure 13
1001
0010
0010
0100
,  // measure 14
0100
0001
0001
0000
,  // measure 15
2000
3010
0000
0100
,  // measure 16
0100
0010
0010
0000
,  // measure 17
1000
1001
0010
0101
,  // measure 18
0100
1010
0010
0100
,  // measure 19
0100
0000
0001
0010
,  // measure 20
0100
0000
1000
0100
,  // measure 21
0001
0100
0100
0010
,  // measure 22
0010
1000
1000
0100
,  // measure 23
1000
0010
0010
0000
,  // measure 24
0100
1001
1001
0000
,  // measure 25
0010
0100
0100
0000
,  // measure 26
0001
0001
0000
1000
,  // measure 27
1000
0010
0100
0010
,  // measure 28
1000
1001
1001
0010
,  // measure 29
0100
1001
0010
0100
,  // measure 30
0100
0010
0010
1000
,  // measure 31
0100
0010
0010
0001
,  // measure 32
0001
1000
1000
0010
,  // measure 33
0100
0000
0001
1000
0001
0000
1000
0001
,  // measure 34
1000
0000
0001
1000
0001
0000
1000
0001
,  // measure 35
1000
0000
0001
0000
1000
0000
0010
0100
,  // measure 36
0010
0000
0100
0010
0100
0000
0010
0100
,  // measure 37
0010
1000
0001
0000
0010
0000
0001
0000
,  // measure 38
0100
0010
0100
0010
,  // measure 39
1000
0100
1000
0100
,  // measure 40
1000
0010
0100
0001
,  // measure 41
0010
0000
0001
1000
0001
0000
1000
0001
,  // measure 42
1000
0000
0001
1000
0001
0000
1000
0000
,  // measure 43
0001
0000
0100
0010
0100
0000
0010
0100
,  // measure 44
0010
0000
0100
0010
0100
0001
1000
0000
,  // measure 45
0010
0101
0010
1100
,  // measure 46
0010
0110
0101
0000
,  // measure 47
1001
1001
0000
0010
,  // measure 48
0100
0001
0001
0100
,  // measure 49
0010
1000
1000
0010
,  // measure 50
0010
0100
0100
0001
,  // measure 51
1000
0010
1000
1001
,  // measure 52
1001
0000
0010
0000
0100
0000
0010
0100
,  // measure 53
0010
1000
0002
0000
0000
0000
0100
0000
,  // measure 54
0000
0100
0000
0103
,  // measure 55
0010
2000
0000
0010
,  // measure 56
0000
0010
0000
3010
,  // measure 57
0100
0002
0000
0100
,  // measure 58
0000
0100
0000
0103
,  // measure 59
0010
2000
0000
0010
,  // measure 60
3010
0000
0000
0001
,  // measure 61
0010
2000
0000
0000
,  // measure 62
3100
0000
0010
0100
,  // measure 63
0001
0200
0000
0000
,  // measure 64
0310
0000
0000
1001
,  // measure 65
0000
1001
0010
0100
,  // measure 66
0010
0100
0010
1100
,  // measure 67
0010
0100
0010
0100
,  // measure 68
0001
0010
0001
1001
,  // measure 69
1001
0000
0010
0100
0010
0000
0100
0001
,  // measure 70
0100
0000
0010
1000
0010
0000
1001
0000
,  // measure 71
1001
0000
0010
0100
0010
0000
1000
0001
,  // measure 72
1000
0001
0000
0000
0000
0000
0101
0000
,  // measure 73
0101
0010
0100
0010
,  // measure 74
1000
0100
1000
0010
,  // measure 75
0100
0010
1000
0001
,  // measure 76
0100
0010
0100
1001
,  // measure 77
1001
0000
0010
0100
0010
0000
0100
0001
,  // measure 78
0100
0000
0010
1000
0010
0000
1001
0000
,  // measure 79
1001
0000
0100
0010
0100
0000
0010
1000
,  // measure 80
0010
0000
0100
0001
0100
0000
0001
0100
,  // measure 81
0010
1000
0000
0000
0000
0000
0000
0000
;

//---------------dance-single - ----------------
#NOTES:
     dance-single:
     :
     Beginner:
     2:
     0.157,0.164,0.058,0.000,0.000: // measure 1
0000
0000
0000
0000
,  // measure 2
0000
0000
0000
0000
,  // measure 3
0000
0000
0000
0000
,  // measure 4
0000
0000
0000
0000
,  // measure 5
0000
0000
0000
0000
,  // measure 6
0000
0000
0000
0000
,  // measure 7
0000
0000
1000
0000
,  // measure 8
1000
0000
0001
0000
,  // measure 9
0001
0000
0100
0000
,  // measure 10
0100
0000
0010
0000
,  // measure 11
0010
0000
1000
0000
,  // measure 12
1000
0000
0001
0000
,  // measure 13
0001
0010
0000
0010
,  // measure 14
0000
0010
0000
0000
,  // measure 15
0001
0000
0000
1000
,  // measure 16
0000
1000
0000
0000
,  // measure 17
0000
0100
0000
0100
,  // measure 18
0000
0100
0000
1000
,  // measure 19
0000
0000
0000
0001
,  // measure 20
0000
0000
0000
0010
,  // measure 21
0000
0010
0000
0001
,  // measure 22
0000
0001
0000
1000
,  // measure 23
0000
0100
0000
0000
,  // measure 24
0000
1000
0000
0000
,  // measure 25
0000
0001
0000
0001
,  // measure 26
0000
0010
0000
0010
,  // measure 27
0000
0001
0000
0001
,  // measure 28
0000
1000
0000
0001
,  // measure 29
0000
1001
0000
1000
,  // measure 30
0000
1000
0000
1000
,  // measure 31
0000
0001
0000
0001
,  // measure 32
0000
0001
0000
0001
,  // measure 33
0000
0100
0000
0100
,  // measure 34
0000
0100
0000
0010
,  // measure 35
0000
0010
0000
0010
,  // measure 36
0000
0010
0000
1001
,  // measure 37
0000
0100
0000
0100
,  // measure 38
0000
0100
0000
0001
,  // measure 39
0000
0001
0000
0001
,  // measure 40
0000
0001
0000
1000
,  // measure 41
0000
1000
0000
1000
,  // measure 42
0000
1000
0000
0010
,  // measure 43
0000
0010
0000
0010
,  // measure 44
0000
0010
0000
1001
,  // measure 45
0000
0100
0000
0100
,  // measure 46
0000
0100
0000
0000
,  // measure 47
0001
0000
0000
1000
,  // measure 48
0000
1000
0000
0000
,  // measure 49
0000
0010
0000
0010
,  // measure 50
0000
0100
0000
0100
,  // measure 51
0000
0000
0000
0001
,  // measure 52
0000
0000
0000
0010
,  // measure 53
0000
1001
0000
0000
,  // measure 54
0000
0000
0000
0100
,  // measure 55
0000
0010
0000
0000
,  // measure 56
0000
0000
0000
0010
,  // measure 57
0000
0100
0000
0000
,  // measure 58
0000
0000
0000
0001
,  // measure 59
0000
1000
0000
0000
,  // measure 60
1001
0000
0000
1000
,  // measure 61
0000
0001
0000
0000
,  // measure 62
0100
0000
0000
0000
,  // measure 63
0000
0010
0000
0000
,  // measure 64
1001
0000
0000
0010
,  // measure 65
0000
1001
0000
1000
,  // measure 66
0000
1000
0000
1000
,  // measure 67
0000
0010
0000
0010
,  // measure 68
0000
0010
0000
0100
,  // measure 69
0000
0100
0000
0100
,  // measure 70
0000
0100
0000
0001
,  // measure 71
0000
0001
0000
0001
,  // measure 72
0000
0000
0000
0000
,  // measure 73
0000
1000
0000
1000
,  // measure 74
0000
1000
0000
1000
,  // measure 75
0000
0100
0000
0100
,  // measure 76
0000
0100
0000
0010
,  // measure 77
0000
0010
0000
0010
,  // measure 78
0000
0010
0000
0001
,  // measure 79
0000
0001
0000
0001
,  // measure 80
0000
0001
0000
1000
;
