#TITLE:Like Coco;
#SUBTITLE:;
#ARTIST:House Rulez feat. Annie;
#TITLETRANSLIT:;
#SUBTITLETRANSLIT:;
#ARTISTTRANSLIT:;
#CREDIT:DMAxel;
#BANNER:Like Coco.png;
#BACKGROUND:Like Coco-bg.png;
#LYRICSPATH:;
#CDTITLE:DMAxel original simfile.png;
#MUSIC:Like Coco.mp3;
#OFFSET:-6.260;
#SAMPLESTART:37.368;
#SAMPLELENGTH:12.000;
#SELECTABLE:YES;
#BPMS:0.000=125.000;
#STOPS:;
#BGCHANGES:;

//---------------dance-single - ----------------
#NOTES:
     dance-single:
     :
     Easy:
     4:
     0.303,0.340,0.344,0.095,0.000: // measure 1
0010
0200
0000
0000
,  // measure 2
0301
1000
0001
1000
,  // measure 3
0200
0000
0000
1300
,  // measure 4
0001
1000
0010
0100
,  // measure 5
0002
0000
0000
1003
,  // measure 6
0010
0100
0002
0000
,  // measure 7
1003
0100
1000
0001
,  // measure 8
0010
0001
1000
0100
,  // measure 9
1000
1000
0001
0002
,  // measure 10
0000
0000
2003
0000
,  // measure 11
3001
0010
0001
1000
,  // measure 12
0010
0010
0100
0100
,  // measure 13
0001
1000
0100
0000
,  // measure 14
1000
0001
0010
0000
,  // measure 15
0001
0010
0100
1000
,  // measure 16
0010
0010
0110
0000
,  // measure 17
1001
0001
0001
1000
,  // measure 18
0100
0000
1000
0100
,  // measure 19
0010
0001
1000
0010
,  // measure 20
1000
1000
0001
0001
,  // measure 21
0010
0001
0010
0100
,  // measure 22
1000
0000
0001
0100
,  // measure 23
0010
1000
0100
1000
,  // measure 24
0001
0001
1000
1000
,  // measure 25
0001
1000
1100
0000
,  // measure 26
1000
0001
0011
0000
,  // measure 27
0001
1000
1100
0000
,  // measure 28
1000
0001
0100
0010
,  // measure 29
1000
0001
0011
0000
,  // measure 30
0001
1000
1100
0000
,  // measure 31
1000
0001
0010
0100
,  // measure 32
1000
1000
1000
1000
,  // measure 33
1001
0001
0020
0000
,  // measure 34
0031
1000
0200
0000
,  // measure 35
1300
0010
0100
0010
,  // measure 36
1000
0100
0010
0001
,  // measure 37
0100
0001
0020
0000
,  // measure 38
0031
1000
0200
0000
,  // measure 39
1300
0010
0100
0001
,  // measure 40
1000
1000
0001
0001
,  // measure 41
1001
1000
1100
0000
,  // measure 42
1001
0001
0011
0000
,  // measure 43
1001
1000
1100
0001
,  // measure 44
1001
0001
0011
0000
,  // measure 45
1001
1000
1010
0001
,  // measure 46
1001
0001
0101
1000
,  // measure 47
1001
1000
0110
0001
,  // measure 48
1001
0000
0000
0000
,  // measure 49
1001
1000
1100
0001
,  // measure 50
1001
0001
0011
1001
,  // measure 51
1000
1010
0001
0101
,  // measure 52
1000
1010
0001
0101
,  // measure 53
1001
1000
1100
0001
,  // measure 54
1001
0001
0011
1000
,  // measure 55
1001
1000
1100
0001
,  // measure 56
0011
1000
1100
0001
,  // measure 57
0200
0000
0300
0000
;

//---------------dance-single - ----------------
#NOTES:
     dance-single:
     :
     Medium:
     6:
     0.397,0.364,0.146,0.129,0.013: // measure 1
0010
0000
0010
1000
0001
0000
1000
0000
,  // measure 2
0200
0000
1300
0000
1000
0001
1000
0001
,  // measure 3
0100
0000
0100
0000
0001
1000
0010
0000
,  // measure 4
2000
0001
0001
3001
,  // measure 5
0200
0000
0301
0010
,  // measure 6
0100
0000
1000
0000
0010
0100
0010
0000
,  // measure 7
2000
0000
3001
0000
0001
1000
0001
0000
,  // measure 8
0100
0000
0100
0001
1000
0000
0010
0000
,  // measure 9
2000
0000
3001
0000
0002
0000
0103
0001
,  // measure 10
2000
0001
3001
1000
,  // measure 11
0001
0000
0010
0000
0100
0010
0100
0000
,  // measure 12
0010
0001
1000
0010
,  // measure 13
2000
0000
3001
0000
0100
0010
0100
0000
,  // measure 14
0101
0010
1010
0100
,  // measure 15
1002
0000
1000
0000
1003
0001
1000
0000
,  // measure 16
0220
0000
0330
0000
,  // measure 17
1001
0000
1000
0010
1000
0000
0001
0000
,  // measure 18
0010
0000
0001
1000
0001
1000
0001
0000
,  // measure 19
0200
0001
0001
0301
,  // measure 20
0020
1000
1000
1030
,  // measure 21
1001
0000
0001
0100
0001
0000
1000
0000
,  // measure 22
0100
0000
1000
0001
1000
0001
1000
0000
,  // measure 23
0020
1000
1000
1030
,  // measure 24
0100
0001
1000
0000
0100
1000
0100
0000
,  // measure 25
1000
0001
0001
0000
0011
0000
1001
0000
,  // measure 26
0001
1000
1000
0000
1100
0000
1001
0000
,  // measure 27
1000
0001
0001
0000
0011
0000
1001
0000
,  // measure 28
0001
0010
0001
0000
1000
0010
1000
0000
,  // measure 29
0001
1000
1000
0000
1010
0000
1001
0000
,  // measure 30
1000
0001
0001
0000
0101
0000
1001
0000
,  // measure 31
0001
0100
0002
0000
1000
0000
1003
0000
,  // measure 32
1000
0001
0100
0000
0001
0100
0001
0000
,  // measure 33
1001
0000
1000
0000
0010
1000
0010
1000
,  // measure 34
0001
0000
0010
0001
0010
0000
0010
0000
,  // measure 35
0001
1000
0010
1000
,  // measure 36
0001
1000
0000
0100
0000
0010
0000
0001
,  // measure 37
1000
0000
0001
0000
1000
0001
0100
0000
,  // measure 38
0100
0000
0001
1000
0010
0000
0010
0000
,  // measure 39
1000
0100
1000
0010
0100
0000
0001
0000
,  // measure 40
0001
0010
0001
0100
0010
0000
1000
0000
,  // measure 41
0001
0100
0001
0100
0001
0000
0001
0000
,  // measure 42
1000
0010
1000
0010
1000
0000
1000
0000
,  // measure 43
0001
0010
0001
0010
0001
0000
0001
0000
,  // measure 44
1000
0100
1000
0100
1000
0000
1000
0000
,  // measure 45
0001
0100
0010
0100
0001
0000
0001
0000
,  // measure 46
1000
0010
0100
0010
1000
0000
1000
0000
,  // measure 47
0001
0100
0010
0100
0001
0000
0010
0100
,  // measure 48
1000
0000
0000
0000
,  // measure 49
1000
0001
0010
0001
0010
0000
0010
0000
,  // measure 50
0001
1000
0100
1000
0100
0000
0100
0000
,  // measure 51
1000
0001
0100
0001
0100
0000
0100
0000
,  // measure 52
0001
1000
0010
1000
0010
0000
0010
0000
,  // measure 53
1000
0100
0010
0001
1000
0000
1000
0000
,  // measure 54
0001
0010
0100
1000
0001
0000
0001
0000
,  // measure 55
1000
0010
0100
0001
1000
0000
1000
0000
,  // measure 56
0001
0100
0010
1000
0001
0000
0001
0000
,  // measure 57
0100
0000
0000
0010
0000
0100
0000
0010
0000
0000
0000
0000
0000
0000
0000
0000
;

//---------------dance-single - ----------------
#NOTES:
     dance-single:
     :
     Hard:
     7:
     0.477,0.437,0.138,0.138,0.267: // measure 1
1100
0000
0010
0001
1000
0000
1100
0000
,  // measure 2
0010
0001
1000
0000
0010
1000
0001
0010
,  // measure 3
0002
0000
1003
0000
0100
0001
1000
0100
,  // measure 4
2000
0000
0001
0000
3001
0010
0100
1000
,  // measure 5
0002
0000
1000
0000
1003
0100
0010
0001
,  // measure 6
1000
0100
0010
0100
2000
0000
0001
0000
,  // measure 7
3002
0000
0103
0000
0100
0001
1000
0001
,  // measure 8
0100
0000
0010
1000
0001
1000
0010
0000
,  // measure 9
1000
0010
1000
0001
0010
0001
1000
0020
,  // measure 10
0000
0000
1000
0000
1030
0100
0010
0001
,  // measure 11
2000
0000
3010
0000
0010
1000
0001
1000
,  // measure 12
0010
1010
0001
0101
,  // measure 13
2000
0000
3100
0000
0010
0001
1000
0010
,  // measure 14
1000
0000
0100
0010
0001
0000
0010
0100
,  // measure 15
2000
0000
0001
0000
3001
0010
0100
1000
,  // measure 16
0001
0000
1000
0001
0000
0010
0000
0001
0000
0000
0000
0000
0000
0000
0000
0000
,  // measure 17
0001
0000
0001
0010
0001
1000
0010
0001
,  // measure 18
0010
1000
0001
0000
0010
0100
1000
0001
,  // measure 19
0200
0000
0010
0000
0310
1000
0001
0100
,  // measure 20
0020
0000
0100
0000
0130
0001
1000
0010
,  // measure 21
1000
0000
1000
0100
1000
0001
0100
1000
,  // measure 22
0100
0001
1000
0000
0100
0010
0001
1000
,  // measure 23
0020
0000
0100
0000
0130
0001
1000
0000
,  // measure 24
0001
0000
1000
0001
0000
1000
0000
0010
0000
1000
0000
0000
0000
0000
0001
0000
,  // measure 25
2000
0010
3010
0000
0010
1000
0010
1000
,  // measure 26
0002
0010
0013
0000
0010
0001
0010
0001
,  // measure 27
2000
0100
3100
0000
0100
1000
0100
1000
,  // measure 28
0001
0000
0000
0010
0000
0000
0100
0000
0000
1000
0000
0000
0001
0000
1000
0000
,  // measure 29
0100
1000
1100
0000
1001
0000
0100
1000
,  // measure 30
0001
0010
0011
0000
1001
0000
0010
0001
,  // measure 31
1000
0010
1010
0000
1001
0000
0100
1000
,  // measure 32
0001
0000
1000
0001
0000
1000
0000
0010
0000
1000
0000
0000
0000
0000
0000
0000
,  // measure 33
0001
0000
1001
0000
0001
1000
0100
1000
,  // measure 34
0010
0000
0100
0001
1000
0100
1000
0000
,  // measure 35
0001
1001
1000
1001
,  // measure 36
1000
0001
0000
0010
0000
0100
0000
1000
,  // measure 37
0001
0100
0001
0000
1000
0100
1000
0001
,  // measure 38
0100
0000
0010
1000
0001
0010
0001
0000
,  // measure 39
0001
0010
0100
1000
0001
0100
0001
0000
,  // measure 40
1000
0100
0010
0001
1000
0010
1000
0000
,  // measure 41
0001
0000
0100
0000
0000
0001
0000
0100
0000
0000
0000
0000
0001
0000
1000
0000
,  // measure 42
0010
0000
1000
0000
0000
0010
0000
1000
0000
0000
0000
0000
1000
0000
0001
0000
,  // measure 43
0010
0000
0000
0001
0000
0010
0000
0001
0000
0001
0000
0000
1000
0000
0001
0000
,  // measure 44
0010
0000
0000
0001
0000
1000
0000
1000
0000
0000
0000
0000
0001
0000
0100
0000
,  // measure 45
0001
0000
1000
0000
0000
0001
0000
1000
0000
0000
0000
0000
1000
0000
0010
0000
,  // measure 46
1000
0000
0001
0000
0000
1000
0000
0001
0000
0000
0000
0000
0001
0000
1000
0000
,  // measure 47
0010
0000
1000
0000
0000
0001
0000
0010
0000
0001
0000
0000
1000
0000
0100
0000
,  // measure 48
0020
0000
0130
0000
,  // measure 49
0001
0000
1000
0010
0000
1000
0000
0010
0000
1000
0000
0000
0001
0000
1000
0000
,  // measure 50
0010
0000
1000
0001
0000
0010
0000
0001
0000
0000
0000
0000
1000
0000
0001
0000
,  // measure 51
0100
0000
0001
0100
0000
0001
0000
0100
0000
0001
0000
0000
1000
0000
0001
0000
,  // measure 52
0100
0000
0001
1000
0000
0100
0000
1000
0000
0000
0000
0000
0001
0000
0001
0000
,  // measure 53
1000
0000
0010
1000
0000
0001
0000
0011
0000
0000
0000
0000
1000
0000
1000
0000
,  // measure 54
0001
0000
0100
0001
0000
1000
0000
1100
0000
0000
0000
0000
0001
0000
0001
0000
,  // measure 55
1000
0000
0010
1000
0000
0010
0000
1000
0000
0001
0000
0001
1000
0000
1000
0000
,  // measure 56
0001
0000
0100
0001
0000
1000
0000
1001
0000
0000
0000
0000
0100
0000
0010
0000
,  // measure 57
0001
0000
1000
0001
0000
0010
0000
0100
0000
0000
0000
0000
0000
0000
0000
0000
;

//---------------dance-single - ----------------
#NOTES:
     dance-single:
     :
     Challenge:
     8:
     0.569,0.486,0.189,0.060,0.512: // measure 1
1000
0000
0010
0000
1000
0000
1000
0000
0001
0000
0000
1000
0001
0000
0000
0000
,  // measure 2
0001
0000
0010
0000
0001
0000
0001
0000
1000
0000
0000
0001
1000
0000
0100
0000
,  // measure 3
0020
0000
0000
0000
0100
0000
0000
0000
0130
0000
0000
1000
0001
0000
0010
0000
,  // measure 4
0200
0000
0000
0000
0010
0000
0000
0000
0310
0000
0000
0001
1000
0000
0100
0000
,  // measure 5
0020
0000
0001
0000
0031
0010
0001
1000
,  // measure 6
0010
0000
1000
0000
0100
0000
0010
0000
0001
0000
0000
0001
1000
0000
0010
0000
,  // measure 7
1000
0000
1000
0000
0001
0000
0000
0000
0001
0000
0000
1000
0001
0000
0010
0000
,  // measure 8
0001
0000
0001
0000
1000
0000
0100
0000
0010
0000
0000
0001
1000
0000
0100
0000
,  // measure 9
1000
1000
0001
0010
0100
1000
0001
0001
,  // measure 10
2000
0000
0000
0000
0001
0000
0000
0000
3001
0000
0000
1000
0001
0000
0010
0000
,  // measure 11
0001
0000
0010
0000
0100
0000
0000
0000
1000
0000
0000
0001
1000
0000
0100
0000
,  // measure 12
1000
0000
0001
0000
0010
0000
0100
0000
1000
0000
0000
1000
0001
0000
0010
0000
,  // measure 13
0200
0000
0000
0000
0010
0000
0000
0000
0310
0000
0000
1000
0001
0000
0010
0000
,  // measure 14
0100
0000
0000
1000
0001
0000
0010
0000
0100
0000
0000
1000
0001
0000
0010
0000
,  // measure 15
0200
0000
0010
0000
0310
1000
0100
0010
,  // measure 16
0001
0000
1000
0010
0000
0100
0000
0010
0000
0100
0000
0001
1000
0000
0000
0000
,  // measure 17
0001
0000
0100
0000
0001
0000
1000
0000
0100
0010
0000
0000
0001
0000
1000
0000
,  // measure 18
0100
0000
0001
0000
1000
0000
0001
0000
0010
0100
0000
1000
0001
0000
0010
0000
,  // measure 19
0100
0000
1000
0000
0100
0000
1000
0000
0100
0010
0000
0000
0001
0000
1000
0000
,  // measure 20
0100
0000
0001
0000
1000
0000
0001
0000
0010
0100
0000
1000
0001
0000
0001
0000
,  // measure 21
1000
0000
0010
0000
1000
0000
0001
0000
0010
0100
0000
0000
1000
0000
0001
0000
,  // measure 22
0010
0000
1000
0000
0001
0000
1000
0000
0100
0010
0000
0001
1000
0000
0100
0000
,  // measure 23
0010
0000
0001
0000
0010
0000
0001
0000
0010
0100
0000
1000
0001
0000
0001
0000
,  // measure 24
1000
0000
0001
0100
0000
0010
0000
0100
0000
0010
0000
1000
0001
0000
0001
0000
,  // measure 25
1000
0000
0010
0000
0110
0000
0000
0000
0100
0000
0000
0101
0000
0000
0100
0000
,  // measure 26
0001
0000
0100
0000
0110
0000
0000
0000
0010
0000
0000
1010
0000
0000
0010
0000
,  // measure 27
1000
0010
0100
0001
0010
0100
1000
0001
,  // measure 28
0010
0000
0000
0001
0000
0000
0100
0000
0000
0010
0000
0000
1000
0000
0001
0000
,  // measure 29
1000
0000
0010
0000
0110
0000
0000
0000
0010
0000
0001
0010
0000
0000
0001
0000
,  // measure 30
1000
0000
0010
0000
0110
0000
0000
0000
0100
0000
1000
0100
0000
0000
1000
0000
,  // measure 31
0001
0100
0110
0000
1000
0010
0110
0000
,  // measure 32
0001
0000
1000
0010
0000
1000
0000
0001
0000
0010
0000
0001
1000
0000
0000
0000
,  // measure 33
1001
0000
0000
1000
0001
0000
0010
0000
0100
0000
0000
0000
1100
0000
0000
0000
,  // measure 34
1001
0000
0000
0001
1000
0000
0100
0000
0010
0000
0000
0000
0011
0000
0000
0000
,  // measure 35
1001
0000
0000
1000
0001
0000
0010
0000
0100
0000
0000
1000
0001
0000
0010
0000
,  // measure 36
0100
1100
0000
0101
0000
1100
0000
1001
,  // measure 37
1000
0000
0000
0001
1000
0000
0100
0000
0010
0000
0001
0000
0101
0000
0000
0000
,  // measure 38
1001
0000
0000
1000
0001
0000
0010
0000
0100
0000
1000
0000
1010
0000
0000
0000
,  // measure 39
1000
0000
0001
1000
0000
0100
0000
0010
0000
0001
0000
1000
0010
0000
0100
0000
,  // measure 40
0010
0000
0010
0000
1000
0010
1000
0000
0001
0000
0010
0000
0100
0000
1000
0000
,  // measure 41
0001
0000
0100
0001
0000
0100
0000
0001
0000
0000
0100
0000
0001
0000
1000
0000
,  // measure 42
0010
0000
1000
0010
0000
1000
0000
0010
0000
0000
0100
0000
0001
0000
0010
0000
,  // measure 43
0001
0000
0010
0001
0000
0010
0000
0100
0000
1000
0000
0001
1000
0000
0100
0000
,  // measure 44
1000
0000
0001
0100
0000
0001
0000
0100
0001
0100
0001
0000
1000
0000
0010
0000
,  // measure 45
0100
0000
0001
1000
0000
0100
0000
1000
0000
0000
0001
0000
1000
0000
0100
0000
,  // measure 46
0010
0000
0001
1000
0000
0010
0000
1000
0000
0000
0001
0000
0010
0000
0100
0000
,  // measure 47
1000
0000
0001
1000
0000
0100
0000
0010
0000
0001
0000
1000
0001
0000
0010
0000
,  // measure 48
0002
0000
0000
0000
0000
0000
0000
1003
0000
0010
0000
1000
0001
0000
0010
0000
,  // measure 49
0100
0000
1000
0010
0000
0100
0000
0010
0000
0000
1000
0000
1000
0000
0100
0000
,  // measure 50
0010
0000
0001
0100
0000
0010
0000
0100
0000
0000
0001
0000
1000
0000
0010
0000
,  // measure 51
0100
0000
0001
1000
0000
0100
0000
0010
0000
0001
0000
1000
0001
0000
0010
0000
,  // measure 52
0100
0000
1000
0010
0000
0100
0000
0010
1000
0010
1000
0000
0001
0000
0010
0000
,  // measure 53
0100
0000
1000
0001
0000
0100
0000
0101
0000
0000
0001
0000
1000
0000
0100
0000
,  // measure 54
0010
0000
0001
1000
0000
0010
0000
1010
0000
0000
1000
0000
0001
0000
0100
0000
,  // measure 55
0001
0000
1000
0100
0000
1000
0000
0100
0000
0010
0000
0001
1000
0000
0100
0000
,  // measure 56
1000
0000
0001
0100
0000
0010
0000
0100
0001
0100
0001
0000
1000
0000
0010
0000
,  // measure 57
0100
0000
0001
1000
0000
0100
0000
0001
0000
0000
0000
0000
0000
0000
0000
0000
;

//---------------dance-single - ----------------
#NOTES:
     dance-single:
     :
     Beginner:
     1:
     0.075,0.121,0.060,0.000,0.000: // measure 1
1000
0000
0000
0000
,  // measure 2
0001
0000
0000
0000
,  // measure 3
1000
0000
0000
0000
,  // measure 4
1000
0000
0000
0000
,  // measure 5
0001
0000
0000
0000
,  // measure 6
0001
0000
0000
0000
,  // measure 7
0100
0000
0000
0000
,  // measure 8
0001
0000
0000
0000
,  // measure 9
1000
0000
0000
0000
,  // measure 10
0100
0000
0000
0000
,  // measure 11
1000
0000
0000
0000
,  // measure 12
0001
0000
0000
0000
,  // measure 13
1000
0000
0000
0000
,  // measure 14
1000
0000
0000
0000
,  // measure 15
0001
0000
0000
0000
,  // measure 16
1001
0000
0000
0000
,  // measure 17
1000
0000
0000
0000
,  // measure 18
0000
0000
0000
0000
,  // measure 19
0001
0000
0000
0000
,  // measure 20
0000
0000
0000
0000
,  // measure 21
0010
0000
0000
0000
,  // measure 22
0000
0000
0000
0000
,  // measure 23
0100
0000
0000
0000
,  // measure 24
1000
0000
0000
0000
,  // measure 25
1001
0000
0000
0000
,  // measure 26
1000
0000
0000
0000
,  // measure 27
0100
0000
0000
0000
,  // measure 28
0010
0000
0000
0000
,  // measure 29
1001
0000
0000
0000
,  // measure 30
0001
0000
0000
0000
,  // measure 31
0010
0000
0000
0000
,  // measure 32
0100
0000
0000
0000
,  // measure 33
1000
0000
0000
0000
,  // measure 34
0001
0000
0000
0000
,  // measure 35
1000
0000
0000
0000
,  // measure 36
0001
0000
0000
0000
,  // measure 37
1000
0000
0000
0000
,  // measure 38
0100
0000
0000
0000
,  // measure 39
0010
0000
0000
0000
,  // measure 40
0001
0000
0000
0000
,  // measure 41
1001
0000
0000
0000
,  // measure 42
1000
0000
0000
0000
,  // measure 43
1001
0000
0000
0000
,  // measure 44
0001
0000
0000
0000
,  // measure 45
0010
0000
0000
0000
,  // measure 46
0100
0000
0000
0000
,  // measure 47
1000
0000
0000
0000
,  // measure 48
0001
0000
0000
0000
,  // measure 49
1001
0000
0000
0000
,  // measure 50
1000
0000
0000
0000
,  // measure 51
1001
0000
0000
0000
,  // measure 52
0001
0000
0000
0000
,  // measure 53
0010
0000
0000
0000
,  // measure 54
0100
0000
0000
0000
,  // measure 55
1000
0000
0000
0000
,  // measure 56
1000
0000
0000
0000
,  // measure 57
0100
0000
0000
0000
;
