#TITLE:Lighter Than Air;
#SUBTITLE:(DDR Edit);
#ARTIST:Darwin & Ant Johnson;
#TITLETRANSLIT:;
#SUBTITLETRANSLIT:;
#ARTISTTRANSLIT:;
#CREDIT:DMAxel;
#BANNER:Lighter Than Air (DDR Edit).png;
#BACKGROUND:Lighter Than Air (DDR Edit)-bg.png;
#LYRICSPATH:;
#CDTITLE:DMAxel Original Simfile.png;
#MUSIC:Lighter Than Air (DDR Edit).mp3;
#OFFSET:-0.360;
#SAMPLESTART:43.866;
#SAMPLELENGTH:12.000;
#SELECTABLE:YES;
#BPMS:0.000=175.000;
#STOPS:;
#BGCHANGES:;

//---------------dance-single - ----------------
#NOTES:
     dance-single:
     :
     Easy:
     3:
     0.199,0.237,0.074,0.085,0.000: // measure 1
0000
0000
0000
0000
,  // measure 2
0000
0000
0000
0000
,  // measure 3
0000
0000
0000
0000
,  // measure 4
0000
0000
0000
0000
,  // measure 5
0000
0000
0000
0000
,  // measure 6
0000
0000
0000
0000
,  // measure 7
0000
0000
0000
0000
,  // measure 8
0000
0000
0000
0000
,  // measure 9
0002
0000
0000
0000
,  // measure 10
2003
0000
0000
0000
,  // measure 11
3002
0000
0000
0000
,  // measure 12
2003
0000
0000
0000
,  // measure 13
3020
0000
0000
0000
,  // measure 14
0230
0000
0000
0000
,  // measure 15
0320
0000
0000
0000
,  // measure 16
0230
0000
0000
0000
,  // measure 17
0301
0000
0100
0000
,  // measure 18
0001
0000
0100
0000
,  // measure 19
0001
0000
1000
0000
,  // measure 20
0010
0000
1000
0000
,  // measure 21
0010
0000
1000
0000
,  // measure 22
0001
0000
1000
0000
,  // measure 23
0001
0000
0001
0000
,  // measure 24
1001
0000
0000
0000
,  // measure 25
1001
0000
0001
0000
,  // measure 26
0001
0100
0001
0000
,  // measure 27
1000
0000
1000
0000
,  // measure 28
1000
0010
1000
0000
,  // measure 29
0001
0000
0001
0000
,  // measure 30
0001
0010
0001
0000
,  // measure 31
1000
0000
1000
0000
,  // measure 32
1001
0000
0000
0000
,  // measure 33
0001
0100
0001
0100
,  // measure 34
0001
0000
1000
0000
,  // measure 35
1000
0010
1000
0010
,  // measure 36
1000
0000
0001
0000
,  // measure 37
0010
0000
0001
0000
,  // measure 38
1000
0000
0100
0000
,  // measure 39
1000
0000
0001
0000
,  // measure 40
1000
0000
0000
0000
,  // measure 41
1001
0000
0100
0000
,  // measure 42
0010
0000
1000
0000
,  // measure 43
0001
0000
0010
0000
,  // measure 44
0001
0000
0010
0000
,  // measure 45
1001
0000
0100
0000
,  // measure 46
1000
0000
0010
0000
,  // measure 47
0001
0000
1000
0000
,  // measure 48
1001
0000
0000
0000
,  // measure 49
0001
0000
1000
0000
,  // measure 50
0001
0000
1000
0000
,  // measure 51
0100
0000
0010
0000
,  // measure 52
0100
0000
0010
0000
,  // measure 53
0001
1000
0001
0000
,  // measure 54
0010
0000
0100
0000
,  // measure 55
1000
0001
1000
0000
,  // measure 56
0100
0000
0010
0000
,  // measure 57
0001
0010
0001
0010
,  // measure 58
0001
0000
0010
0000
,  // measure 59
0100
1000
0100
1000
,  // measure 60
0001
0000
1000
0000
,  // measure 61
0010
0100
0010
0100
,  // measure 62
0010
0000
1000
0000
,  // measure 63
0001
1000
0001
1000
,  // measure 64
0001
0000
0000
0000
,  // measure 65
1001
0000
0000
0000
;

//---------------dance-single - ----------------
#NOTES:
     dance-single:
     :
     Medium:
     5:
     0.337,0.440,0.127,0.106,0.000: // measure 1
0000
0000
0000
0000
,  // measure 2
0000
0000
0000
0000
,  // measure 3
0000
0000
0000
0000
,  // measure 4
0000
0000
0000
0000
,  // measure 5
0000
0000
0000
0000
,  // measure 6
0000
0000
0000
0000
,  // measure 7
0000
0000
0000
0000
,  // measure 8
0000
0000
0000
0000
,  // measure 9
2000
0000
0000
0000
,  // measure 10
3002
0000
0000
0000
,  // measure 11
0203
0000
0000
0000
,  // measure 12
0302
0000
0000
0000
,  // measure 13
2003
0000
0000
0000
,  // measure 14
3020
0000
0000
0000
,  // measure 15
2030
0000
0000
0000
,  // measure 16
3002
0000
0000
0003
,  // measure 17
0001
1000
0001
1000
,  // measure 18
0001
1000
0001
1000
,  // measure 19
0100
0010
0100
0010
,  // measure 20
0100
0010
0100
0010
,  // measure 21
0001
1000
0001
1000
,  // measure 22
0001
0010
0001
0010
,  // measure 23
0100
1000
0100
1000
,  // measure 24
0220
0000
0000
0330
,  // measure 25
1000
0000
0001
1000
0000
0010
1000
0010
,  // measure 26
0000
0100
0000
0010
0000
0100
0000
0000
,  // measure 27
0001
0000
1000
0001
0000
0100
0000
0010
,  // measure 28
0000
0010
0000
0100
0000
0001
1000
0000
,  // measure 29
1000
0000
0001
1000
0000
0010
1000
0010
,  // measure 30
0000
0100
0000
0010
0000
0100
0000
0000
,  // measure 31
0001
0000
1000
0001
0000
0100
0000
0100
,  // measure 32
0001
0000
0000
0000
,  // measure 33
1001
0010
0100
1000
,  // measure 34
0100
0001
0100
1000
,  // measure 35
0010
0100
0010
1000
,  // measure 36
0010
0001
0010
1000
,  // measure 37
0110
0001
0100
0001
,  // measure 38
1000
0100
1000
0010
,  // measure 39
0100
0010
1000
0100
,  // measure 40
0001
0000
0010
0100
,  // measure 41
1000
0001
1000
0000
0010
1000
0010
0000
,  // measure 42
1000
0010
0100
0001
,  // measure 43
1000
0001
1000
0000
0010
1000
0010
0000
,  // measure 44
1000
0001
0010
0100
,  // measure 45
1001
0000
1000
0000
0010
0100
0010
0000
,  // measure 46
1001
0000
0001
0000
0100
0010
0100
0000
,  // measure 47
0001
1000
0001
0000
1000
0100
1000
0000
,  // measure 48
0011
0001
0001
0001
,  // measure 49
1001
0000
0000
0001
0000
0000
0100
0000
,  // measure 50
0000
0001
0000
0000
1000
0000
1000
0000
,  // measure 51
0010
0000
0000
1000
0000
0000
0010
0000
,  // measure 52
0000
1000
0000
0000
0001
0000
0001
0000
,  // measure 53
0010
0000
0000
0001
0000
0000
0010
0000
,  // measure 54
0000
0001
0000
0000
1000
0000
1000
0000
,  // measure 55
0100
0000
0000
1000
0000
0000
0100
0000
,  // measure 56
0000
1000
0000
0000
0001
0000
0001
0000
,  // measure 57
1001
1000
0100
0010
,  // measure 58
0001
0000
1000
0000
0001
0010
0001
0000
,  // measure 59
1001
0001
0010
0100
,  // measure 60
1000
0000
0001
0000
1000
0100
1000
0000
,  // measure 61
1001
0001
0010
0100
,  // measure 62
1000
0100
0001
0010
,  // measure 63
0001
1000
0001
0000
0010
0000
0100
0000
,  // measure 64
1100
0010
0001
1000
,  // measure 65
1001
0000
0000
0000
;

//---------------dance-single - ----------------
#NOTES:
     dance-single:
     :
     Hard:
     7:
     0.483,0.575,0.359,0.106,0.000: // measure 1
0000
0000
0000
0000
,  // measure 2
0000
0000
0000
0000
,  // measure 3
0000
0000
0000
0000
,  // measure 4
0000
0000
0000
0000
,  // measure 5
0000
0000
0000
0000
,  // measure 6
0000
0000
0000
0000
,  // measure 7
0000
0000
0000
0000
,  // measure 8
0000
0000
0000
0000
,  // measure 9
2000
0000
0000
0000
,  // measure 10
3200
0000
0000
0000
,  // measure 11
0320
0000
0000
0000
,  // measure 12
0032
0000
0000
0000
,  // measure 13
0203
0000
0000
0000
,  // measure 14
0320
0000
0000
0000
,  // measure 15
2030
0000
0000
0000
,  // measure 16
3002
0000
0000
0000
,  // measure 17
1003
0000
0001
0100
0000
0001
0000
1000
,  // measure 18
0000
0001
0000
0100
0000
0010
0100
0000
,  // measure 19
0001
0000
1000
0010
0000
1000
0010
0100
,  // measure 20
0000
0001
0000
1000
0000
0001
0010
0000
,  // measure 21
0001
0100
0001
0100
0001
0100
0001
0000
,  // measure 22
1000
0100
1000
0100
1000
0100
1000
0000
,  // measure 23
0010
0100
0010
1000
0000
0100
0010
0100
,  // measure 24
2002
0000
0000
3003
,  // measure 25
1000
0010
1000
0001
0000
0001
0100
0010
,  // measure 26
0000
1010
0000
0011
0000
0010
1000
0000
,  // measure 27
0001
0100
0001
1000
0000
1000
0010
0100
,  // measure 28
0000
0101
0000
1100
0000
0100
0001
0000
,  // measure 29
1000
0100
1000
0001
0000
0001
0010
0100
,  // measure 30
0000
1100
0000
0101
0000
0100
1000
0010
,  // measure 31
1000
0100
1000
0001
0000
0011
0000
0001
,  // measure 32
1000
1000
1000
1100
,  // measure 33
1001
0000
0011
0000
0010
1000
0010
0000
,  // measure 34
1001
0000
1100
0000
0100
0001
0100
0010
,  // measure 35
1000
0000
1100
0000
0101
0000
0100
0001
,  // measure 36
0010
0010
0001
0011
,  // measure 37
1001
0000
0010
0000
1000
0000
0010
0100
,  // measure 38
0001
0000
0011
0000
1001
0000
0100
0010
,  // measure 39
1000
0000
0100
0010
0001
0100
0001
0000
,  // measure 40
1001
1000
0001
0101
,  // measure 41
1001
0000
0001
0100
0010
0100
0001
0000
,  // measure 42
1000
0100
0010
0100
0000
1000
0000
0001
,  // measure 43
1000
0000
1000
0010
0100
0010
1000
0000
,  // measure 44
0001
0010
0100
0010
0000
0001
1000
0000
,  // measure 45
1001
0000
1100
0000
1000
0001
0100
0000
,  // measure 46
1001
0000
0011
0000
0001
1000
0010
0000
,  // measure 47
1000
0001
1000
0001
1000
0010
0001
0010
,  // measure 48
0100
1100
1100
1100
,  // measure 49
1001
0000
0001
0100
0000
0100
0001
0000
,  // measure 50
1000
0010
0000
0010
0100
0001
0100
0000
,  // measure 51
1001
0000
0001
0010
0000
0010
0001
0000
,  // measure 52
1000
0100
0000
0100
1000
0010
0100
0000
,  // measure 53
1001
0000
1000
0010
0000
0010
1000
0000
,  // measure 54
0001
0010
0000
0010
0001
0100
0010
0000
,  // measure 55
1001
0000
0001
0100
0000
0100
0001
0000
,  // measure 56
1000
0100
0000
0100
1000
0010
0100
0000
,  // measure 57
0001
0010
0001
0000
1000
0010
1000
0000
,  // measure 58
0001
0010
0001
1000
0010
0100
0000
0001
,  // measure 59
1000
0100
1000
0000
0001
0100
0001
0000
,  // measure 60
1000
0100
1000
0001
0100
0010
0000
1000
,  // measure 61
0001
0010
0001
0000
0100
0010
0100
0000
,  // measure 62
0001
1000
0001
0100
0000
0100
0010
1000
,  // measure 63
0010
0100
0010
0000
1000
0010
1000
0000
,  // measure 64
0001
0010
0001
1000
0100
0010
0100
0000
,  // measure 65
1001
0000
0000
0000
;

//---------------dance-single - ----------------
#NOTES:
     dance-single:
     :
     Beginner:
     1:
     0.065,0.135,0.021,0.000,0.000:
0000
0000
0000
0000
,
0000
0000
0000
0000
,
0000
0000
0000
0000
,
0000
0000
0000
0000
,
0000
0000
0000
0000
,
0000
0000
0000
0000
,
0000
0000
0000
0000
,
0000
0000
0000
0000
,
0001
0000
0000
0000
,
0000
0000
0000
0000
,
0000
0000
0000
0000
,
0000
0000
0000
0000
,
1000
0000
0000
0000
,
0000
0000
0000
0000
,
0000
0000
0000
0000
,
0000
0000
0000
0000
,
0001
0000
0000
0000
,
0001
0000
0000
0000
,
1000
0000
0000
0000
,
1000
0000
0000
0000
,
0001
0000
0000
0000
,
0001
0000
0000
0000
,
1000
0000
0000
0000
,
1000
0000
0000
0000
,
1000
0000
0000
0000
,
0000
0000
0000
0000
,
0001
0000
0000
0000
,
0000
0000
0000
0000
,
1000
0000
0000
0000
,
0000
0000
0000
0000
,
0001
0000
0000
0000
,
1000
0000
0000
0000
,
1000
0000
0000
0000
,
0100
0000
0000
0000
,
1000
0000
0000
0000
,
0100
0000
0000
0000
,
0010
0000
0000
0000
,
0001
0000
0000
0000
,
0010
0000
0000
0000
,
0001
0000
0000
0000
,
1000
0000
0000
0000
,
0001
0000
0000
0000
,
1000
0000
0000
0000
,
0001
0000
0000
0000
,
1000
0000
0000
0000
,
1000
0000
0000
0000
,
1000
0000
0000
0000
,
1000
0000
0000
0000
,
1001
0000
0000
0000
,
0000
0000
0000
0000
,
0001
0000
0000
0000
,
0000
0000
0000
0000
,
0010
0000
0000
0000
,
0000
0000
0000
0000
,
0001
0000
0000
0000
,
0000
0000
0000
0000
,
1000
0000
0000
0000
,
0000
0000
0000
0000
,
0100
0000
0000
0000
,
0000
0000
0000
0000
,
1000
0000
0000
0000
,
0000
0000
0000
0000
,
1000
0000
0000
0000
,
0001
0000
0000
0000
,
1001
0000
0000
0000
;

//---------------dance-single - ----------------
#NOTES:
     dance-single:
     :
     Challenge:
     8:
     0.539,0.609,0.296,0.116,0.000: // measure 1
0000
0000
0000
0000
,  // measure 2
0000
0000
0000
0000
,  // measure 3
0000
0000
0000
0000
,  // measure 4
0000
0000
0000
0000
,  // measure 5
0000
0000
0000
0000
,  // measure 6
0000
0000
0000
0000
,  // measure 7
0000
0000
0000
0000
,  // measure 8
0000
0000
0000
0000
,  // measure 9
1002
0000
1000
0000
,  // measure 10
2003
0000
0010
0000
,  // measure 11
3020
0000
0100
0000
,  // measure 12
0230
0000
0001
0000
,  // measure 13
0302
0000
0010
0000
,  // measure 14
0023
0000
0100
0000
,  // measure 15
0230
0000
1000
0000
,  // measure 16
2300
0000
0001
0000
,  // measure 17
3001
0100
0001
0100
0000
0010
0000
1000
,  // measure 18
0100
1000
0000
0001
0010
0001
1000
0000
,  // measure 19
1000
0010
1000
0010
0000
0100
0001
0010
,  // measure 20
0000
0001
1000
0001
1000
0100
0010
0001
,  // measure 21
1000
0010
1000
0100
1000
0010
1000
0100
,  // measure 22
0001
0010
0001
0100
0001
0010
0001
0100
,  // measure 23
1000
0010
0100
0001
0100
1000
0100
0010
,  // measure 24
2002
0000
0000
3003
,  // measure 25
0010
0100
1000
0010
0000
0010
1000
0001
,  // measure 26
0100
0010
1000
0010
0001
0010
0100
0000
,  // measure 27
1000
0100
0010
0001
0000
0001
0100
0010
,  // measure 28
0000
1010
0000
1000
0001
0100
1000
0000
,  // measure 29
0100
0010
0001
0100
0000
0100
0001
1000
,  // measure 30
0010
0100
0001
0010
1000
0100
0010
0001
,  // measure 31
0200
0000
0000
0001
0000
0000
1300
0000
,  // measure 32
1001
0000
0001
0000
0001
0100
0001
1000
,  // measure 33
1001
1010
0011
1010
,  // measure 34
1001
0000
0010
0001
0010
0000
0010
0001
,  // measure 35
1000
0000
0100
1000
0100
0000
0100
1000
,  // measure 36
0001
0000
0101
0000
1100
0000
1000
0001
,  // measure 37
0100
0000
0100
0001
0000
0001
0100
0010
,  // measure 38
1000
0000
1010
0000
0011
0000
0001
1000
,  // measure 39
0010
0000
0010
1000
0000
1000
0010
0100
,  // measure 40
0001
0000
0011
0000
1010
0000
1000
0001
,  // measure 41
0100
0001
0010
0001
1000
0100
1000
0010
,  // measure 42
0100
0001
0000
0101
0000
0100
0001
0010
,  // measure 43
1000
0100
1000
0100
1000
0010
0100
0001
,  // measure 44
0010
0100
0000
1010
0000
0010
1000
0100
,  // measure 45
0001
0101
0101
0110
,  // measure 46
1001
0000
1010
0000
1010
0000
0010
0100
,  // measure 47
0001
1000
0001
1000
0001
0010
0100
0010
,  // measure 48
0100
1010
1010
0011
,  // measure 49
1001
0000
1000
0010
0000
0100
0001
0000
,  // measure 50
0001
0010
0000
0100
1000
0100
0010
0000
,  // measure 51
0001
1000
0001
0100
0000
0010
1000
0000
,  // measure 52
1000
0100
0000
0010
0001
0010
0100
0000
,  // measure 53
1000
0001
1000
0100
0000
0010
0001
0000
,  // measure 54
0001
0100
0000
0010
1000
0100
0010
0000
,  // measure 55
0001
1000
0001
0010
0000
0100
1000
0000
,  // measure 56
1000
0010
0000
0100
0001
0010
0100
0000
,  // measure 57
1000
0100
1000
0010
1000
0010
0100
0001
,  // measure 58
1000
0100
0001
0010
0100
1000
0000
1000
,  // measure 59
0001
0010
0001
0100
0001
0100
0010
1000
,  // measure 60
0001
0010
1000
0100
0010
0001
0000
0001
,  // measure 61
1000
0010
1000
0100
1000
0100
0010
0001
,  // measure 62
1000
0100
0001
0010
0100
1000
0000
1000
,  // measure 63
0001
0100
0001
0010
0001
0010
0100
1000
,  // measure 64
0100
0001
0010
1000
0100
0010
0100
1000
,  // measure 65
1001
0000
0000
0000
;
