#TITLE:Last Chance;
#SUBTITLE:;
#ARTIST:GTS feat. Baby M;
#TITLETRANSLIT:;
#SUBTITLETRANSLIT:;
#ARTISTTRANSLIT:;
#CREDIT:DMAxel;
#BANNER:Last Chance.png;
#BACKGROUND:Last Chance-bg.png;
#LYRICSPATH:;
#CDTITLE:DMAxel original simfile.png;
#MUSIC:Last Chance.mp3;
#OFFSET:-0.360;
#SAMPLESTART:60.804;
#SAMPLELENGTH:12.000;
#SELECTABLE:YES;
#BPMS:0.000=126.990;
#STOPS:;
#BGCHANGES:;

//---------------dance-single - ----------------
#NOTES:
     dance-single:
     :
     Easy:
     2:
     0.171,0.227,0.118,0.042,0.000: // measure 1
0000
0000
0000
0000
,  // measure 2
0000
0000
0000
0000
,  // measure 3
0000
0000
0000
0000
,  // measure 4
0000
0000
0000
0000
,  // measure 5
0010
0000
0010
0000
,  // measure 6
0100
0000
0100
0000
,  // measure 7
0010
0000
0010
0000
,  // measure 8
0100
0000
0100
0000
,  // measure 9
0001
0000
1000
0000
,  // measure 10
0001
0000
1000
0000
,  // measure 11
0001
0000
0010
0000
,  // measure 12
0001
0000
0010
0000
,  // measure 13
0100
0000
0010
0000
,  // measure 14
0100
0000
0010
0000
,  // measure 15
0100
0000
1000
0000
,  // measure 16
0100
0000
1000
0000
,  // measure 17
1001
0000
1000
0000
,  // measure 18
0001
0000
1000
0000
,  // measure 19
0100
0000
0010
0000
,  // measure 20
0100
0000
0010
0000
,  // measure 21
0001
0000
0010
0000
,  // measure 22
0001
0000
0010
0000
,  // measure 23
0100
0000
0010
0000
,  // measure 24
0100
0000
1000
0000
,  // measure 25
1001
0000
0001
0000
,  // measure 26
1000
0000
0001
0000
,  // measure 27
0001
0000
0100
0000
,  // measure 28
0100
0000
0010
0000
,  // measure 29
0010
0000
1000
0000
,  // measure 30
1000
0000
0001
0000
,  // measure 31
1000
0000
0010
0000
,  // measure 32
0110
0000
0000
0000
,  // measure 33
1001
0000
1001
0000
,  // measure 34
0001
1000
0001
0000
,  // measure 35
1001
0000
1001
0000
,  // measure 36
1000
0001
1000
0000
,  // measure 37
0100
0000
0010
0000
,  // measure 38
0100
0000
0010
0000
,  // measure 39
0001
0000
1000
0000
,  // measure 40
0001
0000
1000
0000
,  // measure 41
1001
0000
1001
0000
,  // measure 42
1000
0001
1000
0000
,  // measure 43
1001
0000
1001
0000
,  // measure 44
0001
1000
0001
0000
,  // measure 45
0010
0000
0100
0000
,  // measure 46
0010
0000
0100
0000
,  // measure 47
1000
0000
0001
0000
,  // measure 48
1000
0010
1000
0000
,  // measure 49
1001
0000
0001
0000
,  // measure 50
0001
0100
0001
0000
,  // measure 51
1001
0000
1000
0000
,  // measure 52
1000
0100
1000
0001
,  // measure 53
1001
0000
0001
0000
,  // measure 54
0001
0010
0001
1000
,  // measure 55
0020
0000
1000
0000
,  // measure 56
2030
0000
0001
0000
,  // measure 57
3002
0000
0100
0000
,  // measure 58
0203
0000
0010
0000
,  // measure 59
0320
0000
0100
0000
,  // measure 60
0130
0100
0001
1000
;

//---------------dance-single - ----------------
#NOTES:
     dance-single:
     :
     Medium:
     5:
     0.331,0.405,0.253,0.135,0.000: // measure 1
0000
0000
0000
0000
,  // measure 2
0000
0000
0000
0000
,  // measure 3
0000
0000
0000
0000
,  // measure 4
0000
0000
0000
0000
,  // measure 5
0001
0001
1000
1000
,  // measure 6
0001
0001
1000
1000
,  // measure 7
0010
0010
0100
0100
,  // measure 8
0010
0010
0100
0100
,  // measure 9
0101
0001
1000
0000
,  // measure 10
0010
1000
0001
0000
,  // measure 11
0100
0010
0100
0001
,  // measure 12
1000
0100
0010
0000
,  // measure 13
0001
1000
0010
0000
,  // measure 14
1000
0001
0100
0000
,  // measure 15
0010
0100
0010
1000
,  // measure 16
0001
0010
0100
0000
,  // measure 17
1001
1000
0020
0000
,  // measure 18
1030
0001
0200
0000
,  // measure 19
0301
0010
0100
1000
,  // measure 20
0100
0001
1000
0001
,  // measure 21
1000
0100
0010
0001
,  // measure 22
0010
1000
0001
1000
,  // measure 23
0001
1000
0010
0100
,  // measure 24
0001
0001
1000
0010
,  // measure 25
0220
0000
0330
0010
,  // measure 26
0100
0010
1000
0100
,  // measure 27
0001
1000
0001
0010
,  // measure 28
1000
0000
0010
0100
0010
0000
1000
0001
,  // measure 29
2000
0001
0001
3001
,  // measure 30
0011
0000
0100
0000
1000
0000
0001
1000
,  // measure 31
0002
1000
1000
1003
,  // measure 32
0220
0000
0000
0330
,  // measure 33
1001
0000
1001
0000
1001
0000
0001
0100
,  // measure 34
0020
0100
0130
0110
,  // measure 35
1001
0000
1001
0000
1001
0000
1000
0010
,  // measure 36
0200
0010
0310
0110
,  // measure 37
1001
0000
1000
0000
1000
0010
1000
0000
,  // measure 38
0001
0000
0001
0000
0001
0100
0001
0000
,  // measure 39
1000
1000
0020
1000
,  // measure 40
2030
0000
3001
0000
,  // measure 41
1001
0000
1001
0000
1001
0000
0001
0010
,  // measure 42
0200
0010
0310
0110
,  // measure 43
1001
0000
1001
0000
1001
0000
1000
0100
,  // measure 44
0020
0100
0130
0110
,  // measure 45
1001
0000
1000
0000
1000
0100
1000
0000
,  // measure 46
0001
0000
0001
0000
0001
0010
0001
0000
,  // measure 47
1000
0000
1000
0000
1000
0001
1000
0000
,  // measure 48
0002
0000
1000
1000
0000
0000
1003
0000
,  // measure 49
1001
0001
0101
1000
,  // measure 50
2000
0000
0001
0001
0000
0000
3001
0000
,  // measure 51
1001
1000
1010
1000
,  // measure 52
1001
0001
0011
0001
,  // measure 53
1001
0000
1000
0000
1000
0010
0100
0000
,  // measure 54
0001
0000
0001
0000
0001
0100
0010
0000
,  // measure 55
1000
0100
0001
0100
,  // measure 56
1000
0000
0010
0000
0001
0000
0010
0100
,  // measure 57
1000
0001
0100
1000
,  // measure 58
0010
0000
0100
0000
0001
0000
1000
0100
,  // measure 59
0010
0001
0010
1000
,  // measure 60
0001
0100
0010
0000
0100
0010
0100
0001
;

//---------------dance-single - ----------------
#NOTES:
     dance-single:
     :
     Hard:
     8:
     0.469,0.506,0.025,0.059,0.317: // measure 1
0000
0000
0000
0000
,  // measure 2
0000
0000
0000
0000
,  // measure 3
0000
0000
0000
0000
,  // measure 4
0000
0000
0000
0000
,  // measure 5
1000
0100
0001
0000
0100
0001
1000
0000
,  // measure 6
0001
0010
1000
0000
0010
1000
0001
0000
,  // measure 7
1000
0010
0001
0000
0010
0001
1000
0000
,  // measure 8
0001
0100
1000
0000
0100
1000
0001
0000
,  // measure 9
1000
0100
1000
0000
0001
0100
0001
0000
,  // measure 10
0100
0010
0100
0001
1000
0100
1000
0000
,  // measure 11
0001
0010
0001
0000
1000
0010
1000
0000
,  // measure 12
0010
0100
0010
1000
0001
0010
0001
0000
,  // measure 13
1000
0010
0100
0001
1000
0000
1000
0000
,  // measure 14
0010
1000
0100
0000
0010
0001
0010
0000
,  // measure 15
0001
0100
0010
1000
0001
0000
0001
0000
,  // measure 16
0100
0001
0010
0000
0100
1000
0100
0000
,  // measure 17
1000
0000
0010
0000
0000
0100
0000
0000
0010
0000
0000
1000
0000
0000
0001
0000
,  // measure 18
0000
0000
0010
0000
0000
0100
0000
0000
0010
0000
0000
0001
0000
0000
1000
0000
,  // measure 19
0000
0000
0100
0000
0000
0010
0000
0000
0100
0000
0000
1000
0000
0000
0001
0000
,  // measure 20
0000
0000
0100
0000
0000
0010
0000
0000
0100
0000
0000
0001
0000
0000
1000
0000
,  // measure 21
0000
0000
0010
0000
0000
0100
0000
0000
0010
0000
0000
1000
0000
0000
0001
0000
,  // measure 22
0000
0000
1000
0000
0000
0100
0000
0000
1000
0000
0000
0010
0000
0000
0100
0000
,  // measure 23
0000
0000
0001
0000
0000
0010
0000
0000
0001
0000
0000
0100
0000
0000
0010
0000
,  // measure 24
0000
0000
1000
0000
0000
0010
0000
0000
0100
0000
0000
0001
0000
0000
1000
0000
,  // measure 25
0100
0000
0002
0000
0000
1000
0000
0000
1003
0000
0000
0100
0000
0000
1000
0000
,  // measure 26
0001
0000
2000
0000
0000
0001
0000
0000
3001
0000
0000
0010
0000
0000
0001
0000
,  // measure 27
1000
0000
0020
0000
0000
1000
0000
0000
1030
0000
0000
0001
0000
0000
1000
0000
,  // measure 28
0001
0000
0200
0000
0000
0001
0000
0000
0301
0000
0000
1000
0000
0000
0001
0000
,  // measure 29
0010
0000
2000
0000
0000
0001
0000
0000
3001
0000
0000
0010
0000
0000
1000
0000
,  // measure 30
0100
0000
0002
0000
0000
1000
0000
0000
1003
0000
0000
0100
0000
0000
0001
0000
,  // measure 31
1000
0000
0001
0000
0010
0001
0000
0010
0001
0010
0000
0001
1000
0001
1000
0001
,  // measure 32
0200
0000
0000
0310
,  // measure 33
0001
0001
1000
1000
0001
0001
0010
0100
,  // measure 34
1000
0000
0001
0000
0010
0000
0001
0000
1000
0000
0010
0100
0010
0000
1000
0100
,  // measure 35
1000
1000
0001
0001
1000
1000
0100
0010
,  // measure 36
0001
0000
1000
0000
0100
0000
1000
0000
0001
0000
0100
0010
0100
0000
0001
0010
,  // measure 37
0001
0000
0000
1000
0100
0000
1000
0000
0000
0001
0010
0000
0001
0000
0000
1000
,  // measure 38
0100
1000
0010
0000
0010
1000
0100
0000
,  // measure 39
0010
0001
1000
0000
0001
0010
0100
1000
,  // measure 40
0010
1000
0001
0000
0010
0100
1000
0000
,  // measure 41
1000
1000
0001
0001
1000
1000
0100
0010
,  // measure 42
0001
0000
1000
0000
0100
0000
1000
0000
0001
0000
0100
0010
0100
0000
0001
0010
,  // measure 43
0001
0001
1000
1000
0001
0001
0010
0100
,  // measure 44
1000
0000
0001
0000
0010
0000
0001
0000
1000
0000
0010
0100
0010
0000
1000
0100
,  // measure 45
1000
0000
0000
0001
0010
0000
0001
0000
0000
1000
0100
0000
1000
0000
0000
0001
,  // measure 46
0010
0001
0100
0000
0010
1000
0100
0000
,  // measure 47
0010
0001
1000
0000
0100
0010
0001
0000
,  // measure 48
1000
0100
0010
0001
0100
0010
1000
0000
,  // measure 49
1001
0000
0001
0000
0100
0001
0000
0000
1000
0000
0001
0000
0100
0001
0000
0000
,  // measure 50
0010
0000
0100
0000
1000
0001
0000
0000
1000
0000
1000
0100
1000
0000
0001
0010
,  // measure 51
0001
0000
1000
0000
0010
1000
0000
0000
0001
0000
1000
0000
0010
1000
0000
0000
,  // measure 52
0010
0000
1000
0000
0001
0010
0000
0000
0100
0000
1000
0000
0001
0100
0000
0000
,  // measure 53
1001
0000
0000
1000
0010
0000
0100
0000
0000
0010
0000
0000
1000
0000
0000
0001
,  // measure 54
0000
0000
0010
0000
0000
0100
0000
0000
1000
0000
0000
0010
1000
0000
0001
0000
,  // measure 55
0100
0000
0000
0001
0100
0000
0010
0000
0000
0100
0000
0000
0001
0000
0000
1000
,  // measure 56
0000
0000
0100
0000
0000
0010
0000
0000
0001
0000
0000
0100
0010
0000
1000
0000
,  // measure 57
1000
0000
0000
0100
1000
0000
0100
0000
0000
1000
0000
0000
0001
0000
0000
0001
,  // measure 58
0000
0000
0010
0000
0000
0100
0000
0000
1000
0000
0000
0010
0100
0000
0001
0000
,  // measure 59
0001
0000
0000
0010
0001
0000
0010
0000
0000
0001
0000
0000
1000
0000
0000
0100
,  // measure 60
1000
0010
0100
0001
0010
0100
0010
1001
;

//---------------dance-single - ----------------
#NOTES:
     dance-single:
     :
     Beginner:
     1:
     0.043,0.100,0.017,0.000,0.000: // measure 1
0000
0000
0000
0000
,  // measure 2
0000
0000
0000
0000
,  // measure 3
0000
0000
0000
0000
,  // measure 4
0000
0000
0000
0000
,  // measure 5
0001
0000
0000
0000
,  // measure 6
1000
0000
0000
0000
,  // measure 7
0001
0000
0000
0000
,  // measure 8
1000
0000
0000
0000
,  // measure 9
1000
0000
0000
0000
,  // measure 10
0000
0000
0000
0000
,  // measure 11
0001
0000
0000
0000
,  // measure 12
0000
0000
0000
0000
,  // measure 13
1000
0000
0000
0000
,  // measure 14
0000
0000
0000
0000
,  // measure 15
0010
0000
0000
0000
,  // measure 16
0000
0000
0000
0000
,  // measure 17
0100
0000
0000
0000
,  // measure 18
0000
0000
0000
0000
,  // measure 19
0010
0000
0000
0000
,  // measure 20
0000
0000
0000
0000
,  // measure 21
0100
0000
0000
0000
,  // measure 22
0000
0000
0000
0000
,  // measure 23
1000
0000
0000
0000
,  // measure 24
0000
0000
0000
0000
,  // measure 25
0001
0000
0000
0000
,  // measure 26
0000
0000
0000
0000
,  // measure 27
1000
0000
0000
0000
,  // measure 28
0000
0000
0000
0000
,  // measure 29
0100
0000
0000
0000
,  // measure 30
0000
0000
0000
0000
,  // measure 31
0010
0000
0000
0000
,  // measure 32
1001
0000
0000
0000
,  // measure 33
0001
0000
0000
0000
,  // measure 34
0000
0000
0000
0000
,  // measure 35
1000
0000
0000
0000
,  // measure 36
0000
0000
0000
0000
,  // measure 37
0100
0000
0000
0000
,  // measure 38
0000
0000
0000
0000
,  // measure 39
0010
0000
0000
0000
,  // measure 40
0000
0000
0000
0000
,  // measure 41
0001
0000
0000
0000
,  // measure 42
0000
0000
0000
0000
,  // measure 43
0010
0000
0000
0000
,  // measure 44
0000
0000
0000
0000
,  // measure 45
0100
0000
0000
0000
,  // measure 46
0000
0000
0000
0000
,  // measure 47
1000
0000
0000
0000
,  // measure 48
0000
0000
0000
0000
,  // measure 49
1001
0000
0000
0000
,  // measure 50
1000
0000
0000
0000
,  // measure 51
0001
0000
0000
0000
,  // measure 52
0001
0000
0000
0000
,  // measure 53
1000
0000
0000
0000
,  // measure 54
0000
0000
0000
0000
,  // measure 55
0001
0000
0000
0000
,  // measure 56
0000
0000
0000
0000
,  // measure 57
1000
0000
0000
0000
,  // measure 58
0000
0000
0000
0000
,  // measure 59
0010
0000
0000
0000
,  // measure 60
0100
0000
0000
0000
;
