#TITLE:LUV TO ME;
#SUBTITLE:-super euro version-;
#ARTIST:tiger YAMATO with Y&Co.;
#TITLETRANSLIT:;
#SUBTITLETRANSLIT:;
#ARTISTTRANSLIT:;
#CREDIT:DMAxel (singles), silenttype01 (doubles);
#BANNER:LUV TO ME -super euro version-.png;
#BACKGROUND:LUV TO ME -super euro version--bg.png;
#LYRICSPATH:LUV TO ME -super euro version-.lrc;
#CDTITLE:ParaParaParadise.png;
#MUSIC:LUV TO ME -super euro version-.mp3;
#OFFSET:-3.580;
#SAMPLESTART:61.528;
#SAMPLELENGTH:12.000;
#SELECTABLE:YES;
#BPMS:0.000=160.000;
#STOPS:51.000=1.125
;
#BGCHANGES:;

//---------------dance-single - ----------------
#NOTES:
     dance-single:
     :
     Medium:
     6:
     0.416,0.461,0.222,0.068,0.000:
0000
0000
0000
0000
,
0000
0000
0000
1000
,
0001
1000
0001
0100
,
0010
0100
0010
1000
,
0001
1000
0001
1001
,
0000
0000
0000
0001
,
0010
0100
1000
0100
,
0001
0000
0000
1001
0000
0000
1000
0000
,
0100
0000
0010
0000
0001
0000
0010
0100
,
0010
0000
0001
1000
0001
0000
1000
0000
,
0100
0010
0001
0010
,
1000
0000
0000
1001
0000
0000
0001
0000
,
0010
0100
1000
0110
,
0001
0000
0001
0000
1000
0100
0001
0000
,
1000
0000
1000
0000
0001
0010
1000
0000
,
0001
0010
0001
0000
1000
0100
1000
0000
,
0001
0010
1000
0100
,
0001
0000
1000
0000
0001
0001
0001
0000
,
1000
0100
0001
0000
0100
0000
0110
0000
,
0001
0010
1000
0000
0010
0100
0010
0000
,
1000
0001
1000
0001
1000
0000
0000
0000
,
1001
1000
0010
1000
,
0001
0000
0100
0000
0001
0010
0001
1000
,
0200
0000
0000
1300
0000
0000
0000
0001
,
1000
0100
1000
0001
,
1001
0001
0100
0001
,
1000
0000
0010
0000
1000
0100
1000
0002
,
0000
0000
0000
0013
0000
0000
0000
0001
,
1000
0000
1000
0001
0000
0010
0000
0000
,
0001
0100
1100
0000
,
1000
0100
0001
0010
,
1000
0010
0011
0000
,
0001
0010
1000
0100
,
0001
0010
1010
0000
,
1000
0100
0001
0010
,
1000
0001
1000
0001
0100
0000
0010
1000
,
0002
0000
1003
0000
,
0010
0010
0010
0010
,
1001
0000
1000
0000
0001
0100
0010
0000
,
1000
0000
0100
0000
0010
0100
1000
0000
,
0001
0000
0100
0001
0000
0001
0000
0000
,
1000
0010
0100
0000
0001
0100
0000
0000
,
1001
0000
0001
0000
1000
0010
0100
0000
,
0001
0000
0010
0000
0100
0010
0001
0000
,
1000
0000
0010
1000
0000
1000
0000
0000
,
0001
0100
0010
0000
1000
0010
0000
0000
,
1001
0000
1000
0000
0001
1000
0100
0000
,
1000
0000
0100
0000
0001
0010
0100
0000
,
1000
0000
0001
0000
0010
0001
1000
0000
,
0001
0100
0001
0000
1000
0100
1000
0000
,
1001
0000
0001
0000
1000
0001
0010
0000
,
0001
0000
0010
0000
1000
0100
0010
0000
,
0001
0000
1000
0000
0100
1000
0001
0000
,
1000
0010
1000
0000
0001
0010
0001
0000
,
1001
0000
1001
0000
0001
0010
1000
0000
,
0010
0000
1001
0000
1000
0100
0001
0000
,
0100
0010
0100
0000
0001
0100
1000
0000
,
0220
0000
0000
0330
,
0001
1000
0001
1000
0001
0001
0001
0000
,
0100
0001
1000
0000
0010
0000
0110
0000
,
1001
0000
1001
0000
0001
0010
1000
0000
,
0010
0100
0010
0100
0010
0000
0010
0000
,
2002
0000
0000
0000
,
0000
0000
3003
0110
;

//---------------dance-single - ----------------
#NOTES:
     dance-single:
     :
     Hard:
     8:
     0.546,0.523,0.318,0.125,0.048:
0000
0000
0000
0000
,
0000
0000
0000
1000
,
0100
0010
0001
0100
,
0000
0010
0000
0000
0100
0000
0001
0000
,
0010
0100
1000
0220
,
0000
0000
0000
0000
0330
0001
1000
0000
,
0010
0200
0000
0020
0000
0330
0001
0010
,
1000
0000
0000
1001
0000
0000
1000
0100
,
1000
0020
0000
0200
0000
0330
1000
0010
,
0100
0000
0001
0010
0001
0001
1001
0000
,
0100
0020
0000
0200
0000
0330
1000
0100
,
0001
0000
0000
1001
0000
0000
0001
0010
,
0001
0200
0000
0310
0000
0000
1001
0000
,
1100
0000
0001
0000
1000
0100
0010
0001
,
1000
0000
0011
0000
0001
0010
0100
1000
,
0001
0000
0000
0010
0000
0000
0001
0000
1000
0000
0000
0100
0000
0000
1000
0000
,
0001
0000
0000
0100
0000
0000
0010
0000
0000
1000
0000
0000
0100
0000
0100
0000
,
1000
0010
1000
0001
0100
0100
0100
0000
,
0001
0100
0001
1000
0010
0000
0110
0000
,
1000
0010
0100
0001
1000
0010
0100
0001
,
1000
0100
1000
0100
1000
0000
0000
0000
,
1001
0000
0001
0000
1000
0100
0001
0000
,
1000
0100
0000
1000
0000
0001
0010
0100
,
2000
0000
0001
3001
0000
0000
0100
0001
,
1000
0000
0010
0100
0010
0000
1000
1000
,
1000
0001
0010
0001
1000
0100
0010
0000
,
0001
0100
0010
1000
0000
0100
0010
0002
,
0000
0000
0000
1003
0000
0000
0000
0010
,
0100
0000
0001
0100
0000
1010
0000
0000
,
1001
1100
1001
1000
,
1000
0010
0100
0001
0000
0011
0000
0000
,
1001
0000
0011
0000
1001
0000
0001
1000
,
0010
0000
0000
0010
0000
0000
0110
0000
0000
0000
1001
0000
0000
0000
0000
0000
,
1001
1100
1001
1000
,
0001
0100
0010
1000
0000
1100
0000
0000
,
1000
0100
1000
0100
0001
0010
0001
0100
,
0010
0000
0000
1000
0000
0000
0001
0000
1001
0000
0000
0000
0000
0000
0000
0000
,
1000
0100
1000
0010
0100
0001
0010
0001
,
1001
0000
1000
0010
1000
0001
0000
0010
,
0010
0001
0010
0100
0000
1001
0000
0000
,
0001
0100
0001
1000
0000
0100
0100
1000
,
0100
0010
0001
0010
0100
1000
0001
0001
,
0001
0010
1000
0100
0010
0001
0000
1000
,
0001
0010
1000
0100
0010
0001
0000
1000
,
0000
0010
1000
0100
0010
0001
0000
0100
,
0001
0010
0001
0010
0100
1000
0001
0010
,
0110
0000
0100
0001
1000
0100
0000
1000
,
0001
0010
0100
1000
0001
0010
0000
0001
,
1000
0100
0010
0001
1000
0100
0000
1000
,
0001
0010
1000
0010
0001
1000
0001
0100
,
0110
0000
0010
1000
0001
0010
0000
0001
,
1000
0100
0010
0001
1000
0100
0000
1000
,
0001
0010
0100
1000
0001
0010
0000
0001
,
1000
0100
0001
0100
1000
0001
1000
0010
,
0110
0000
1000
0000
0001
0010
1000
0010
,
0110
0000
0001
0000
1000
0100
0001
0100
,
1000
0000
0000
0010
0000
0000
1000
0000
0001
0000
0000
0100
0000
0000
0001
0000
,
1000
0000
0000
0100
0000
0000
0010
0000
0000
0001
0000
0000
0100
0000
0100
0000
,
0100
0001
0100
0010
1000
1000
1000
0000
,
0001
0100
0001
1000
0010
0000
0110
0000
,
1000
0010
0100
0001
1000
0010
0100
0001
,
1000
0001
0000
0001
1000
0100
0010
0001
,
2002
0000
0000
0000
,
0000
0000
3003
0110
;

//---------------dance-single - ----------------
#NOTES:
     dance-single:
     :
     Easy:
     4:
     0.316,0.308,0.135,0.106,0.000:
0000
0000
0000
0000
,
0000
0000
0000
1000
,
0000
1000
0000
0010
,
0000
0100
0000
0001
,
0000
0001
0000
0011
,
0000
0000
0000
0001
,
1000
0001
0010
0001
,
2002
0000
3003
1000
,
0001
1000
0100
2002
,
0000
0000
3003
1001
,
0010
0001
0010
0001
,
2000
0000
3100
1000
,
0100
1000
0001
0110
,
0001
0001
1000
1000
,
0001
0001
0010
0100
,
1000
1000
0001
0001
,
1000
0100
0010
0001
,
1000
1000
0001
0001
,
0010
0100
1000
0001
,
0100
0010
0100
0001
,
0010
0000
0000
0000
,
1001
0010
0001
0010
,
0001
0010
0001
0010
,
1000
0010
1000
0010
,
1000
0100
0001
0000
,
1001
0100
1000
0100
,
1000
0100
1000
0100
,
0001
0100
0001
0100
,
2002
0000
0000
3003
,
0001
0010
1000
0000
,
0001
1000
0001
1000
,
0100
0010
0001
0000
,
1000
0001
1000
0001
,
0010
1000
0100
0000
,
1000
0001
1000
0001
,
0010
1000
0010
0001
,
1000
0000
1001
0000
,
0220
0000
0000
0330
,
1001
0010
0001
0010
,
1000
0010
1000
0010
,
0100
0001
0100
0001
,
0010
0100
1000
0001
,
1000
0100
1000
0100
,
0001
0100
0001
0100
,
0010
1000
0010
1000
,
0001
0010
0100
1000
,
1001
0000
0000
0000
,
0010
0000
0000
0000
,
0001
0000
0000
0000
,
0010
0100
1000
0001
,
1000
0010
1000
0010
,
0001
0010
0001
0010
,
0001
1000
0001
1000
,
0001
0010
0100
1000
,
0001
0001
1000
1000
,
0001
0001
1000
1000
,
0100
0010
0100
0010
,
0001
0010
0100
1000
,
0001
0001
1000
1000
,
0100
0010
0001
1000
,
0010
0100
0010
0100
,
0001
0010
0100
1000
,
0022
0000
0000
0000
,
0000
0000
0033
1001
;

//---------------dance-single - ----------------
#NOTES:
     dance-single:
     :
     Challenge:
     9:
     0.646,0.677,0.338,0.087,0.251: // measure 1
0000
0000
0000
0000
,  // measure 2
0000
0000
0000
0010
,  // measure 3
0100
1000
0100
0001
,  // measure 4
0010
1000
0001
0010
,  // measure 5
0100
1000
0001
0220
,  // measure 6
0000
0000
0330
1001
,  // measure 7
1000
0100
1000
0010
0100
0001
0010
0000
,  // measure 8
0011
0000
0000
1001
0000
0000
0001
0100
,  // measure 9
0001
0000
0100
0000
0010
0000
1000
0000
0010
0000
1000
0000
0001
0000
0000
0010
,  // measure 10
0000
0000
0100
0000
0000
1000
0000
0000
0001
0000
0001
0000
0001
0000
0010
0000
,  // measure 11
0001
0100
0010
1000
0100
1000
0100
0000
,  // measure 12
1100
0000
0000
1001
0000
0000
1000
0010
,  // measure 13
1000
0010
0100
0001
1000
0000
1001
0000
,  // measure 14
0101
0000
0101
0000
0100
0001
1000
0010
,  // measure 15
1010
0000
1010
0000
0010
1000
0001
0100
,  // measure 16
0001
0010
0000
0001
0000
0000
0001
0000
1000
0100
0000
1000
0000
0000
1000
0000
,  // measure 17
0001
0100
0000
0001
0100
0000
0010
1000
0000
0010
1000
0000
0001
0000
0001
0000
,  // measure 18
1000
0010
0000
1000
0000
0100
0000
1000
0001
0000
0001
0000
0001
0000
0100
0000
,  // measure 19
0001
0010
0001
0010
0001
0000
1000
0000
0010
0000
0000
0000
0110
0000
0000
0000
,  // measure 20
1000
0100
1000
0010
0100
0001
0010
0001
,  // measure 21
1000
0000
0100
0000
1000
0000
0100
0000
1000
0001
0000
0010
0001
0010
0001
0000
,  // measure 22
0100
0001
0010
0100
1000
0001
0100
0001
,  // measure 23
1000
0100
0001
0100
1000
0001
0010
0100
,  // measure 24
2000
0000
0000
0002
0000
0000
3003
1000
,  // measure 25
0010
0000
0010
1000
0001
0100
0010
0010
,  // measure 26
0010
1000
0100
0010
0001
1000
0010
1000
,  // measure 27
0001
0010
1000
0010
0001
1000
0010
0200
,  // measure 28
0000
0000
0000
0002
0000
0000
0303
1000
,  // measure 29
1010
0000
0001
0101
0000
1100
0000
0000
,  // measure 30
0011
0000
0000
0000
1010
0000
0000
1000
0001
0000
0010
0000
0001
0000
0000
0000
,  // measure 31
0010
0100
1000
0001
0100
0002
0000
1000
,  // measure 32
1003
0100
0010
0001
1000
0001
0000
0100
,  // measure 33
0010
0000
0000
0010
0000
0000
1001
0000
0000
0000
0000
0000
0100
0000
0100
0000
,  // measure 34
0100
0001
0010
0100
1000
0001
0010
0001
,  // measure 35
1000
0100
0001
0101
0000
1001
0000
0000
,  // measure 36
1000
0100
1000
0100
0001
0010
0100
1000
,  // measure 37
1010
0000
0000
1010
0000
0000
1010
0000
1001
0000
0000
0000
0000
0000
0000
0000
,  // measure 38
0110
0110
0110
0110
,  // measure 39
0001
0100
0001
1000
0100
0010
0100
1000
,  // measure 40
0001
0100
0010
1000
0100
0010
0001
1000
,  // measure 41
0001
0010
1000
0010
0001
1000
0100
0010
,  // measure 42
0100
0010
0100
0010
0100
0000
0000
0000
0010
0000
0001
0000
1000
0000
1000
0000
,  // measure 43
1000
0010
1000
0001
0010
0100
0010
0001
,  // measure 44
1000
0010
0100
0001
0010
0100
1000
0001
,  // measure 45
1000
0100
0001
0100
1000
0001
0010
0100
,  // measure 46
0010
0100
0010
0100
0010
0000
0000
0000
0100
0000
1000
0000
0001
0000
0001
0000
,  // measure 47
0001
0010
0001
1000
0100
0001
0100
1000
,  // measure 48
0001
0010
0100
1000
0001
0010
0100
0010
,  // measure 49
0001
0010
1000
0010
0001
1000
0100
0010
,  // measure 50
0001
1000
0001
1000
0001
0000
0000
0000
0100
0000
0010
0000
1000
0000
1000
0000
,  // measure 51
1000
0100
1000
0001
0010
1000
0010
0001
,  // measure 52
1000
0100
0010
0001
1000
0100
0010
0100
,  // measure 53
1000
0100
0001
0100
1000
0001
0010
0100
,  // measure 54
1000
0100
1000
0100
1000
0000
0001
0010
0001
0000
0000
0000
0000
0000
0000
0000
,  // measure 55
1001
0000
0000
0000
1010
0000
0000
0000
0010
1000
0010
0000
0100
0000
0001
0000
,  // measure 56
1001
0000
0000
0000
0101
0000
0000
0000
0100
0001
0100
0000
0010
0000
1000
0000
,  // measure 57
0001
0100
0000
0001
0000
0000
0001
0000
1000
0010
0000
1000
0000
0000
1000
0000
,  // measure 58
0001
0010
0000
0001
0010
0000
0100
1000
0000
0100
1000
0000
0001
0000
0001
0000
,  // measure 59
0001
0100
0000
0001
0000
0010
0000
0001
1000
0000
1000
0000
1000
0000
0001
0000
,  // measure 60
1000
0100
1000
0100
1000
0000
0001
0000
0100
0000
0000
0000
0110
0000
0000
0000
,  // measure 61
0001
0000
0100
0000
0010
0000
1000
0000
0100
0010
0100
0010
0100
0000
1000
0000
,  // measure 62
0001
0000
0010
0000
0001
0000
0010
0000
0001
1000
0000
0100
1000
0100
1000
0000
,  // measure 63
0022
0000
0000
0000
,  // measure 64
0033
0000
0000
1001
;

//---------------dance-single - ----------------
#NOTES:
     dance-single:
     :
     Beginner:
     2:
     0.134,0.215,0.106,0.000,0.000:
0000
0000
0000
0000
,
0000
0000
0000
0010
,
0000
0000
0000
0010
,
0000
0000
0000
0010
,
0000
0000
0000
0110
,
0000
0000
0000
1000
,
0000
0000
0000
0000
,
0000
0000
0000
0001
,
0000
0000
0000
0000
,
0000
0000
0000
1000
,
0000
0000
0000
0000
,
0000
0000
0000
0001
,
0000
0000
0000
1001
,
0010
0000
0010
0000
,
0010
0000
0000
0000
,
0100
0000
0100
0000
,
0100
0000
0000
0000
,
0010
0000
0010
0000
,
0010
0000
0000
0000
,
1000
0000
0001
0000
,
1000
0000
0000
0000
,
1001
0000
0001
0000
,
0001
0000
0000
0000
,
1001
0000
1000
0000
,
1000
0000
0000
0000
,
1001
0000
0001
0000
,
0001
0000
0000
0000
,
1001
0000
1000
0000
,
1000
0000
0000
0000
,
0010
0000
0100
0000
,
0010
0000
0000
0000
,
0100
0000
0010
0000
,
0100
0000
0000
0000
,
0001
0000
1000
0000
,
0001
0000
0000
0000
,
1000
0000
1000
0000
,
1001
0000
0000
0000
,
0001
0000
0000
0000
,
1001
0000
0001
0000
,
0001
0000
0000
0000
,
1000
0000
1000
0000
,
1000
0000
0000
0000
,
0010
0000
0100
0000
,
0010
0000
0000
0000
,
0100
0000
0010
0000
,
0100
0000
0000
0000
,
0001
0000
1000
0000
,
0001
0000
0000
0000
,
1000
0000
0001
0000
,
1000
0000
0000
0000
,
0010
0000
0100
0000
,
0010
0000
0000
0000
,
0100
0000
0010
0000
,
0100
0000
0000
0000
,
1001
0000
0001
0000
,
1001
0000
1000
0000
,
0001
0000
0001
0000
,
1000
0000
0000
0000
,
0010
0000
0110
0000
,
0001
0000
1000
0000
,
0001
0000
0001
0000
,
1000
0000
0000
0000
,
0010
0000
0000
0000
,
0000
0000
0000
0010
;

//---------------dance-double - ----------------
#NOTES:
     dance-double:
     :
     Easy:
     4:
     0.247,0.269,0.048,0.000,0.000:
00000000
00000000
00000000
00000000
,
00000000
00000000
00000000
10000000
,
00100000
00010000
00000000
00010000
,
00100000
10000000
00000000
10000000
,
01000000
00010000
00000000
00011000
,
00000000
00000000
00000000
00001000
,
00000100
00000001
00000000
00001000
,
00000010
00000000
00000000
00000010
00000000
00000000
00001000
00000000
,
00000010
00000001
00000000
00000010
,
00000000
00000010
00000000
00001000
,
00000100
00000001
00000000
00000100
,
00000010
00000000
00000000
00000010
00000000
00000000
00000001
00000000
,
00000010
00001000
00000000
00000000
,
00010000
00010000
00010000
00000000
,
00001000
00001000
00001000
00000000
,
01000000
00000000
00010000
00000000
,
00100000
00000000
10000000
00000000
,
00100000
00000000
00010000
00000000
10000000
10000000
10000000
00000000
,
00010000
00000000
01000000
00000000
,
00100000
00000000
10000000
00000000
,
00010000
00000000
00000000
00000000
,
10000000
01000000
10000000
00000000
,
00100000
01000000
00100000
00000000
,
00010000
00001000
00010000
00000000
,
00000100
00001000
00000100
00000000
,
00000010
00000001
00000010
00000000
,
00000001
00000100
00000001
00000000
,
00000100
00000010
00000100
00000000
,
00011000
00000000
00000000
00011000
00000000
00000000
00000000
00000000
,
00010000
01000000
10000000
00000000
,
10000000
00100000
00010000
00000000
,
00010000
00001000
00010000
00000000
,
00001000
00000000
00010000
00000000
,
00001000
00000010
00000001
00000000
,
00000001
00000010
00001000
00000000
,
00010000
00001000
00000100
00000001
,
00000010
00001000
00010000
00000000
,
00011000
00000000
00000000
00000000
,
00010000
00100000
10000000
00100000
,
10000000
01000000
00010000
00000000
,
00001000
00000010
00000001
00000010
,
00000001
00000100
00001000
00000000
,
00100000
00010000
00100000
00010000
,
01000000
10000000
00010000
00000000
,
00001000
00010000
00001000
00010000
,
00000010
00001000
00000100
00000000
,
00000010
00001000
00000010
00000000
,
00000010
00000001
00000010
00000000
,
00000001
00000100
00000001
00000000
,
00000001
00001000
00000001
00000000
,
00000100
00001000
00010000
00001000
,
00010000
01000000
00010000
00001000
,
00000100
00001000
00010000
00001000
,
00010000
00000000
00100000
00000000
,
01000000
00010000
10000000
00000000
,
01000000
00010000
00001000
00000000
,
00000010
00000000
00000001
00000000
,
00000010
00000000
00001000
00000000
,
00000010
00000000
00000001
00000000
00001000
00001000
00001000
00000000
,
00000001
00000000
00000100
00000000
,
00001000
00010000
00001000
00000000
,
01000000
00000000
00000000
00000000
,
10010000
00000000
00000000
00000000
;

//---------------dance-double - ----------------
#NOTES:
     dance-double:
     :
     Medium:
     6:
     0.357,0.419,0.232,0.058,0.010:
00000000
00000000
00000000
00000000
,
00000000
00000000
00000000
00000001
,
00000010
00001000
00100000
00010000
,
10000000
00100000
00010000
00000010
,
00001000
00000001
00000010
00001000
,
00000000
00000000
00000000
00010000
,
01000000
00100000
00010000
01000000
,
10000000
00000000
00000000
01100000
00000000
00000000
00100000
00000000
,
00010000
00001000
00010000
01000000
,
00010000
00001000
00000010
00001000
,
00000010
00000001
00000100
00001000
,
00010000
00000000
00000000
00011000
00000000
00000000
00010000
00000000
,
00100000
10000000
01000000
00010000
,
00000100
00000110
00000001
00000100
,
00001000
00101000
00010000
01000000
,
10100000
01000000
00110000
01000000
,
00011000
00001001
00000110
00001000
,
00000001
00000000
00000100
00000000
00000010
00000010
00000010
00000000
,
00001000
00000001
00000100
00010000
,
01000000
00100000
10000000
00010000
,
00200000
00000000
00300000
00000000
,
01000000
10000000
01000000
00010000
,
00001000
01000000
00100000
10000000
,
00020000
00000000
00000000
00031000
00000000
00000000
00000001
00000000
,
00002000
00000000
00000000
00013000
00000000
00000000
00100000
00000000
,
01000000
10000000
01000000
00100000
,
00010000
00001000
00010000
00000100
,
00000020
00000000
00000000
00000031
00000000
00000000
00000000
00000000
,
00000101
00000000
00000010
00001000
00000000
00000110
00000000
00000000
,
00000001
00001000
00010000
00000000
,
01000000
00000000
00010000
00100000
00000000
01100000
00000000
00000000
,
10000000
00010000
00001000
00000000
,
00000100
00000000
00000000
00001000
00000000
00000000
00000010
00000000
00000000
00000000
00000000
00000000
00000000
00000000
00000000
00000000
,
00000100
00001000
00010000
00000000
,
00100000
00000000
10000000
00010000
00000000
01100000
00000000
00000000
,
00100000
00010000
00000010
00001000
,
00000100
00000000
00000000
00001000
00000000
00000000
00000001
00000000
00000010
00000000
00000000
00000000
00000000
00000000
00000000
00000000
,
00000200
00010000
00010000
00010300
,
00000110
00000010
00000001
00000100
,
00001000
00010000
01000000
10000000
,
00100000
10000000
01000000
00010000
,
00001000
00000100
00001000
00010000
,
00110000
01000000
00100000
10000000
,
01000000
00010000
00001000
00000010
,
00001000
00010000
00001000
00000100
,
00000010
00010000
00001000
00100000
,
10010000
10000000
00100000
00010000
,
00100000
10000000
01000000
00010000
,
00000010
00001000
00000001
00000010
,
00001000
00000010
00001000
00100000
,
00011000
00010000
01000000
10000000
,
00010000
01000000
00100000
00010000
,
00000010
00001000
00000100
00000001
,
00000100
00001000
00000010
00000100
,
00000011
00001000
00000001
00000100
,
00011000
00000000
00100000
00000000
00001000
01000000
00100000
00000000
,
00010000
10000000
00000000
01000000
00100000
01000000
00000000
00010000
,
00001000
00000001
00000000
00001000
00000110
00000000
00001000
00000000
,
00000101
00000000
00000010
00000000
00001000
00001000
00001000
00000000
,
01010000
00100000
01000000
00010000
,
10100000
01000000
00010000
00001000
,
00000200
00000000
00000300
00000000
,
00001001
00000000
00000000
00000000
;

//---------------dance-double - ----------------
#NOTES:
     dance-double:
     :
     Hard:
     8:
     0.525,0.646,0.222,0.550,0.068:
00000000
00000000
00000000
00000000
,
00000000
00000000
00000000
00000000
00000000
01000000
01000000
00000000
,
10000000
00100000
00010000
00000100
,
00001000
00000010
00000001
00001000
,
00000010
00000100
00010000
00011000
,
00000000
00000000
00000000
00000000
00000000
00000100
00000010
00000000
,
00000001
00001000
00000001
00000010
,
00001100
00000000
00000010
00001001
00000000
00000000
00001000
00000000
,
00010000
00000000
00000000
00000000
01000000
00000000
00000000
00000000
00100000
00000000
00000000
00000000
10000000
00000000
00000000
01000000
,
00000000
00000000
00100000
00000000
00000000
01000000
00000000
00000000
00010000
00000000
00010000
00000000
00010000
00000000
00000000
00000000
,
00001000
00100000
01000000
00010000
,
00011000
00000100
00000000
00000110
00001000
00000000
00000001
00000000
,
00000100
00000010
00001000
00001001
,
01000000
00000000
00100000
00000000
10000000
01000000
10000000
00100000
,
01000000
00000000
00100000
00000000
01000000
00001000
01000000
00010000
,
00100000
00000000
00000000
00001000
00000000
00000000
00010000
00000000
00100000
00000000
00000000
00010000
00000000
00000000
00001000
00000000
,
00000100
00000010
00001000
00000100
,
00000010
00000001
00001000
00000100
00000011
00000101
00000110
00000000
,
00011000
00000100
00000020
00020030
,
00031000
01000000
00010000
00100000
01000000
00010000
00001000
01000000
,
00200000
00000000
00300000
00000000
,
00010000
00001000
00100000
00010000
,
00000010
00001000
00000010
00000000
00000001
00000000
00000100
00000000
,
00002000
01000000
00100000
01000000
,
00023000
00000100
00030020
00001000
,
00000031
00000010
00001000
00000000
00100000
00000000
00010000
00000000
,
10000000
00100000
00010000
00001000
00100000
00000000
01000000
00000000
,
00010000
00000000
00001000
00000010
00000000
00001000
00010000
00001000
,
00000100
00000000
00001000
00010000
00000000
00220000
00000000
00330000
,
10100000
00000000
00000000
00000000
00110000
00000000
00000000
00001000
00010000
00000000
00000000
00000000
00000110
00000000
00000000
00000000
,
00000101
00000000
00000001
00000100
00001000
00000000
00000100
00010000
,
00001000
01000000
10000000
01000000
00010000
00000000
00100000
01000000
,
00010000
00000000
00000000
00001000
00000000
00000000
00001000
00000000
00000000
00000000
00000000
00000000
00000000
00000000
00000000
00000000
,
00000010
00000001
00001000
00000100
00000010
00000000
00001000
00010000
,
00001000
01000000
00100000
00010000
00000000
10010000
00000000
00000000
,
10000000
01000000
00010000
10000000
01000000
00010000
00001000
00000100
,
00000010
00000000
00000000
00001000
00000000
00000000
00000001
00000000
00002000
00000000
00000000
00000000
00003000
00000000
00000000
00000000
,
00002002
00000000
00000000
00003003
,
00000002
00000023
00000230
00000302
,
00000203
00020300
00032000
02003000
,
03200000
00320000
00032000
00203000
,
20300000
00000000
30200000
00000000
00320000
00000000
01030000
00100000
,
20100000
01000000
00010000
30100000
,
00020000
00000100
00000010
00031000
,
00000200
00010000
00001000
00000310
,
00000002
00001000
00000100
00000013
,
00001000
00010000
00001000
00000100
00020000
00100000
00130000
00000000
,
01000000
00001000
00010000
00010000
00000020
00000100
00000130
00000000
,
00001000
00000001
00000100
00001000
00020000
00000010
00030010
00000000
,
00010000
00001000
00100000
00100000
02000000
00010000
03010000
00000000
,
20000000
30020000
00030020
00002030
,
00203000
00320000
00032000
00003002
,
00000023
00020030
00230000
20300000
,
31000000
00000000
00000000
00010000
00000000
00000000
01000000
00000000
20020000
00000000
00000000
00000000
30030000
00000000
00000000
00000000
,
00020000
00000000
00030020
00000000
00001030
00000100
00000001
00000100
,
00020000
00000000
00030020
00000000
00000130
00000001
00000010
00001000
,
00010000
00000000
00000000
01000000
00000000
00000000
10000000
00000000
01000000
00000000
00000000
00010000
00000000
00000000
00001000
00000000
,
00000010
00000000
00000000
00000001
00000000
00000000
00000100
00000000
00000000
00001000
00000000
00000000
00000010
00000000
00000001
00000000
,
00000100
00001000
00000000
00010000
00100000
00000000
10000000
00000000
01100000
00000000
10100000
00000000
01010000
00000000
00100000
00000000
,
10000000
01000000
00010000
00001000
00000020
00000000
00000230
00000000
,
00000301
00000100
00010000
00001000
00000100
00000010
00000100
00001000
,
00020000
00000000
00032000
00000000
,
00020000
00000000
00000000
00000000
,
00000000
00000000
00033000
00011000
;
