#TITLE:LUV TO ME;
#SUBTITLE:(FROM NONSTOP MEGAMIX);
#ARTIST:Remixed by MST;
#TITLETRANSLIT:;
#SUBTITLETRANSLIT:;
#ARTISTTRANSLIT:;
#CREDIT:DMAxel (Singles), silenttype (Doubles);
#BANNER:LUV TO ME (FROM NONSTOP MEGAMIX).png;
#BACKGROUND:LUV TO ME (FROM NONSTOP MEGAMIX)-bg.png;
#LYRICSPATH:LUV TO ME (FROM NONSTOP MEGAMIX).lrc;
#CDTITLE:Konami original REMIX.png;
#MUSIC:LUV TO ME (FROM NONSTOP MEGAMIX).mp3;
#OFFSET:-4.820;
#SAMPLESTART:57.588;
#SAMPLELENGTH:12.000;
#SELECTABLE:YES;
#BPMS:0.000=154.050,272.000=167.190;
#DISPLAYBPM:154;
#STOPS:;
#BGCHANGES:;

//---------------dance-double - ----------------
#NOTES:
     dance-double:
     :
     Easy:
     4:
     0.289,0.273,0.018,0.000,0.000: // measure 1
00000000
00000000
00000000
00000000
,  // measure 2
00000000
00000000
00000000
00000000
,  // measure 3
00000000
00000000
00000000
00000000
,  // measure 4
00000000
00000000
00000000
00000000
,  // measure 5
10000000
10000000
10000000
10000000
,  // measure 6
01000000
01000000
01000000
01000000
,  // measure 7
00010000
00010000
00010000
00010000
,  // measure 8
00001000
00001000
00001000
00001000
,  // measure 9
00000000
00010000
00000000
00001000
,  // measure 10
00000000
00100000
00000000
00001000
,  // measure 11
00000000
00010000
00000000
00000010
,  // measure 12
00000000
00010000
00000000
00001000
,  // measure 13
00000100
00000100
00000001
00000001
,  // measure 14
00001000
00001000
00000100
00000100
,  // measure 15
00000010
00000010
00000001
00000001
,  // measure 16
00001000
00001000
00000100
00000100
,  // measure 17
00010000
00010000
00010000
00000000
,  // measure 18
00001000
00000100
00000001
00001000
,  // measure 19
00000100
00010000
01000000
00100000
,  // measure 20
00000000
00000000
00010000
00000000
00000000
10000000
00000000
00000000
,  // measure 21
00010000
00000000
00000000
00000100
00000000
00000000
00000010
00000000
,  // measure 22
00010000
00001000
00100000
10000000
,  // measure 23
01000000
00001000
00010000
00001000
,  // measure 24
00000000
00000000
00000001
00000000
00000000
00001000
00000000
00000000
,  // measure 25
01000000
00000000
00000000
00100000
00000000
00000000
10000000
00000000
,  // measure 26
01000000
00100000
00010000
00000100
,  // measure 27
00001000
00010000
00100000
00010000
,  // measure 28
10000000
00000000
01000000
00000000
,  // measure 29
00001000
00000000
00100000
00000000
,  // measure 30
00000100
00001000
00000010
00000100
,  // measure 31
00010000
00001000
00100000
00010000
,  // measure 32
01000000
00000000
00010000
00000000
,  // measure 33
00001000
00000000
00000010
00000000
,  // measure 34
00001001
00001000
00010000
00000000
,  // measure 35
00100000
00010000
01000000
10000000
,  // measure 36
01000000
00010000
00100000
01000000
,  // measure 37
00010000
00001000
00000001
00001000
,  // measure 38
00000100
00000010
00000001
00001000
,  // measure 39
00000001
00000100
00001000
00000100
,  // measure 40
00000001
00000010
00000001
00000100
,  // measure 41
00010000
00001000
00100000
00010000
,  // measure 42
01000000
10000000
01000000
00010000
,  // measure 43
01000000
00010000
00001000
00010000
,  // measure 44
00001000
00000100
00000001
00000100
,  // measure 45
00001000
00000100
00000010
00001000
,  // measure 46
00000001
00001000
00010000
10000000
,  // measure 47
01000000
00100000
00010000
00001000
,  // measure 48
00010000
00100000
00001000
00000100
,  // measure 49
00010000
00001000
00000010
00001000
,  // measure 50
00100000
00010000
01000000
00010000
,  // measure 51
00100000
00100000
10000000
10000000
,  // measure 52
01000000
01000000
00010000
00010000
,  // measure 53
00000010
00000000
00000010
00000000
,  // measure 54
00001000
00001000
00001000
00000000
,  // measure 55
00010000
10000000
00100000
00000000
,  // measure 56
01000000
00000000
00010000
00000000
,  // measure 57
10000000
00100000
00010000
00000010
,  // measure 58
00010000
00000100
00000010
00000000
,  // measure 59
00011000
00010000
10000000
00000000
,  // measure 60
00100000
00100000
00010000
00010000
,  // measure 61
00000010
00000010
00001000
00001000
,  // measure 62
00010000
00010000
00001000
00000100
,  // measure 63
00000001
00001000
00010000
10000000
,  // measure 64
01000000
01000000
00010000
00010000
,  // measure 65
00000100
00000100
00001000
00001000
,  // measure 66
00100000
00010000
00001000
00000100
,  // measure 67
00000010
00001000
00010000
01000000
,  // measure 68
00100000
00000000
00000000
00000000
00000000
00100000
00000000
00100000
,  // measure 69
00010000
00000000
00000000
00000000
;

//---------------dance-double - ----------------
#NOTES:
     dance-double:
     :
     Medium:
     6:
     0.347,0.395,0.063,0.125,0.000: // measure 1
00000000
00000000
00000000
00000000
,  // measure 2
00000000
00000000
00000000
00000000
,  // measure 3
00000000
00000000
00000000
00000000
,  // measure 4
00000000
00000000
00000000
00000000
,  // measure 5
00000000
00000000
00000000
00000000
,  // measure 6
00000000
00000000
00000000
00000000
,  // measure 7
00000000
00000000
00000000
00000000
,  // measure 8
00000000
00000000
00000000
00000000
,  // measure 9
00000100
00001100
00000000
00000010
,  // measure 10
00000101
00000010
00000000
00010000
,  // measure 11
00011000
00010000
00000000
00100000
,  // measure 12
11000000
00000000
00100000
00000000
00010000
00000000
10000000
10000000
,  // measure 13
10000000
01000000
00010000
00001000
,  // measure 14
00000100
00000000
00000001
00000000
00000100
00000000
00001000
00001000
,  // measure 15
00001000
00010000
01000000
10000000
,  // measure 16
00100000
00010000
00001000
00000010
,  // measure 17
00000011
00000000
00001001
00000000
00000010
00000010
00000010
00000010
,  // measure 18
00000010
00000001
00000100
00001000
,  // measure 19
00010000
00001000
00010000
01000000
,  // measure 20
10000000
00000000
00010000
00000000
00000000
01000000
00000000
00000000
,  // measure 21
00100000
00000000
00000000
10000000
00000000
00000000
01000000
01000000
,  // measure 22
01000000
10000000
00100000
00010000
,  // measure 23
00001000
00010000
00001000
00000010
,  // measure 24
00000001
00000000
00000100
00000000
00000000
00000010
00000000
00000000
,  // measure 25
00001000
00000000
00001000
00000000
00001000
00001000
00001000
00001000
,  // measure 26
00001000
00000100
00000010
00000100
,  // measure 27
00001000
00000002
00000023
00002030
,  // measure 28
00023000
00030000
02000000
03000000
,  // measure 29
20000000
30000000
00200000
00300000
,  // measure 30
00010000
01000000
00100000
01000000
,  // measure 31
10000000
00200000
00320000
00032000
,  // measure 32
00003200
00000300
00000002
00000003
,  // measure 33
00002000
00003000
00000000
00000000
,  // measure 34
00000001
00000100
00001000
00000100
00000001
00000000
00000010
00000010
,  // measure 35
00000010
00000001
00000100
00001000
,  // measure 36
00010000
00000000
01000000
00000000
00100000
00000000
00001000
01000000
,  // measure 37
00010000
00000100
00000010
00001000
,  // measure 38
00000100
00000000
00000010
00000000
00010000
00000000
00001000
00100000
,  // measure 39
01000000
00100000
10000000
01000000
,  // measure 40
00010000
00000000
00001000
00000000
01000000
00000000
00010000
01000000
,  // measure 41
00100000
10000000
00100000
00010000
,  // measure 42
01000000
10000000
01000000
00010000
,  // measure 43
01000000
10000000
00100000
00010000
,  // measure 44
00001000
00000000
00000010
00000000
00000100
00000000
00010000
00000010
,  // measure 45
00001000
00100000
01000000
00010000
,  // measure 46
00100000
00000000
01000000
00000000
00001000
00000000
00010000
00000100
,  // measure 47
00000010
00000100
00000001
00000010
,  // measure 48
00001000
00000000
00010000
00000000
00000010
00000000
00001000
00000010
,  // measure 49
00000100
00000001
00000100
00001000
,  // measure 50
00000010
00000001
00000010
00001000
,  // measure 51
00000100
00000001
00000010
00000100
,  // measure 52
00010000
00001000
00000000
00000110
00000000
00001000
00010000
00000000
,  // measure 53
01000000
10000000
00000000
00000000
01000000
00010000
00000000
00000000
,  // measure 54
00001000
00000000
00010000
00000000
00001000
00000000
00000100
00000100
,  // measure 55
00000100
00000010
00010000
00001000
,  // measure 56
00000100
00000000
00010000
00000000
00001000
00000000
00100000
00100000
,  // measure 57
00010000
01000000
00001000
00010000
,  // measure 58
01000000
00100000
20000000
00000000
,  // measure 59
30010000
01000000
10000000
01000000
00010000
00000000
00100000
00100000
,  // measure 60
00100000
01000000
00010000
00001000
,  // measure 61
00000100
00000000
00001000
00000000
00010000
00000000
00000010
00010000
,  // measure 62
00010000
00001000
00100000
00001000
,  // measure 63
00010000
00000000
00100000
00000000
10000000
00000000
01000000
00100000
,  // measure 64
00010000
00001000
00010000
01000000
,  // measure 65
00100000
00000000
00010000
00000000
00000100
00000000
00001000
00000010
,  // measure 66
00000010
00000100
00001000
00000001
,  // measure 67
00000100
00000000
00001000
00000000
00100000
00000000
01000000
00100000
,  // measure 68
00100000
00010000
00001000
00000100
,  // measure 69
00000001
00000000
00000000
00000000
;

//---------------dance-double - ----------------
#NOTES:
     dance-double:
     :
     Hard:
     9:
     0.615,0.637,0.116,0.071,0.255: // measure 1
00000000
00000000
00000000
00000000
,  // measure 2
00000000
00000000
00000000
00000000
,  // measure 3
00000000
00000000
00000000
00000000
,  // measure 4
00000000
00000000
00000000
00000000
,  // measure 5
00000000
00010000
01000000
00100000
00010000
01000000
00100000
00010000
,  // measure 6
00000000
00001000
00000000
00010000
00000000
00001000
00000000
00010000
,  // measure 7
00000000
00001000
00000010
00000100
00001000
00000010
00000100
00001000
,  // measure 8
00010000
00000000
00100000
00000000
10000000
10000000
01000000
01000000
,  // measure 9
10000000
00000000
00000000
00000000
00100000
00000000
00000000
00000000
00010000
00000010
00010000
00000000
00001000
00000000
00010000
00000000
,  // measure 10
01000000
00000000
00000000
00000000
00100000
00000000
00000000
00000000
00001000
00100000
00001000
00000000
00010000
00000000
01000000
00000000
,  // measure 11
00100000
00010000
00001000
00000100
,  // measure 12
00001000
00000000
00000001
00000000
00000100
00000000
00000010
00000010
,  // measure 13
00000010
00000000
00000000
00000010
00001000
00000000
00000000
00001000
00000100
00000000
00000000
00000100
00000001
00000000
00000000
00000001
,  // measure 14
00000100
00000000
00000000
00000100
00010000
00000000
00000000
00010000
00001000
00000000
00000000
00001000
00000100
00000000
00000000
00000000
,  // measure 15
00001000
00000001
00001000
00000001
00000010
00000100
00000010
00000100
,  // measure 16
00010000
00100000
00000000
00010000
00000000
00100000
00000000
10000000
,  // measure 17
01000000
01000000
00010000
00010000
01000000
00000000
10000000
10000000
,  // measure 18
10000000
01000000
00010000
10000000
,  // measure 19
01000000
00100000
00010000
01000000
,  // measure 20
10000000
01000000
01000000
00001000
00010000
00010000
00000100
00000010
,  // measure 21
00000010
00000001
00001000
00000010
00000000
00000100
00000010
00000010
,  // measure 22
00000010
00001000
00000001
00000100
,  // measure 23
00000010
00000100
00000001
00001000
,  // measure 24
00010000
01000000
01000000
00100000
10000000
10000000
01000000
00100000
,  // measure 25
01100000
00000000
00000000
00000000
00101000
00000000
00000000
00000000
00010000
00100000
00010000
00100000
00010000
00100000
00010000
00100000
,  // measure 26
00010000
00000000
00100000
01000000
00000000
00000000
00010000
00001000
00000000
00000000
01000000
00100000
00000000
00000000
00010000
00001000
,  // measure 27
00000000
00000000
00000010
00000100
00000000
00000000
00010000
00001000
00000000
00000000
00000100
00000010
00000000
00000000
00001000
00000000
,  // measure 28
00000100
00000001
00000000
00000001
00000100
00001000
00000000
00000001
,  // measure 29
00000100
00000000
00001000
00000000
00000000
00000000
00010000
00000000
01000000
00000000
00100000
01000000
00100000
00000000
00010000
00000000
,  // measure 30
10000000
00000000
00100000
00010000
00000000
00000000
00001000
00000100
00000000
00000000
00000001
00000010
00000000
00000000
00001000
00010000
,  // measure 31
00000000
00000000
01000000
10000000
00000000
00000000
00100000
00010000
00000000
00000000
00001000
00000100
00000000
00000000
00000001
00000000
,  // measure 32
00000100
00000010
00000000
00001000
00000100
00000010
00000000
00001000
,  // measure 33
00010000
00000010
00000000
00010100
00000000
00011000
00000000
00001100
,  // measure 34
00000100
00001000
00000100
00001000
00000100
00001000
00000100
00001000
00000100
00000000
00000000
00000000
00000001
00000000
00000001
00000000
,  // measure 35
00000001
00000100
00000001
00001000
00000100
00001000
00000010
00010000
,  // measure 36
00000010
00001000
00000100
00000001
00001000
00000001
00000100
00000010
,  // measure 37
00000100
00001000
00000010
00001000
00000100
00010000
00001000
01000000
,  // measure 38
00100000
00010000
00001000
00010000
01000000
00100000
00010000
10000000
,  // measure 39
00010000
01000000
10000000
00010000
10000000
01000000
00100000
10000000
,  // measure 40
01000000
00010000
01000000
00100000
00001000
00010000
01000000
00010000
,  // measure 41
01000000
10000000
00100000
00010000
00001000
00010000
00100000
10000000
,  // measure 42
10100000
00000000
11000000
00000000
01010000
01000000
11000000
01000000
,  // measure 43
10000000
00100000
10000000
00010000
00100000
00010000
01000000
00001000
,  // measure 44
01000000
00010000
00100000
10000000
00010000
10000000
00100000
00001000
,  // measure 45
00100000
00010000
01000000
00010000
00100000
00001000
00010000
00000010
,  // measure 46
00000100
00001000
00010000
00001000
00000010
00000100
00001000
00000100
,  // measure 47
00001000
00000010
00000001
00001000
00000001
00000010
00000100
00000001
,  // measure 48
00000010
00001000
00000010
00000100
00010000
00001000
00000010
00001000
,  // measure 49
00000010
00000001
00000100
00001000
00010000
00001000
00000100
00000001
,  // measure 50
00001000
00000000
00000000
00000000
00000100
00000000
00000000
00000000
00000010
00000001
00000010
00000001
00000010
00000001
00000010
00000001
,  // measure 51
00000010
00000000
00000000
00000000
00001001
00000000
00000000
00000000
00000100
00000001
00000100
00000001
00000100
00000000
00000010
00000000
,  // measure 52
00001000
00000000
00000000
00000000
00010100
00000000
00000000
00000000
00010000
00001000
00010000
00001000
00010000
00000000
00001000
00000000
,  // measure 53
00100000
00010000
00000000
01000000
00000000
00000000
00010000
00000000
00100000
00010000
00000000
01000000
00000000
00000000
00100000
00000000
,  // measure 54
10000000
00000000
00000000
01000000
00000000
00000000
00100000
00000000
00000000
00010000
00000000
00010000
01000000
00000000
00100000
00000000
,  // measure 55
00010000
00001000
00000000
00001000
00000100
00000010
00000000
00000010
00001000
00000000
00002000
00000000
00000000
00000000
00003002
00000000
,  // measure 56
00000000
00000000
00000000
00000023
00000000
00000000
00002030
00000000
,  // measure 57
00013000
00000000
01000000
00000000
10000000
00000000
01000000
00000000
00100000
00010000
00100000
00001000
00010000
00000000
01000000
00000000
,  // measure 58
00100000
00020000
00000000
20030000
00000000
00000000
32000000
00000000
,  // measure 59
13000000
01000000
10000000
01000000
10000000
01000000
10000000
01000000
10000000
00000000
00100000
00000000
00100000
00000000
00100000
00000000
,  // measure 60
00100000
10000000
00010000
01000000
00100000
10000000
01000000
00010000
,  // measure 61
00001000
00000100
00000010
00001000
00000100
00000001
00000100
00001000
,  // measure 62
00000010
00000100
00001000
01000000
00010000
00100000
01000000
00010000
,  // measure 63
00001000
00100000
01000000
00010000
00001000
00000100
00000010
00000001
,  // measure 64
00000010
00001000
00000100
00010000
01000000
00100000
00010000
00001000
,  // measure 65
00000100
00001000
00000001
00000100
00001000
00100000
00010000
01000000
,  // measure 66
00001000
00010000
00100000
10000000
01000000
00010000
00001000
01000000
,  // measure 67
00100000
00010000
00000100
00010000
00001000
00000020
00000000
00000000
,  // measure 68
00000031
00000001
00000000
00000000
00000000
00001100
00000000
00110000
;

//---------------dance-single - ----------------
#NOTES:
     dance-single:
     :
     Easy:
     5:
     0.361,0.429,0.241,0.116,0.000:
1000
0100
0010
0001
,
1000
0100
2000
0000
,
3001
0010
0100
1000
,
0001
0010
0002
0000
,
1003
0100
0010
0001
,
1000
0100
2000
0000
,
3001
0010
0100
1000
,
0001
0100
0001
0100
,
0020
0000
0000
0000
,
0230
0000
0000
0000
,
0320
0000
0000
0000
,
2030
0000
0000
0000
,
3001
1000
0001
1000
,
0001
0010
0100
1000
,
0001
1000
0001
1000
,
0100
0010
0001
1000
,
1001
0000
0000
0000
,
0001
0100
0001
0010
,
0001
0100
0001
0010
,
0001
0010
0100
1000
,
0001
0010
0100
1000
,
0010
1000
0100
1000
,
0010
1000
0100
1000
,
0010
0100
0001
1000
,
1001
1001
1001
1001
,
0100
0010
0100
0001
,
0100
0010
0100
0001
,
1000
0001
0010
0001
,
1000
0001
0010
0100
,
1000
0001
1000
0010
,
1000
0001
1000
0010
,
0100
0010
0100
0010
,
1000
0100
0010
0001
,
1001
1001
1001
1001
,
0010
0100
0010
1000
,
0010
0100
0010
1000
,
0100
0010
0001
1000
,
0100
0010
0001
1000
,
0010
0100
0010
1000
,
0010
0100
0010
1000
,
0100
0010
0001
0010
,
1001
1001
1001
1001
,
0100
0010
0100
0001
,
0100
0010
0100
0001
,
0010
0100
1000
0010
,
0100
0010
1000
0010
,
1000
0100
0010
0001
,
0100
0010
0100
0001
,
0100
0010
0100
0010
,
1001
1001
1001
1001
,
0020
0000
0000
0000
,
0032
0000
0000
0000
,
1003
1000
1000
0000
,
0010
0000
0100
0000
,
0001
0001
0010
0100
,
1000
0001
1000
0010
,
0100
0010
1000
0010
,
1000
0100
0010
0001
,
1001
1001
1001
1001
,
0010
0100
0010
1000
,
0010
0100
0010
1000
,
0001
1000
0010
1000
,
0001
1000
0001
0010
,
0001
1000
0001
0010
,
0001
1000
0001
0010
,
0001
0100
0010
0100
,
1001
1001
1001
1001
,
2002
0000
0000
3003
,
0220
0000
0330
0000
;

//---------------dance-single - ----------------
#NOTES:
     dance-single:
     :
     Medium:
     6:
     0.475,0.459,0.295,0.054,0.000:
0001
0010
1000
0100
,
0001
0000
0010
0100
0000
1000
0001
0000
,
1000
0100
0001
0010
,
1000
0000
0100
0010
0000
0001
1000
0000
,
0001
0100
1000
0010
,
0001
0000
0010
0100
0000
1000
0001
0000
,
1000
0010
0001
0100
,
1010
0000
1010
0000
0010
0001
0010
0001
,
0020
0000
0000
0000
,
0032
0000
0000
0000
,
0023
0000
0000
0000
,
0230
0000
0000
0000
,
1300
0010
1000
0010
1000
0000
0010
0000
,
1000
0010
0100
0000
0001
0100
0010
0000
,
0100
0001
0100
0001
0100
0000
0001
0000
,
0100
0010
0000
1000
0000
0000
0001
0000
,
1001
1001
1001
1001
,
1000
0010
1000
0000
1000
0010
1000
0000
,
1000
0001
1000
0000
1000
0001
1000
0000
,
1000
0001
0100
0000
0001
0010
0000
0010
,
0001
0000
0100
0001
0000
1000
0001
0000
,
0001
0100
0001
0000
0001
0100
0001
0000
,
0001
1000
0001
0000
0001
1000
0001
0000
,
0001
1000
0010
0000
1000
0100
0000
0100
,
1000
1001
1001
1001
,
0100
1000
0100
0001
,
0010
0000
1000
0000
0100
0000
0010
0001
,
0010
0001
0010
1000
,
0100
0000
0001
0000
0010
0000
0100
1000
,
0100
1000
0001
0100
,
0001
0010
0001
0100
0001
0100
0001
0000
,
0001
0000
1000
0000
0010
0000
1000
0100
,
1000
0010
1000
0010
1000
0000
1000
0000
,
1001
0000
1001
0000
0001
1000
0001
1000
,
0001
0000
0100
0001
0010
0000
0001
0000
,
0010
1000
0100
0001
,
0100
0010
1000
0010
1000
0000
0001
0000
,
1000
0100
0001
0010
,
1000
0010
1000
0010
0100
0000
0001
0000
,
0010
1000
0100
0001
,
0011
1000
1100
0001
,
1001
0000
1001
0000
1000
0001
1000
0001
,
1000
0000
0100
0000
0001
0010
0100
0000
,
1000
0000
0100
0000
0001
0010
0100
0000
,
1000
0000
0001
0000
1000
0100
0010
0000
,
0001
0000
1000
0000
0100
0010
0001
0000
,
0100
0001
0100
0001
1000
0000
0010
0000
,
0100
0010
1000
0010
1000
0000
0001
0000
,
0011
1000
1100
1000
,
1001
0000
1001
0000
0001
1000
0001
1000
,
0001
0000
0101
0000
0001
0100
1000
0000
,
1000
0000
1010
0000
1000
0010
0001
0000
,
0001
1000
0001
0000
0001
1000
0001
0000
,
0100
0001
0010
0100
,
1000
0001
1000
0000
1000
0001
1000
0000
,
0010
1000
0010
0000
0100
0001
0100
0000
,
0001
1000
0001
1000
0001
0100
0000
0001
,
1000
1010
0001
0101
,
1001
0000
1001
0000
1000
0001
1000
0001
,
1000
0000
0010
0000
1000
0010
0001
0000
,
1001
0000
0100
0000
0001
0100
1000
0000
,
0010
0100
0010
1000
0010
0000
1000
0000
,
0100
0001
0010
1000
,
0010
0100
0001
0100
0001
0000
0100
0000
,
0010
0100
0010
1000
0010
0000
1000
0000
,
1010
0001
0101
0001
,
1001
1001
1001
1001
,
0001
0100
0000
0000
0000
0010
0000
1000
,
2002
0000
3003
0000
;

//---------------dance-single - ----------------
#NOTES:
     dance-single:
     :
     Beginner:
     2:
     0.093,0.182,0.080,0.000,0.000:
1000
0000
0000
0000
,
0000
0000
0000
0000
,
0001
0000
0000
0000
,
0000
0000
0000
0000
,
1000
0000
0000
0000
,
0000
0000
0000
0000
,
0001
0000
0000
0000
,
1000
0000
0000
0000
,
1000
0000
0000
0000
,
0000
0000
0000
0000
,
0001
0000
0000
0000
,
0000
0000
0000
0000
,
0001
0000
0000
0000
,
0000
0000
0000
0000
,
0100
0000
0000
0000
,
0100
0000
0000
0000
,
0110
0000
0000
0000
,
0001
0000
0000
0000
,
0001
0000
0000
0000
,
1000
0000
0000
0000
,
1000
0000
0000
0000
,
1000
0000
0000
0000
,
0001
0000
0000
0000
,
1000
0000
0000
0000
,
1000
0000
0000
0000
,
1001
0000
0000
0000
,
0001
0000
0000
0000
,
0100
0000
0000
0000
,
0001
0000
0000
0000
,
1000
0000
0000
0000
,
0010
0000
0000
0000
,
1000
0000
0000
0000
,
0001
0000
0000
0000
,
1001
0000
0000
0000
,
1000
0000
0000
0000
,
0100
0000
0000
0000
,
1000
0000
0000
0000
,
0001
0000
0000
0000
,
0010
0000
0000
0000
,
0001
0000
0000
0000
,
1000
0000
0000
0000
,
0001
0000
0000
0000
,
1001
0000
0000
0000
,
0001
0000
0000
0000
,
0010
0000
0000
0000
,
0001
0000
0000
0000
,
1000
0000
0000
0000
,
0010
0000
0000
0000
,
1000
0000
0000
0000
,
1001
0000
0000
0000
,
1000
0000
0000
0000
,
0100
0000
0000
0000
,
0010
0000
0000
0000
,
0001
0000
0000
0000
,
0010
0000
0000
0000
,
0100
0000
0000
0000
,
1000
0000
0000
0000
,
0001
0000
0000
0000
,
1001
0000
0000
0000
,
0001
0000
0000
0000
,
1000
0000
0000
0000
,
0100
0000
0000
0000
,
1000
0000
0000
0000
,
0001
0000
0000
0000
,
0010
0000
0000
0000
,
0001
0000
0001
0000
,
1001
0000
0000
0000
,
0110
0000
0000
0000
,
1001
0000
0000
0000
;

//---------------dance-single - ----------------
#NOTES:
     dance-single:
     :
     Hard:
     8:
     0.626,0.582,0.322,0.018,0.179:
1000
0001
0010
0001
0100
0010
1000
0100
,
0000
1000
0100
0001
0000
1000
1001
0000
,
0001
1000
0100
1000
0010
0100
0001
0010
,
0000
0001
0010
1000
0000
0001
1001
0000
,
1000
0001
0100
0010
0100
0010
1000
0100
,
0000
1000
0100
0001
0000
1000
1001
0000
,
1000
0001
0100
0010
1000
0010
1000
0100
,
1001
0000
1001
0000
1000
1000
1000
1000
,
0001
0001
0001
0010
,
0100
0100
0100
1000
,
0010
0010
0100
0100
,
0001
0001
1000
1000
,
0010
0100
0010
0100
0001
1000
0000
1000
,
0001
0010
0001
0000
1000
0010
1000
0000
,
0001
0010
0001
0100
0010
1000
0100
0010
,
0001
0100
0000
1001
0000
0000
1000
0000
,
1001
0000
1001
0000
0001
0001
0001
0001
,
1000
0010
0100
0000
0001
0000
1000
0000
,
0001
0010
0100
1000
0000
1000
0100
1000
,
0100
0010
0010
0001
0100
0100
0010
1000
,
1000
0001
0001
1000
0100
0010
0001
0000
,
1000
0010
0100
0000
1001
0000
0001
0000
,
1000
0100
0010
0001
0000
0001
0010
0001
,
0010
0100
0100
1000
0010
0010
0100
0001
,
0101
0101
1010
1001
,
0001
0000
0000
0010
0001
0000
0000
1000
0100
0000
0000
0100
0010
0000
0000
0010
,
0001
0000
0000
1000
0100
0000
0000
0100
0010
0000
0000
0010
0001
0000
1000
0000
,
0001
0000
0000
1000
0010
0000
0000
0100
0001
0000
0000
0100
0010
0000
0000
1000
,
0010
0000
0000
0100
0010
0000
0000
0100
0001
0000
1000
0000
0001
0000
0000
1000
,
0100
0000
0000
0010
0001
0000
0000
1000
0010
0000
0000
0100
0001
0000
0000
1000
,
0100
0000
0000
0010
0001
0000
0000
1000
0010
0000
0000
0100
0001
0000
1000
0000
,
0001
0000
0000
0001
0010
0000
0000
0100
1000
0000
0000
0001
0100
0000
0000
0010
,
1000
0000
0000
0001
0010
0000
0000
0100
1000
0000
0000
0010
0100
0000
0001
0000
,
0101
0000
1001
0000
0001
0001
0001
0001
,
0100
0000
0100
0010
0100
0001
0000
0010
,
0100
1000
0100
1000
0010
0100
0010
0000
,
0010
0100
0010
1000
0000
0100
0010
0001
,
0010
0001
0100
0010
0100
0001
1000
0100
,
1000
0001
0010
0100
1000
0010
0000
0010
,
0100
0010
1000
0100
0010
0001
0100
0100
,
0101
0100
1010
0010
,
1001
0000
1001
0000
1000
1000
1000
1000
,
0010
0000
0010
0100
0010
1000
0000
0100
,
0010
0001
1000
0001
0100
0010
0100
0000
,
0100
0010
0100
0001
0000
0010
0100
1000
,
0001
1000
0010
0100
0010
1000
0001
0000
,
0100
0010
0100
0001
1000
0010
0000
0010
,
0100
0010
1000
0010
0100
0001
0010
0010
,
0011
0010
1100
0100
,
1001
0000
1001
0000
0001
0001
0001
0001
,
0100
0000
0010
0000
0100
0000
0000
0000
0001
0100
0001
0100
0001
0000
1000
0000
,
0010
0000
0100
0000
0010
0000
0000
0000
1000
0010
1000
0010
1000
0000
0001
0000
,
0100
0000
0000
0010
0000
0000
1000
0000
0001
0000
0000
0100
0000
0000
0001
0000
,
1000
0100
0000
0010
0001
0000
0100
0010
0000
1000
0100
0000
0010
0000
0001
0000
,
0100
0001
0100
1000
0001
1000
0001
0100
,
0010
0100
0010
0100
0010
0000
1000
0000
0001
0000
0010
0000
0001
0000
0000
0000
,
1000
0001
0100
0010
1000
0100
1000
0000
,
1100
1100
0011
0011
,
1001
0000
1001
0000
1000
1000
1000
1000
,
0010
0000
0010
0100
0010
1000
0000
0010
,
0100
0001
1000
0001
0100
0010
0100
0000
,
0100
0010
0100
0001
0100
0001
0000
0100
,
0010
1000
0001
1000
0010
0100
0010
0010
,
1000
0100
0010
0001
0100
0001
0000
0010
,
0100
1000
0010
0100
0010
1000
0010
0010
,
1010
0010
0011
0010
,
1001
0000
1001
0000
1000
1000
0010
0010
,
1000
0010
0000
0000
0000
0101
0000
0110
,
2002
0000
3003
0000
;

//---------------dance-single - ----------------
#NOTES:
     dance-single:
     :
     Challenge:
     9:
     0.760,0.765,0.465,0.018,0.389:
0001
0010
0001
0100
0010
1000
0100
0010
,
0000
0001
0010
1000
0100
0010
1001
0000
,
1000
0100
1000
0010
0100
0001
0010
0100
,
0000
1000
0100
0001
0010
0100
1001
0000
,
0001
0100
0010
0100
0010
1000
0100
0010
,
0000
0001
0010
1000
0010
0100
1001
0000
,
1000
0010
1000
0010
0100
0001
1000
1000
,
1001
0000
1001
0000
1001
1001
1010
1010
,
1001
0000
0000
0000
1000
0000
0000
0000
1000
0010
1000
0010
1000
0000
0001
0000
,
0100
0000
0001
0000
0100
0000
0000
0000
0001
0100
0001
0100
0001
0000
1000
0000
,
0010
0100
0000
0010
0000
0000
1000
0000
0010
0100
0000
0010
0000
0000
1000
0000
,
0001
0010
0000
0100
1000
0000
0010
0100
0000
0001
1000
0000
0001
0000
0001
0000
,
1000
0010
0000
1000
0010
0000
0100
0000
0010
0000
1000
0000
0000
0000
1000
0000
,
0001
0100
0001
0100
0001
0000
1000
0000
0010
0100
0010
0000
1000
0000
0001
0000
,
1000
0000
0100
0000
1000
0000
0010
0000
0100
0001
0100
0001
0100
0000
0001
0000
,
1000
0000
0010
1000
0000
0000
1000
0000
0100
0000
1000
0000
0001
0000
0000
0000
,
1000
0001
1000
0001
1000
0001
1000
0001
1000
0000
1001
0000
1010
0000
1010
0000
,
1001
0001
0010
0100
1000
0010
1000
0001
,
0010
0100
1000
0010
0100
0010
1000
0100
,
0010
0001
0001
0010
0100
0100
1000
0010
,
0010
0100
0100
0001
1000
1000
0100
0000
,
1000
0100
0010
0001
0100
0001
1000
0100
,
0010
0001
0100
0010
0000
1000
0100
0010
,
0001
0010
0010
0100
1000
1000
0010
0100
,
0101
0000
0000
0000
1001
0000
0000
0000
0001
1000
0001
1000
0001
1000
0001
1000
,
0001
0000
0000
1000
0010
0000
0000
0010
1000
0000
0000
1000
0001
0000
0000
0001
,
0010
0000
0000
0010
0100
0000
0000
0100
1000
0000
0000
1000
0001
0000
1000
0000
,
0001
0000
0000
0001
0100
0000
0000
0100
0001
0000
0000
0001
1000
0000
0000
1000
,
0100
0000
0000
0100
0010
0000
0000
0010
0001
0000
1000
0001
1000
0000
0001
0000
,
0010
0000
0000
0001
0010
0000
0000
0010
0001
0000
0000
0001
1000
0000
0000
1000
,
0010
0000
0000
0010
0100
0000
0000
0100
0001
0000
0000
0001
1000
0000
0001
0000
,
1000
0000
0000
1000
0100
0000
0000
0100
1000
0000
0000
1000
0001
0000
0000
0001
,
0100
0000
0000
0100
0010
0000
0000
0010
1000
0000
0000
1000
0001
0000
1000
0000
,
0010
0100
0010
0100
0010
0100
0010
0100
0010
0000
0101
0000
0101
0000
1001
0000
,
1001
0000
1000
0010
1000
0001
0010
0100
,
0010
0001
1000
0010
0100
0001
0100
0000
,
0001
0010
0100
1000
0010
0100
0001
1000
,
0100
0001
0100
1000
0100
0010
0001
0000
,
1000
0010
0100
0001
0010
0100
1000
0001
,
0100
0010
1000
0010
1000
0001
0100
0100
,
0101
0110
1010
0110
,
1001
0000
1001
0000
1001
1001
1010
1010
,
1001
0000
0001
0100
0001
1000
0100
0010
,
0100
1000
0001
0100
0010
1000
0010
0000
,
1000
0100
0010
0001
0100
0010
1000
0001
,
0010
1000
0010
0001
0010
0100
1000
0000
,
0001
0100
0010
1000
0010
0001
0010
0100
,
1000
0100
0001
0100
0010
1000
0010
0100
,
1100
0110
0011
0110
,
1001
0000
0000
0000
1001
0000
0000
0000
0100
0010
0100
0010
0100
0010
0100
0010
,
0100
0000
0001
0000
0010
0000
0000
0000
0001
0010
0001
0010
0001
0000
1000
0000
,
0010
0000
0100
0000
0010
0000
0000
0000
1000
0100
1000
0100
1000
0000
0010
0000
,
0100
0001
0000
0100
0000
0000
0100
0000
0001
0100
0000
0001
0000
0000
0001
0000
,
1000
0010
0000
1000
0010
0000
0100
0001
0000
0100
0001
0000
1000
0000
1000
0000
,
0001
0010
0000
0001
0010
0000
0001
0000
1000
0000
0100
0000
1000
0000
0010
0000
,
0100
0010
0100
0010
0100
0000
0001
0000
1000
0010
1000
0000
0001
0000
0100
0000
,
0001
0000
1000
0000
0010
0000
0100
0000
0001
0010
0001
0010
0001
0000
1000
0000
,
1010
0011
1100
0101
,
0001
1000
0001
1000
0001
1000
0001
1000
0001
0000
1100
0000
1100
0000
1001
0000
,
1001
0000
1000
0100
1000
0001
0010
0100
,
0010
0001
1000
0100
0010
0001
0100
0001
,
0001
0010
0100
1000
0100
0010
0100
1000
,
0001
0100
0010
1000
0100
0010
0001
0000
,
1000
0100
0010
0001
0010
1000
0010
0001
,
0100
0010
1000
0100
0001
0100
1000
1000
,
1010
0110
0101
0110
,
1001
0000
1001
0000
0001
0010
0100
1000
,
0001
1000
0001
1000
0001
1000
0010
0100
,
2002
0000
3003
0000
;
