#TITLE:LOVE THIS FEELIN';
#SUBTITLE:(FROM NONSTOP MEGAMIX);
#ARTIST:Remixed by PCM;
#TITLETRANSLIT:;
#SUBTITLETRANSLIT:;
#ARTISTTRANSLIT:;
#CREDIT:DMAxel;
#BANNER:LOVE THIS FEELIN' (FROM NONSTOP MEGAMIX).png;
#BACKGROUND:LOVE THIS FEELIN' (FROM NONSTOP MEGAMIX)-bg.png;
#LYRICSPATH:;
#CDTITLE:Dance Dance Revolution Solo.png;
#MUSIC:LOVE THIS FEELIN' (FROM NONSTOP MEGAMIX).mp3;
#OFFSET:-0.220;
#SAMPLESTART:31.356;
#SAMPLELENGTH:12.000;
#SELECTABLE:YES;
#BPMS:0.000=115.260;
#STOPS:;
#BGCHANGES:;

//---------------dance-single - ----------------
#NOTES:
     dance-single:
     :
     Easy:
     3:
     0.240,0.335,0.147,0.055,0.000:
0000
0000
0000
0000
,
0000
0000
0000
0000
,
0000
0000
0000
0000
,
1000
0000
0001
0000
,
1000
0000
0020
0000
,
0130
0000
0100
0000
,
0010
0000
0010
0000
,
1000
0000
0001
0000
,
1001
0000
0000
0000
,
0010
0010
0001
0100
,
0010
0010
1000
0010
,
0100
0100
0001
0100
,
0010
0010
1000
0010
,
1000
1000
0001
1000
,
0002
0000
0000
1003
,
0010
0100
0010
1000
,
0010
0100
0001
1001
,
0010
0100
0010
1000
,
0001
0010
1001
0000
,
0010
0100
0010
1000
,
0100
1000
0000
0000
,
0010
0100
0001
0010
,
1001
0000
0000
0000
,
0100
0010
0100
0100
,
0010
1000
0001
0001
,
1001
0000
0100
0010
,
1000
1000
0010
0010
,
0100
0001
0010
0100
,
1000
0101
0101
1010
,
1010
0100
0100
0100
,
1001
0010
0100
0001
,
0200
0000
0000
0310
,
0020
0000
0000
1030
,
2000
0000
0000
3001
,
0002
0000
0003
0000
,
0100
0010
0100
0001
,
0010
0001
0010
1000
,
0100
0010
0001
1000
,
0010
0001
0100
1001
,
0000
0010
0100
0010
,
1000
0100
0010
0001
,
0100
0100
0010
1000
,
0101
0101
1010
0000
,
0001
0100
0001
0001
,
0100
0010
1000
1000
,
0010
0100
0010
0010
,
0100
0001
0010
0010
,
0001
1000
0100
0100
,
1000
0010
0100
0100
,
0001
0001
1000
0010
,
0100
0100
0010
0000
,
1001
0000
0000
0000
,
0001
1001
0000
0000
0000
0000
0000
0000
;

//---------------dance-single - ----------------
#NOTES:
     dance-single:
     :
     Hard:
     7:
     0.457,0.430,0.266,0.073,0.083: // measure 1
0000
0000
0000
0000
,  // measure 2
0010
0100
0000
0100
0010
0000
1000
0100
,  // measure 3
0001
0100
0010
0000
0100
0010
0100
0000
,  // measure 4
0010
0000
0100
0000
0001
0010
0000
0010
,  // measure 5
0000
0001
0100
1000
0200
0000
0000
0000
,  // measure 6
1300
0000
0010
0100
0000
0100
0010
0000
,  // measure 7
1000
0001
0000
1001
0000
0010
0010
0001
,  // measure 8
0010
0000
0001
1000
0010
0100
0010
0000
,  // measure 9
0202
0000
0303
1001
,  // measure 10
0010
0000
0100
0000
0000
0000
0100
0010
0100
0000
0001
0000
0100
0000
0000
0000
,  // measure 11
0001
0000
0100
0000
0000
0000
0100
0010
0100
0000
0010
0000
1000
0000
0000
0000
,  // measure 12
1000
0000
0010
0000
0000
0000
0010
0100
0010
0000
0100
0000
0001
0000
0000
0000
,  // measure 13
1000
0000
0010
0000
0100
0000
0010
0100
0010
0000
0100
0000
0001
0000
0000
0000
,  // measure 14
0010
0000
0001
0000
0100
0000
0010
0100
0010
0000
1000
0000
0100
0000
0000
0000
,  // measure 15
1000
1001
0000
0000
0000
0000
1010
0000
,  // measure 16
0100
0001
0000
0001
0010
0000
0001
0100
,  // measure 17
0001
0010
0001
0010
1000
0001
1001
0000
,  // measure 18
1000
0100
1000
0010
1001
0000
1100
0000
,  // measure 19
0011
0100
0010
0100
1001
0000
0000
0000
,  // measure 20
0100
1000
0100
1000
0000
1000
0001
0010
,  // measure 21
0001
0010
0000
2002
0000
0000
3003
0000
,  // measure 22
0010
0001
0100
0001
0010
0100
1000
0010
,  // measure 23
0100
0010
0100
2002
0000
0000
3003
0000
,  // measure 24
0010
0001
0010
0001
0010
0100
1000
0000
,  // measure 25
0100
1000
0010
1000
0100
1000
0010
0100
,  // measure 26
0001
0000
0010
0001
0100
0001
0010
0001
,  // measure 27
0100
0000
0100
0000
0010
0000
0010
0000
1000
0000
0000
0100
0000
0000
0010
0000
,  // measure 28
0000
0001
0000
0000
0011
0000
0100
0000
0010
0000
0100
0000
1001
0000
0000
0000
,  // measure 29
0010
1100
0011
1100
,  // measure 30
0101
1010
0101
1001
,  // measure 31
0100
1000
0010
1000
0100
1000
0001
0000
,  // measure 32
0010
0000
0001
0000
0010
0000
0000
0001
0000
0000
1000
0000
0010
0000
0010
0000
,  // measure 33
1000
0000
0100
0000
1000
0000
0000
0010
0000
0000
0100
0000
0001
0000
0001
0000
,  // measure 34
0100
0000
0001
0000
0010
0000
0001
0000
0000
0100
0000
0000
0010
0000
0010
0000
,  // measure 35
0100
0010
1000
0001
1000
0000
0000
0000
,  // measure 36
0001
0001
0010
0010
0000
0001
0000
0010
,  // measure 37
0000
0100
0000
1000
0010
0010
1000
1000
,  // measure 38
0100
0100
1000
1000
0001
0010
0000
0001
,  // measure 39
0000
0100
0010
0010
0100
0100
0001
1000
,  // measure 40
0000
0000
0010
0000
0100
0000
0001
0100
,  // measure 41
1000
0000
0010
0000
0100
0000
0010
0100
,  // measure 42
0001
0000
1000
0000
0010
0100
0001
0000
,  // measure 43
1001
0011
1100
1001
,  // measure 44
0010
0000
0001
0000
0100
0000
0010
0100
0010
0000
0100
0000
0001
0000
0000
0000
,  // measure 45
1000
0000
0010
0000
1000
0000
0010
0100
0010
0000
0100
0000
0001
0000
0000
0000
,  // measure 46
0010
0000
0001
0000
0010
0000
0001
1000
0001
0000
0100
0000
0010
0000
0000
0000
,  // measure 47
1000
0000
0100
0000
1000
0000
0010
0100
0010
0000
0100
0000
0001
0000
0000
0000
,  // measure 48
0100
0000
0001
0000
0100
0000
0010
0100
0010
0000
1000
0000
0100
0000
0000
0000
,  // measure 49
1000
0000
0001
0000
0100
0000
0010
0100
0010
0000
0100
0000
0001
0000
0000
0000
,  // measure 50
0010
0000
0001
0000
0010
0000
0001
1000
0001
0000
0100
0000
0010
0000
0000
0000
,  // measure 51
1010
0000
0000
0000
0101
0000
0000
0000
0001
0100
0010
0000
0100
0000
0010
0000
,  // measure 52
2000
0000
0000
3000
,  // measure 53
1001
1001
0000
0000
0000
0000
0000
0000
;

//---------------dance-single - ----------------
#NOTES:
     dance-single:
     :
     Challenge:
     9:
     0.599,0.550,0.339,0.046,0.422: // measure 1
0000
0000
0000
0000
,  // measure 2
1100
0000
0100
0000
0000
0000
0011
0000
0001
0000
0000
0000
0010
0001
0100
0000
,  // measure 3
0010
0100
0001
0100
1000
0001
1001
0000
,  // measure 4
0100
0000
1000
0000
0010
0000
1000
0100
0000
1000
0000
0010
0100
0000
0000
0000
,  // measure 5
0001
0010
0000
0010
0100
0000
0000
1000
0200
0000
0000
0000
0000
0000
0000
0000
,  // measure 6
1300
0000
0001
0100
1000
0000
0010
0000
1000
0000
0010
0100
0001
0100
0010
0000
,  // measure 7
1000
0000
1010
0000
0000
0000
0101
0000
0000
0000
0010
1000
0000
0100
0000
1000
,  // measure 8
0001
0000
0100
0000
0010
0000
1000
0010
0001
0000
0100
0000
0001
0000
0010
0000
,  // measure 9
0101
0110
1010
0000
0000
0000
1001
0000
,  // measure 10
0010
0000
0001
0000
0010
0000
0001
0010
0100
0010
0001
0000
0010
0000
0010
0000
,  // measure 11
0100
0000
1000
0000
0100
0000
1000
0100
0010
0100
1000
0000
0010
0000
0010
0000
,  // measure 12
0100
0000
0001
0000
0010
0000
0001
0100
0010
0100
0001
0000
0100
0000
0100
0000
,  // measure 13
0010
0000
1000
0000
0100
0000
1000
0010
0100
0010
1000
0000
0100
0000
0100
0000
,  // measure 14
1000
0000
0010
0000
0100
0000
0001
0100
0010
0100
0001
0000
1000
0000
1000
0000
,  // measure 15
0001
1001
0000
0000
0000
0000
0101
0000
,  // measure 16
1010
0010
0000
0101
0100
0000
0010
0010
,  // measure 17
0100
0001
1000
0100
0001
1000
1001
0000
,  // measure 18
0100
0000
0010
0000
0100
0000
0001
0100
0000
0010
0000
0100
0001
0000
0000
0000
,  // measure 19
1000
1000
0100
0001
1001
0000
0000
0000
,  // measure 20
1000
0000
0010
0100
0001
0000
0010
0000
0001
0000
0100
0010
1000
0000
0010
0000
,  // measure 21
0100
0001
0010
2002
0000
0000
3003
0000
,  // measure 22
0110
0000
1000
0000
0001
0100
0010
0100
0001
0000
0010
0000
0100
0000
1000
0000
,  // measure 23
0101
0000
0110
0000
1010
0000
1001
0000
0000
0000
0010
0100
0010
0100
0000
0100
,  // measure 24
0001
0000
0010
0000
1000
0000
0010
0100
0000
0010
0000
0100
0001
0000
0000
0000
,  // measure 25
0010
0001
0010
0100
1000
1000
0100
0010
,  // measure 26
1001
0000
0000
0000
0100
0000
1000
0000
0100
0000
0010
0000
0001
0000
0010
0001
,  // measure 27
0010
0000
0000
0000
0101
0000
0000
0000
1100
0000
0000
1001
0000
0000
0011
0000
,  // measure 28
0000
1010
0000
0000
0100
0000
0001
0000
0010
0000
0100
0000
1001
0000
0000
0000
,  // measure 29
0100
0000
0000
0100
0010
0000
0000
0010
1000
0000
0000
1000
0100
0000
0000
0100
,  // measure 30
0001
0000
0000
0001
0010
0000
0000
0010
1000
0000
0000
1000
0001
0000
0000
0000
,  // measure 31
0010
0000
0001
0000
0100
0000
0010
1000
0100
1000
0010
0000
0100
0000
0000
0000
,  // measure 32
0010
0000
0100
0000
0010
0000
1000
0100
0000
0100
1000
0000
0010
0100
0010
0100
,  // measure 33
0001
0000
0100
0000
0001
0000
0010
0001
0000
0001
0010
0000
0001
1000
0001
1000
,  // measure 34
0010
0000
0100
0000
0010
0000
1000
0010
0000
0010
1000
0000
0010
0100
0010
0100
,  // measure 35
0010
0100
0000
0100
0001
0000
0001
0020
0000
0000
0000
0000
0000
0000
0000
0000
,  // measure 36
0031
0000
0100
0000
0000
0100
0010
0000
1000
0000
0100
0000
0010
0000
0001
0000
,  // measure 37
0100
0000
0001
0000
0010
0000
0001
0000
1000
0100
1000
0000
0010
0100
0010
0100
,  // measure 38
0010
1000
0100
0000
0010
0001
0010
0000
0001
0000
0101
0000
0000
0000
0010
0000
,  // measure 39
0100
0010
0100
0010
0100
0001
1000
0001
1000
0000
0010
0000
0100
0000
0001
0001
,  // measure 40
0000
0000
0000
0000
1000
0000
0100
0000
0001
0000
0100
0000
0010
0000
1000
1000
,  // measure 41
0000
0000
0001
0000
0010
0000
1000
0000
0010
0000
0100
0000
0000
0001
0000
0000
,  // measure 42
0100
0001
0010
0100
1000
0010
0001
0010
,  // measure 43
1001
1100
0011
1001
,  // measure 44
0100
0000
0010
0000
1000
0100
0010
0100
1000
0000
0010
0000
0010
0000
0100
0000
,  // measure 45
0001
0000
0010
0000
0001
0010
0100
0010
0001
0000
0100
0000
0100
0000
0010
0000
,  // measure 46
1000
0000
0100
0000
1000
0010
0100
0010
1000
0000
0010
0000
0010
0000
0100
0000
,  // measure 47
0001
0000
0010
0000
0001
0100
0010
0100
0001
0000
0100
0000
0100
0000
0010
0000
,  // measure 48
0100
0000
0001
0000
0100
0001
0010
0001
0100
0000
0010
0000
1000
0000
0010
0000
,  // measure 49
0100
0000
0010
0000
1000
0010
0100
0010
1000
0000
0010
0000
0100
0000
0001
0000
,  // measure 50
0010
0000
0100
0000
1000
0010
0100
0010
1000
0000
0001
0000
0010
0000
0001
0000
,  // measure 51
0101
0000
0000
0000
1010
0000
0000
0000
1000
0010
1000
0000
0010
0000
0100
0000
,  // measure 52
0002
0000
0000
0000
0000
0000
0000
0003
,  // measure 53
1100
1001
0000
0000
0000
0000
0000
0000
;

//---------------dance-single - ----------------
#NOTES:
     dance-single:
     :
     Medium:
     5:
     0.326,0.383,0.193,0.000,0.000:
0000
0000
0000
0000
,
0010
0000
0000
0010
0000
0000
0100
0010
,
0100
0010
1000
1001
,
0010
0100
0010
0000
1000
0000
0010
0000
,
0100
0010
1001
0000
,
0010
0000
0100
0010
0000
0010
0100
0000
,
0001
0000
0000
1001
0000
0000
0000
0000
,
0100
0001
0010
0001
,
1001
0000
0000
0110
,
0001
0000
1000
0000
0010
0100
0010
0000
,
1000
0000
0001
0000
0100
0010
0100
0000
,
0001
0000
1000
0000
0001
1000
0001
0000
,
0100
0000
0010
0000
1000
0001
1000
0000
,
0010
0000
0100
0000
0001
0100
0001
0000
,
1000
1000
0000
0000
0000
0000
1001
0000
,
0010
0100
0000
0100
0001
0000
0010
0000
,
0001
0000
0100
0000
0010
0100
0010
0000
,
1000
0000
0001
0000
0100
0001
0100
0000
,
0010
1000
1001
0000
,
0010
0100
0010
0000
1000
0000
0100
0000
,
0010
0010
0000
1001
0000
0000
0000
0000
,
0010
0000
0100
0000
0001
0010
0100
0000
,
1000
1000
0010
0010
0000
0000
0000
0000
,
0100
0010
1000
0000
0001
0000
0010
0000
,
0001
0100
0010
0000
0100
0000
0010
0000
,
1001
0000
0000
0000
0010
0100
0001
0000
,
0010
0001
0100
1000
,
0010
0000
0001
0000
0100
0010
0100
0000
,
0010
1010
1001
0101
,
1001
0001
0001
0001
,
0100
0010
1000
0000
0010
0000
0100
0000
,
0010
0010
0100
0000
0001
0000
0010
0010
,
0001
0000
1000
0000
0010
0000
0100
0100
,
0010
0000
1000
0000
0001
0000
0100
0100
,
0010
0000
0000
0000
,
1000
0100
0010
0001
,
0100
1000
0010
0001
,
0010
0100
1000
0010
,
0001
0000
0100
0000
1000
0000
0010
0010
,
0000
0000
0100
0000
0010
0000
1000
0100
,
1000
0000
0010
0000
0100
0001
0010
0001
,
0100
0010
0100
0001
,
0011
1001
1100
1001
,
0100
0010
1000
0000
0010
0000
0100
0000
,
0010
0100
0001
0000
0010
0000
0010
0000
,
0001
1000
0100
0000
1000
0000
1000
0000
,
0010
0100
0001
0000
0010
0000
0010
0000
,
0001
0100
0010
0100
0001
0000
0010
0000
,
0001
1000
0100
1000
0010
1000
0100
0000
,
1000
0010
0100
0010
1000
0010
0100
0000
,
0101
0000
1010
0000
0100
0100
0010
0000
,
0100
0000
0000
0000
,
1001
1001
0000
0000
0000
0000
0000
0000
;

//---------------dance-single - ----------------
#NOTES:
     dance-single:
     :
     Beginner:
     1:
     0.096,0.119,0.073,0.000,0.000:
0000
0000
0000
0000
,
0000
0000
0000
0000
,
0000
0000
0000
0000
,
0000
0000
0000
0000
,
0000
0000
1001
0000
,
0001
0000
0000
0000
,
0001
0000
0000
0000
,
0100
0000
0000
0000
,
1001
0000
0000
0000
,
0010
0000
0000
0000
,
0010
0000
0000
0000
,
1000
0000
0000
0000
,
1000
0000
0000
0000
,
0010
0000
0000
0000
,
0110
0000
0000
0000
,
1000
0000
0000
0000
,
0001
0000
0000
0000
,
1000
0000
0000
0000
,
0001
0000
0000
0000
,
0100
0000
0000
0000
,
0010
0000
0000
0000
,
0100
0000
0000
0000
,
1001
0000
0000
0000
,
1000
0000
1000
0000
,
1000
0000
0001
0000
,
0001
0000
0100
0000
,
0100
0000
0010
0000
,
0010
0000
0100
0000
,
0010
0000
1000
0000
,
1001
0000
0000
0000
,
0001
0000
0000
0000
,
0100
0000
0000
0000
,
0001
0000
0000
0000
,
1000
0000
0000
0000
,
0010
0000
0000
0000
,
1001
0000
0000
0000
,
0000
0000
0100
0000
,
0100
0000
0100
0000
,
0010
0000
0000
0000
,
0000
1001
0000
1000
,
0000
1000
0000
0001
,
0000
0001
0000
0100
,
0000
0000
0000
1001
,
0000
0010
0000
0010
,
0000
1000
0000
1000
,
0000
0001
0000
0001
,
0000
0100
0000
0100
,
0000
0001
0000
0001
,
0000
1000
0000
1000
,
0000
0010
0000
0010
,
0000
0000
0000
0000
,
1000
0000
0000
0000
,
0001
0000
0000
0000
;
