#TITLE:LOVE IS ORANGE;
#SUBTITLE:marble version;
#ARTIST:Orange Lounge;
#TITLETRANSLIT:;
#SUBTITLETRANSLIT:;
#ARTISTTRANSLIT:;
#CREDIT:DMAxel;
#BANNER:LOVE IS ORANGE marble version.png;
#BACKGROUND:LOVE IS ORANGE marble version-bg.png;
#LYRICSPATH:;
#CDTITLE:Konami original REMIX.png;
#MUSIC:LOVE IS ORANGE marble version.mp3;
#OFFSET:0.700;
#SAMPLESTART:42.567;
#SAMPLELENGTH:12.000;
#SELECTABLE:YES;
#BPMS:0.000=90.000,121.000=180.000,233.000=90.000;
#STOPS:;
#BGCHANGES:;

//---------------dance-single - ----------------
#NOTES:
     dance-single:
     :
     Easy:
     3:
     0.211,0.234,0.211,0.045,0.000:
0000
0000
0000
0000
,
0000
0000
0000
0000
,
0000
1001
0000
2000
,
0000
3002
0000
2003
,
0000
3002
0000
2003
,
0000
3002
0000
0000
,
0000
0103
0000
0000
,
0000
0100
0000
0000
,
0000
0010
0000
0000
,
0000
0010
0000
0000
,
0000
1000
0100
1000
,
0100
1000
0001
1000
,
0001
1001
0000
0110
,
0000
1001
0000
0000
,
0000
0010
0000
0001
,
0000
0010
0000
0000
,
0000
1001
1000
0100
,
1000
0001
0010
0001
,
1000
0001
1000
0010
,
1000
0001
0100
0001
,
0100
1001
0000
0011
,
0000
1001
0000
1001
,
0000
0010
1000
0010
,
1000
0100
0010
0001
,
0000
1000
0001
0010
,
0100
1000
0010
0110
,
0000
1001
0010
0001
,
0010
0001
1000
0001
,
1000
1001
0010
1000
,
0010
0100
0010
0100
,
0010
0110
0000
0000
,
0000
1001
0000
0000
,
0000
0011
0000
0000
,
0000
1001
0000
1100
,
0000
1001
0000
0000
,
0000
1010
0000
0000
,
0000
1001
0000
0000
,
0000
0101
0000
0110
,
0000
1001
0001
0001
,
0000
1000
1000
1000
,
0000
0001
1000
0001
,
1000
0001
0000
1001
,
0000
0100
0010
0100
,
0000
0010
0100
0010
,
0000
1000
0001
1000
,
0001
1000
0000
1001
,
0000
0010
0010
0010
,
0000
0100
0100
0100
,
0000
0010
0010
0010
,
0010
0010
0000
1001
,
0000
0100
0100
0100
,
0000
0010
0010
0010
,
0000
0100
0100
0100
,
0100
0100
0000
1001
,
0000
0001
0100
0001
,
0000
1000
0010
1000
,
0000
0010
0100
0010
,
1000
0010
0000
1001
,
0000
0010
0010
0010
,
0010
0100
0100
0100
,
0100
0001
0001
0001
,
0001
1000
1000
1000
,
1000
0001
0000
0000
;

//---------------dance-single - ----------------
#NOTES:
     dance-single:
     :
     Hard:
     7:
     0.395,0.421,0.293,0.023,0.109:
0000
0000
0000
0000
,
0000
0000
0000
0000
,
0000
0000
1001
0000
0100
0010
0002
0000
,
0000
0000
1003
0000
0010
1000
0200
0000
,
0000
0000
1300
0000
0100
0010
0002
0000
,
0000
0000
1003
0000
0010
1000
0100
0010
,
0001
0100
0001
0010
0001
0010
0001
0000
,
0100
0001
0110
0000
0100
0000
0000
0000
,
0100
0000
1001
0000
0100
1000
0010
0000
,
0010
1001
0000
0000
,
0000
0000
0001
0001
0010
0000
0001
0001
,
0010
0000
1000
1000
0100
0000
1000
1000
,
0100
0000
1100
0100
0001
0000
0011
0010
,
1000
0000
1100
0100
0001
0010
0100
0000
,
1001
0000
0101
0100
1000
0000
1010
0010
,
0001
0000
0101
0100
1000
0100
0010
0000
,
1001
0000
0000
0000
1001
0000
0000
0100
0001
0000
0010
0000
0001
0000
0010
0000
,
0100
0000
1000
0001
1000
0010
1000
0010
,
0001
0000
0000
0000
1001
0000
0000
0010
1000
0000
0100
0000
1000
0000
0100
0000
,
0010
0000
0001
1000
0001
0100
0001
0100
,
1000
0000
0000
0000
1001
0000
0000
1100
0000
0000
0000
0000
0101
0000
0000
1001
,
0000
0000
0000
0000
1010
0000
0000
1001
0000
0000
0000
0000
0100
0010
0100
0000
,
0000
0000
0000
0000
1001
0000
0000
0001
0100
0000
0001
0000
0010
0000
0000
0000
,
0001
0010
1000
0000
0100
1000
0010
0000
,
0100
0000
0000
0000
0110
0000
0000
0010
1000
0000
0100
0000
0010
0000
0000
0000
,
0001
0010
1000
0000
0010
0100
0010
0110
,
0000
0000
0000
0000
1001
0000
0000
1000
0010
0000
1000
0000
0100
0000
0010
0000
,
0001
0000
0100
0001
0010
0000
0001
0010
,
1000
0000
0000
0000
1001
0000
0000
0100
0001
0000
0100
0000
0001
0000
0010
0000
,
0100
0000
1000
0100
0001
0000
0100
0001
,
0010
0000
0001
0100
0001
0100
0010
0000
,
0000
0000
1000
0010
1000
0010
0100
0000
,
0000
0000
0001
0100
0001
0100
1000
0000
,
0100
1001
0000
0011
,
0000
0000
1001
0000
0000
0000
0000
0100
,
0000
0100
0000
0000
0101
0000
0000
0000
0000
0000
0000
0000
0000
0000
0010
0000
,
0000
0010
0000
0000
1010
0000
0000
0000
0000
0000
0000
0000
0000
0000
0100
0000
,
0000
0100
0000
0000
0110
0000
0000
0000
0001
0000
0000
0000
0110
0000
0000
0000
,
1000
0000
0010
1000
0010
1000
0001
0000
,
0000
0000
0100
0001
0100
0001
1000
0000
,
0000
0000
0100
1000
0100
1000
0001
0000
,
0010
0110
0000
1001
,
0000
0000
0010
0001
0010
0001
1000
0000
,
0000
0000
0100
1000
0100
1000
0001
0000
,
0000
0000
0100
0001
0100
0001
1000
0000
,
0100
0110
0000
1001
,
0000
0000
0010
0001
0010
0001
1000
0000
,
0010
0000
0100
0001
0100
0001
1000
0000
,
0100
0000
0010
0001
0010
0001
1000
0000
,
0100
1000
0100
0000
0100
0000
1001
0000
,
0000
0000
0100
1000
0100
1000
0001
0000
,
0100
0000
0010
1000
0010
1000
0001
0000
,
0010
0000
0100
1000
0100
1000
0001
0000
,
0010
0001
0010
0000
0010
0000
1001
0000
,
0000
0000
0100
0001
0010
0001
0010
0000
,
0001
0100
0010
1000
0010
1000
0100
0000
,
1000
0001
0100
0001
0100
0001
0010
0000
,
0001
0010
1000
0000
0010
0000
1001
0000
,
0000
0000
0000
0000
0010
0000
0000
0010
1000
0000
0000
1000
0100
0000
0000
0100
,
0010
0000
0000
0010
0001
0000
0000
0001
0010
0000
0000
0010
0100
0000
0000
0100
,
1000
0000
0000
0010
1000
0000
0000
0100
0010
0000
0000
0001
0100
0000
0000
0100
,
0010
0000
0000
1000
0100
0000
0000
1000
0001
0000
0000
0001
0010
0000
0000
0010
,
0100
0000
0000
0100
1000
0000
0000
0000
0000
0000
0000
0000
0000
0000
0000
0000
;

//---------------dance-single - ----------------
#NOTES:
     dance-single:
     :
     Challenge:
     9:
     0.560,0.608,0.293,0.008,0.368:
0000
0000
0000
0000
,
0000
0000
0000
0000
,
0000
0000
0000
0000
1001
0000
0000
0010
0001
0000
0010
0000
0100
0000
0100
0000
,
1000
0010
0000
0010
0100
0000
0001
0000
1000
0000
0100
0000
0010
0000
0001
0000
,
0100
0001
0000
0001
0010
0000
0001
0000
0010
0000
0100
0000
1000
0000
1000
0000
,
0010
1000
0000
1000
0100
0000
1000
0000
0100
0000
0001
0000
0010
0000
0100
0000
,
1000
0000
0010
0000
1000
0000
0100
0000
1000
0000
0010
1000
0010
0000
1000
0000
,
0100
0000
0010
0000
0011
0000
0000
0000
1010
0000
0000
0100
0010
0000
0010
0000
,
1100
0000
0000
0000
1001
0000
0000
0010
0100
0000
0100
0000
0001
0000
0010
0000
,
0100
1000
1002
0000
1000
0000
1000
0000
,
1003
0010
0000
0000
1000
0100
1000
0000
0010
1000
0010
0000
0100
0001
0100
0000
,
0001
0010
0001
0000
0100
0010
0100
0000
0010
1000
0010
0000
1000
0100
1000
0000
,
0001
0010
0001
0000
0010
0001
0010
0100
1000
0000
0000
0000
0100
1000
0100
0010
,
0001
0000
0000
0000
0100
0001
0010
0100
1000
0100
1000
0100
0010
0000
0000
0000
,
1001
0000
0000
0000
0010
1000
0100
0010
0001
0000
0000
0000
0100
0001
0010
0100
,
1000
0000
0000
0000
0100
1000
0100
0010
0001
0010
0001
0010
0100
0000
0000
0000
,
1001
0000
0010
0000
0011
0000
0000
0010
1000
0000
0010
1000
0000
0100
0000
1000
,
0010
0000
0010
0000
1000
0000
0010
0000
0001
1000
0000
0000
0010
0100
0000
0010
,
1000
0000
1000
0000
0110
0000
0000
1000
0001
0000
0010
0001
0000
0100
0000
0001
,
0010
0000
0010
0000
0001
0000
0010
0000
1000
0001
0000
0000
1000
0000
0010
0000
,
0100
0010
0000
0100
0001
0000
0010
0001
0000
0001
1000
0000
0110
0000
0100
1000
,
0000
1000
0010
0000
0110
0000
0010
0001
0000
0001
1000
0000
0010
0010
0110
0000
,
0000
0000
0000
0000
1001
0000
0000
1000
0010
0000
1000
0100
0010
0000
0000
0001
,
0100
0000
0001
0010
0100
0000
0000
1000
0010
0000
1000
0100
0010
0000
0001
0000
,
1000
1000
0000
0000
0110
0000
0000
0100
0001
0000
0010
0100
0010
0000
0000
0001
,
1000
0000
0100
0010
0100
0000
0000
1000
0001
0000
0010
0100
1000
0000
1001
0000
,
0000
0000
0010
0000
0110
0000
0000
0010
1000
0000
0100
1000
0000
0010
0000
1000
,
0100
0000
0100
0000
1000
0000
0100
0000
0001
1000
0000
0000
0010
0000
0100
0000
,
0001
0100
0000
0010
0100
0000
0000
0010
1000
0000
0010
0100
0000
0001
0000
0100
,
0010
0000
0010
0000
1000
0000
0010
0000
0001
1000
0000
0000
0001
0000
0100
0000
,
0010
0000
1001
0100
0001
0100
0010
0000
,
0000
0000
1001
0010
1000
0010
0100
0000
,
0000
0001
0001
0010
0100
1000
0010
1000
,
0100
0010
1001
0000
0010
0000
1001
0000
,
0100
0000
1001
0010
0001
0010
1000
0010
,
0000
0010
0000
0000
1001
0000
0100
0000
1000
0000
0100
0000
0001
0000
0100
0000
,
0000
0100
0000
0000
1001
0000
0010
0000
0001
0000
0010
0000
1000
0000
0100
0000
,
0010
0000
0001
0000
1001
0000
0000
0100
1000
0000
0010
0000
1000
0000
1000
0000
,
1001
0000
0010
1000
0010
1000
0100
0010
,
0001
0000
0100
0001
0100
0001
0010
0100
,
1000
0000
0100
1000
0100
1000
0010
0001
,
0010
0100
1001
0000
0100
0000
1001
0000
,
0010
0000
0100
1000
0100
1000
0010
0100
,
0001
0000
0010
0001
0010
0001
0100
0010
,
1000
0000
0010
1000
0010
1000
0100
0001
,
0010
0100
1001
0000
0010
0000
1001
0000
,
0100
0000
0001
1000
0001
1000
0100
0010
,
0001
0000
0010
0100
0010
0100
1000
0010
,
0001
0000
0010
0100
1000
0010
1000
0100
,
0001
0100
0110
0000
0010
0000
1001
0000
,
0100
0000
1000
0001
1000
0001
0010
0100
,
1000
0000
0100
0010
0100
0010
0001
0100
,
1000
0000
0100
0010
0001
0100
0001
0010
,
1000
0010
0110
0000
0100
0000
1001
0000
,
0010
0000
0001
1000
0001
1000
0100
0010
,
0001
0000
0010
0100
0010
0100
1000
0010
,
0001
0000
0100
0010
1000
0100
0001
0100
,
1000
0001
0100
0001
0000
1000
1001
0000
,
0001
0000
0000
0000
0100
0001
0010
0001
0010
0000
1000
0000
0010
1000
0100
1000
,
0100
0000
0001
0000
0010
0100
0010
0100
1000
0100
0001
0000
1001
0000
0010
0000
,
1001
0000
0000
0000
0100
1000
0010
1000
0010
0000
0001
0000
0010
0001
0100
0001
,
0100
0000
1000
0000
0100
0010
0100
0010
0001
0010
1000
0000
1001
0000
0100
0000
,
1001
0001
0000
0000
;

//---------------dance-single - ----------------
#NOTES:
     dance-single:
     :
     Beginner:
     1:
     0.064,0.070,0.068,0.000,0.000:
0000
0000
0000
0000
,
0000
0000
0000
0000
,
0000
0001
0000
0000
,
0000
0001
0000
0000
,
0000
0001
0000
0000
,
0000
0001
0000
0000
,
0000
1000
0000
0000
,
0000
0000
0000
0000
,
0000
1000
0000
0000
,
0000
0000
0000
0000
,
0000
0010
0000
0000
,
0000
0010
0000
0000
,
0000
0010
0000
0000
,
0000
0000
0000
0000
,
0000
0100
0000
0000
,
0000
0000
0000
0000
,
0000
1001
0000
0000
,
0000
0000
0000
0000
,
0000
0001
0000
0000
,
0000
0000
0000
0000
,
0000
1001
0000
0000
,
0000
0000
0000
1000
,
0000
1001
0000
0000
,
0000
0000
0000
0000
,
0000
1000
0000
0000
,
0000
0000
0000
1001
,
0000
0001
0000
0000
,
0000
0100
0000
0000
,
0000
0001
0000
0000
,
0000
1000
0000
0010
,
0000
1001
0000
0000
,
0000
1000
0000
0000
,
0000
1000
0000
0000
,
0000
0000
0000
0000
,
0000
1001
0000
0000
,
0000
0001
0000
0000
,
0000
0001
0000
0000
,
0000
0000
0000
0000
,
0000
1000
0000
0000
,
0000
1000
0000
0000
,
0000
0001
0000
0000
,
0000
0001
0000
0000
,
0000
0100
0000
0000
,
0000
0100
0000
0000
,
0000
0010
0000
0000
,
0000
0010
0000
0000
,
0000
1001
0000
0000
,
0000
1000
0000
0000
,
0000
0001
0000
0000
,
0000
1000
0000
0000
,
0000
1001
0000
0000
,
0000
0001
0000
0000
,
0000
1000
0000
0000
,
0000
0001
0000
0000
,
0000
1001
0000
0000
,
0000
0100
0000
0000
,
0000
0010
0000
0000
,
0000
0100
0000
0000
,
0000
0001
0000
0000
,
0000
0000
0000
0000
,
0000
1000
0000
0000
,
0000
0000
0000
0000
,
0000
0001
0000
0000
;

//---------------dance-single - ----------------
#NOTES:
     dance-single:
     :
     Medium:
     5:
     0.309,0.398,0.278,0.075,0.019:
0000
0000
0000
0000
,
0000
0000
0000
0000
,
0000
1001
0200
0002
,
0303
1001
0020
2000
,
3030
1001
0200
0020
,
0300
2030
0000
3002
,
0000
1003
0100
0010
,
0001
0010
0100
0000
,
1000
1001
0000
0000
,
0000
0110
0000
0000
,
0000
0002
0010
0010
,
0013
2000
0100
0100
,
3100
0000
1000
0100
0001
0000
0100
0010
,
0100
0000
0001
0010
1000
0000
0010
0000
,
0110
0000
1000
0010
0001
0000
0100
0010
,
0100
0000
0001
0100
1000
0000
0100
0000
,
0110
0000
1001
0000
0001
0000
0100
0001
,
0010
0000
0001
0000
0010
0000
0100
1000
,
0010
0000
1001
0000
0010
0000
0100
0001
,
0010
0000
0001
0000
0010
0000
0100
1000
,
0010
0000
0000
0000
1001
0000
0000
1000
0100
0000
0000
0100
0010
0000
0000
0010
,
0001
0000
0000
0001
1000
0000
0000
1000
0001
0000
0000
0000
1001
0000
1001
0000
,
0000
0000
0110
0000
0001
1000
0010
0000
,
0100
0010
1000
0000
0100
1000
0001
0000
,
0001
0000
1001
0000
0010
1000
0001
0000
,
0010
0001
0100
0000
0010
1000
0010
0010
,
0000
0000
1001
0000
0100
0000
1000
0100
,
0010
0000
0001
0000
1000
0000
0010
1000
,
0100
0000
1001
0000
0100
0000
0010
0001
,
0100
0000
0001
0010
0100
0000
1000
0000
,
0110
1001
0000
0000
,
0000
1001
0000
0000
,
0000
1100
0000
0000
,
0000
1001
0000
0011
,
0000
1001
0000
0000
,
0000
0101
0000
0000
,
0000
1001
0000
0000
,
0000
1010
0000
0110
,
0000
0000
1000
0001
0010
0000
0010
0000
,
0000
0000
0001
1000
0100
0000
0100
0000
,
0000
0000
1000
0001
0010
0000
0010
0000
,
0001
1000
0000
1001
,
0000
0000
0010
1000
0100
0000
0100
0000
,
0000
0000
1000
0001
0010
0000
0010
0000
,
0000
0000
0001
1000
0010
0000
0010
0000
,
1000
0001
0000
1001
,
0000
0000
0100
0010
0100
0000
0001
0000
,
1000
0000
0010
0100
0010
0000
1000
0000
,
0001
0000
0100
0010
0100
0000
0001
0000
,
0010
1100
0000
1001
,
0000
0000
0010
0100
0010
0000
1000
0000
,
0001
0000
0100
0010
0100
0000
0001
0000
,
1000
0000
0010
0100
0010
0000
1000
0000
,
0100
0011
0000
1001
,
0000
0000
0010
1000
0100
0000
1000
0000
,
0001
0000
0100
0001
0010
0000
0001
0000
,
1000
0000
0010
1000
0100
0000
1000
0000
,
0001
0110
0000
1001
,
0000
0000
0100
1000
0010
0000
0100
0001
,
0010
0000
0001
0010
0100
1000
0001
0000
,
0110
0000
1000
0100
0010
0000
0001
0100
,
0010
0000
1000
0100
0010
0001
1000
0000
,
0110
0001
0000
0000
;

//---------------dance-double - ----------------
#NOTES:
     dance-double:
     :
     Easy:
     3:
     0.233,0.211,0.233,0.038,0.000: // measure 1
00000000
00000000
00000000
00000000
,  // measure 2
00000000
00000000
00000000
00000000
,  // measure 3
00000000
10010000
00000000
20000000
,  // measure 4
00000000
32000000
00000000
03200000
,  // measure 5
00000000
00320000
00000000
00032000
,  // measure 6
00000000
00003100
00000010
00000001
,  // measure 7
00000010
00000110
00000000
00001000
,  // measure 8
00000000
00010000
00000000
00001000
,  // measure 9
00000000
00010000
00000100
00000010
,  // measure 10
00000001
00000010
00000000
00000000
,  // measure 11
00000000
00001001
00000001
00000001
,  // measure 12
00000010
00000010
00000100
00000100
,  // measure 13
00001000
00011000
00000000
00101000
,  // measure 14
00000000
00010100
00000000
00011000
,  // measure 15
00000000
00010000
00100000
01000000
,  // measure 16
10000000
00100000
00000000
00100000
,  // measure 17
00000000
10010000
10000000
01000000
,  // measure 18
10000000
00010000
00100000
00010000
,  // measure 19
10000000
01000000
00100000
00010000
,  // measure 20
00001000
00010000
00000100
00010000
,  // measure 21
00000100
00011000
00000000
00001100
,  // measure 22
00000000
00001001
00000000
00001001
,  // measure 23
00000000
00000010
00000001
00000010
,  // measure 24
00000001
00000010
00000100
00001000
,  // measure 25
00000000
00010000
10000000
00010000
,  // measure 26
10000000
00100000
01000000
01100000
,  // measure 27
00000000
10000000
01000000
10000000
,  // measure 28
01000000
00100000
00010000
00001000
,  // measure 29
00000100
00001000
00000100
00000010
,  // measure 30
00000001
00001000
00000001
00000010
,  // measure 31
00000100
00011000
00000000
00000000
,  // measure 32
00000000
00011000
00000000
00000000
,  // measure 33
00000000
00011000
00000000
00000000
,  // measure 34
00000000
00110000
00000000
10010000
,  // measure 35
00000000
00011000
00000000
00000000
,  // measure 36
00000000
00001100
00000000
00000000
,  // measure 37
00000000
00001001
00000000
00000000
,  // measure 38
00000000
00001001
00000000
00000110
,  // measure 39
00000000
00001001
00000001
00000001
,  // measure 40
00000000
00001000
00001000
00001000
,  // measure 41
00000000
00000001
00000010
00000100
,  // measure 42
00001000
00011000
00000000
00011000
,  // measure 43
00000000
00010000
00010000
00010000
,  // measure 44
00000000
10000000
10000000
10000000
,  // measure 45
00000000
10000000
01000000
00100000
,  // measure 46
00010000
00011000
00000000
00011000
,  // measure 47
00000000
00001000
00001000
00001000
,  // measure 48
00001000
00000001
00000001
00000001
,  // measure 49
00000001
00000010
00000100
00001000
,  // measure 50
00010000
00100000
00000000
01100000
,  // measure 51
00000000
10000000
10000000
10000000
,  // measure 52
10000000
00010000
00010000
00010000
,  // measure 53
00010000
10000000
01000000
00100000
,  // measure 54
00010000
00001000
00000100
00000110
,  // measure 55
00000000
00000001
00000001
00000001
,  // measure 56
00000001
00001000
00001000
00001000
,  // measure 57
00001000
00000001
00000010
00000100
,  // measure 58
00001000
00010000
00000000
10010000
,  // measure 59
00000000
00100000
10000000
01000000
,  // measure 60
00010000
01000000
10000000
01000000
,  // measure 61
00010000
00001000
00000100
00000001
,  // measure 62
00000100
00001000
00000010
00000100
,  // measure 63
00000010
00010000
00000000
00000000
;
