#TITLE:LOVE D RIVE;
#SUBTITLE:;
#ARTIST:D-crew;
#TITLETRANSLIT:;
#SUBTITLETRANSLIT:;
#ARTISTTRANSLIT:;
#CREDIT:DMAxel;
#BANNER:LOVE D RIVE.png;
#BACKGROUND:LOVE D RIVE-bg.png;
#LYRICSPATH:LOVE D RIVE.lrc;
#CDTITLE:beatmania.png;
#MUSIC:LOVE D RIVE.mp3;
#OFFSET:0.000;
#SAMPLESTART:62.239;
#SAMPLELENGTH:12.000;
#SELECTABLE:YES;
#BPMS:0.000=190.000;
#STOPS:;
#BGCHANGES:;

//---------------dance-single - ----------------
#NOTES:
     dance-single:
     :
     Easy:
     5:
     0.366,0.467,0.419,0.120,0.000:
0000
0000
0000
0000
,
0000
0000
0000
0000
,
0000
0000
0000
0000
,
0000
0000
0000
0000
,
0000
0000
0000
0000
,
0000
0000
0000
0000
,
0000
0000
0000
0000
,
0000
0000
0000
0000
,
0000
0000
0000
0000
,
0000
0001
0001
0001
,
0001
1000
1000
1000
,
1000
0010
0010
0010
,
0010
0100
0100
0100
,
0100
1001
0001
0001
,
0100
0001
1000
1000
,
0010
1000
0010
0100
,
0010
0100
0100
0100
,
0100
1001
0000
1100
,
0000
1000
0001
0010
,
0000
1001
0000
0011
,
0000
0001
1000
0100
,
0000
1001
0000
1010
,
0000
1000
0001
0010
,
0000
1001
0000
0101
,
0000
0001
1000
0100
,
0000
1001
1000
1000
,
0100
1001
0001
0001
,
0010
1001
1000
1000
,
0010
1001
0010
0110
,
0100
1001
0001
0010
,
0100
1001
1000
0100
,
0010
1001
0001
0100
,
0110
1001
0000
0110
,
0000
1002
0000
0000
,
1000
1003
0000
0000
,
0010
0110
0000
0110
,
0000
1001
0000
0000
,
0000
2001
0000
0000
,
0001
3001
0000
0000
,
0100
0110
0000
0110
,
0000
1001
0000
1001
,
0000
0002
0000
0000
,
0000
0000
0000
0000
,
0000
2003
0000
0000
,
0000
0000
0000
0000
,
0000
3020
0000
0000
,
0000
0230
0000
0000
,
0000
0302
0000
2003
,
0000
3020
0000
0230
,
0000
0301
0010
0001
,
0010
0001
1000
0001
,
1000
1001
0100
1000
,
0100
1000
0001
1000
,
0001
1001
0100
0001
,
0100
0010
0100
0010
,
0100
1001
0010
1000
,
0010
1001
1000
1000
,
1000
1001
0100
0010
,
0001
0010
0100
1000
,
0100
0010
0001
0010
,
0100
1000
0100
0010
,
0001
1001
0100
0010
,
1000
0010
0100
0001
,
0100
0010
0100
0001
,
0010
0001
0010
0100
,
1000
0000
0000
0000
;

//---------------dance-single - ----------------
#NOTES:
     dance-single:
     :
     Challenge:
     9:
     0.654,0.663,0.527,0.000,0.198: // measure 1
0000
0000
0000
0000
,  // measure 2
0000
0000
0000
0000
,  // measure 3
0000
0000
0000
0000
,  // measure 4
0000
0000
0000
0000
,  // measure 5
0000
0000
0000
0000
,  // measure 6
0000
0000
0000
0000
,  // measure 7
0000
0000
0000
0000
,  // measure 8
0000
0000
0000
0000
,  // measure 9
0000
0000
0000
0000
,  // measure 10
0000
0000
1000
0100
1000
0010
1000
0100
,  // measure 11
1000
0010
0100
0010
0100
0001
0010
0001
,  // measure 12
0100
0001
0100
0010
0100
0010
1000
0100
,  // measure 13
1000
0010
0100
0001
0010
0100
1000
0010
,  // measure 14
0100
0000
1001
0000
0100
0001
0100
0001
,  // measure 15
0010
0100
1000
0000
1001
0000
0011
0000
,  // measure 16
0100
1000
0010
0000
0100
0001
0010
0000
,  // measure 17
0001
1000
0001
0000
0110
0000
1001
0000
,  // measure 18
0110
0000
0001
0010
0100
1000
0010
1000
,  // measure 19
0100
1010
0110
0101
,  // measure 20
1001
0000
1000
0100
0010
0001
0100
0001
,  // measure 21
0010
0101
0110
1010
,  // measure 22
1001
0000
0001
0010
0100
1000
0100
1000
,  // measure 23
0010
1100
0110
0011
,  // measure 24
1001
0000
1000
0100
0010
0001
0100
0001
,  // measure 25
0100
0011
0110
1100
,  // measure 26
1001
0000
0000
0000
0010
0000
0000
0001
0000
0000
0010
0000
0000
0000
0001
0000
,  // measure 27
0000
1000
0000
0000
1000
0000
0000
0010
0000
0000
1000
0000
0000
0000
0100
0000
,  // measure 28
0000
0010
0000
0000
0001
0000
0000
0100
0000
0000
0001
0000
0000
0000
0010
0000
,  // measure 29
0000
0001
0000
0000
0010
0000
0000
0100
0000
0000
1000
0000
0001
0000
0000
0001
,  // measure 30
0000
0000
0001
0000
0100
0000
0000
0010
0000
0000
0100
0000
0000
0000
0010
0000
,  // measure 31
1000
0100
0000
0000
1000
0000
0000
0001
0000
0000
1000
0000
0010
0000
0100
0000
,  // measure 32
0010
1000
0000
0000
0001
0000
0000
1000
0000
0000
0001
0000
0100
0000
0010
0000
,  // measure 33
0100
0001
0000
0000
1001
0000
0000
1000
0000
0000
1000
0000
0010
0000
0000
0100
,  // measure 34
0000
0001
1000
0001
0010
0100
0010
0000
,  // measure 35
0001
0010
0100
0010
0100
0000
1000
0010
,  // measure 36
0100
0010
1000
0000
0110
0000
0001
0100
,  // measure 37
0001
0000
0110
0000
1000
0010
0100
0010
,  // measure 38
0010
0000
1001
0000
0100
0001
0010
0000
,  // measure 39
0001
0100
0010
0100
0001
0000
0100
0010
,  // measure 40
1000
1001
0001
0110
,  // measure 41
1000
1001
0001
0110
,  // measure 42
1000
0000
0010
0100
0000
0001
0000
0001
,  // measure 43
0000
0010
0000
0010
0000
0001
0010
0100
,  // measure 44
1000
0000
0000
0000
1001
0000
0000
0010
0000
0000
0100
0000
0001
0000
0100
0000
,  // measure 45
1000
0000
1001
0000
0010
0000
1000
0100
,  // measure 46
0001
0100
1001
0000
0010
1000
0000
1000
,  // measure 47
0100
0010
1001
0000
1100
0000
0101
0000
,  // measure 48
0011
1010
0100
0011
,  // measure 49
0010
1100
1100
0011
,  // measure 50
0011
0000
0000
0000
1001
0000
0000
0100
0000
0000
1000
0000
0100
0000
0000
0010
,  // measure 51
0000
0000
0100
0000
0010
0000
0000
0001
0000
0000
0010
0000
0001
0000
0000
1000
,  // measure 52
0000
0000
0001
0000
0100
0000
0000
0001
0000
0000
0010
0000
0001
0000
0000
0010
,  // measure 53
0000
0000
0001
0000
1000
0000
0000
0100
0000
0000
1000
0000
0010
0000
0000
0100
,  // measure 54
0000
0000
0001
0000
0010
0000
0000
0100
0000
0000
0010
0000
0100
0000
0000
1000
,  // measure 55
0000
0000
0001
0000
0100
0000
0000
0010
0000
0000
0100
0000
0001
0000
0000
0010
,  // measure 56
0000
0000
0001
0000
1000
0000
0000
1000
0000
0000
1000
0000
0001
0000
0000
0001
,  // measure 57
0000
0000
0001
0000
0100
0000
0000
0100
0000
0000
0100
0000
0010
0000
0000
0010
,  // measure 58
0000
0010
1000
0100
0010
0001
0100
0001
,  // measure 59
0010
0001
0100
0010
1000
0010
0100
0010
,  // measure 60
0100
0000
0001
0010
0100
1000
0010
1000
,  // measure 61
0100
1000
0010
0100
0001
0100
0010
0100
,  // measure 62
0010
0000
1000
0100
0010
0001
0010
0001
,  // measure 63
0100
0001
0010
0100
1000
0010
0100
0010
,  // measure 64
0100
0000
0001
0010
0100
1000
0100
1000
,  // measure 65
0010
0100
0001
0100
1000
0010
0001
0010
,  // measure 66
0100
1000
0000
0000
0000
0000
0000
0000
;

//---------------dance-single - ----------------
#NOTES:
     dance-single:
     :
     Hard:
     8:
     0.560,0.585,0.384,0.048,0.066: // measure 1
0000
0000
0000
0000
,  // measure 2
0000
0000
0000
0000
,  // measure 3
0000
0000
0000
0000
,  // measure 4
0000
0000
0000
0000
,  // measure 5
0000
0000
0000
0000
,  // measure 6
0000
0000
0000
0000
,  // measure 7
0000
0000
0000
0000
,  // measure 8
0000
0000
0000
0000
,  // measure 9
0000
0000
0000
0000
,  // measure 10
0000
0000
0001
0010
0001
0010
0001
0100
,  // measure 11
0001
0000
1000
0100
1000
0100
1000
0010
,  // measure 12
1000
0000
0001
0100
0001
0100
0001
0010
,  // measure 13
0001
0000
1000
0010
1000
1000
0000
0100
,  // measure 14
0010
0000
1001
0000
0010
1000
0100
0000
,  // measure 15
1000
0000
1001
0000
0100
0001
0010
0000
,  // measure 16
0001
0000
1001
0000
0010
1000
0100
0000
,  // measure 17
1000
0000
0001
1000
0001
1000
0001
0010
,  // measure 18
0100
1000
0011
0000
0100
0000
1010
0000
,  // measure 19
0100
0000
0001
0010
0100
1000
0001
0010
,  // measure 20
0001
0100
1001
0010
,  // measure 21
1001
0000
1000
0100
0010
0001
1000
0100
,  // measure 22
1000
0010
1001
0100
,  // measure 23
1001
0000
0001
0010
0100
1000
0010
0100
,  // measure 24
0010
0100
1010
0010
,  // measure 25
0011
0000
1000
0100
0010
0001
0100
0010
,  // measure 26
0100
0000
0000
0000
0001
0000
0000
0001
0000
0000
0001
0000
0000
0000
0100
0000
,  // measure 27
0000
0010
0000
0000
1000
0000
0000
1000
0000
0000
1000
0000
0000
0000
0010
0000
,  // measure 28
0000
0100
0000
0000
0001
0000
0000
0001
0000
0000
0001
0000
0000
0000
0010
0000
,  // measure 29
0000
0100
0000
0000
1000
0000
0000
1000
0000
0000
1000
0000
0010
0000
0000
0100
,  // measure 30
0000
0000
0010
0000
0100
0000
0000
0001
0000
0000
0100
0000
0000
0000
0010
0000
,  // measure 31
0100
0000
0010
0000
1000
0000
0000
0010
0000
0000
1000
0000
0010
0000
0100
0000
,  // measure 32
0001
0000
0000
0000
0100
0000
0000
0010
0000
0000
1000
0000
0100
0000
0010
0000
,  // measure 33
0001
1001
0100
1001
,  // measure 34
0010
1001
0100
0010
,  // measure 35
1000
0100
0010
0001
,  // measure 36
0100
1001
0100
1010
,  // measure 37
0100
0011
0100
0001
,  // measure 38
0100
1001
0100
0010
,  // measure 39
0100
0011
1000
0010
,  // measure 40
0100
1010
0100
1001
,  // measure 41
0100
1001
0010
0101
,  // measure 42
0100
0020
0000
0000
,  // measure 43
1030
0200
0000
0000
,  // measure 44
0301
0011
0000
1100
,  // measure 45
0000
1001
0000
0000
,  // measure 46
0100
0102
0000
0000
,  // measure 47
0103
0020
0000
0000
,  // measure 48
1030
1100
0000
0011
,  // measure 49
0000
0110
0000
1001
,  // measure 50
0000
0000
1001
0000
0100
1000
0010
0000
,  // measure 51
0100
0001
0010
0000
0001
0010
0100
0000
,  // measure 52
1000
0100
0010
0000
0001
0100
0010
0000
,  // measure 53
1000
0010
0100
0000
0001
0100
0010
0100
,  // measure 54
0100
0000
0010
0000
1000
0100
0010
0000
,  // measure 55
0001
0010
0100
0000
1000
0010
0100
0000
,  // measure 56
0001
0100
1000
0000
0001
0100
0010
0000
,  // measure 57
1000
0010
0001
0000
1000
0010
0100
0010
,  // measure 58
0010
0000
0100
0010
0100
0001
0010
0001
,  // measure 59
0100
0000
0001
0010
0001
0100
0010
0100
,  // measure 60
0001
0000
1000
0010
1000
0010
0100
0010
,  // measure 61
1000
0000
0001
0010
0001
0100
0010
0100
,  // measure 62
0001
0000
1000
0100
1000
0010
0100
0010
,  // measure 63
1000
0000
0010
0100
0010
0100
0001
0010
,  // measure 64
0001
0000
0100
0010
0100
0010
1000
0100
,  // measure 65
1000
0001
1000
0001
0010
0100
1000
0100
,  // measure 66
0010
0001
0000
0000
0000
0000
0000
0000
;

//---------------dance-single - ----------------
#NOTES:
     dance-single:
     :
     Medium:
     6:
     0.486,0.585,0.384,0.132,0.000:
0000
0000
0000
0000
,
0000
0000
0000
0000
,
0000
0000
0000
0000
,
0000
0000
0000
0000
,
0000
0000
0000
0000
,
0000
0000
0000
0000
,
0000
0000
0000
0000
,
0000
0000
0000
0000
,
0000
0000
0000
0000
,
0000
0000
1000
0100
1000
0000
0010
0000
,
0110
0000
0001
0010
0001
0000
0100
0000
,
0110
0000
1000
0010
1000
0000
0010
0000
,
0110
0000
0001
0100
0001
0000
0100
0000
,
0110
1001
0001
1000
,
0010
0100
0010
0000
1000
0000
0100
0000
,
1000
0100
1000
0000
0010
0100
0010
0000
,
0100
0000
0001
0010
0001
0010
0100
1000
,
0100
1000
0100
0010
,
0001
0000
0100
0010
0100
0010
1000
0000
,
0001
0100
0010
1000
,
0100
0000
1000
0100
1000
0010
1000
0000
,
0010
0100
0010
0100
,
0001
0000
0010
0001
0010
0001
0100
0000
,
0010
0100
0010
1000
,
0100
0000
1000
0010
0100
0010
1000
0000
,
0001
1100
1100
0010
,
0100
0011
0011
0100
,
0010
1100
1100
0010
,
0100
0000
0101
0000
0001
0100
0001
0000
,
0010
1100
1100
0010
,
0100
0010
0100
0000
1001
0000
0010
0000
,
0100
0011
0011
0100
,
0010
0101
0101
1010
,
1010
0020
0000
0000
,
0100
0230
0000
0000
,
0301
2000
0000
3200
,
0000
2300
0000
0000
,
0000
3020
0000
0000
,
0130
0002
0000
0000
,
0013
1002
0000
0203
,
0000
0320
0000
2030
,
0000
3100
0000
0000
,
0100
0100
0000
0000
,
1000
1001
0000
0010
,
0000
1001
0000
0100
,
0000
1001
0000
0000
,
0001
1001
0000
0000
,
0000
0101
0000
1010
,
0000
1001
0000
1001
,
0000
0000
1000
0100
1000
0000
0010
0000
,
0100
0000
0001
0010
0001
0000
0100
0000
,
0010
0000
1000
0100
1000
0000
0010
0000
,
0100
0000
0001
0010
0001
0000
0100
0000
,
0010
0000
1000
0010
1000
0000
0010
0000
,
0100
0000
0001
0100
0001
0000
0100
0000
,
0010
1001
0100
0010
,
0010
1001
0010
0100
,
0100
0000
0001
0010
0001
0100
0001
0100
,
0001
0000
1000
0100
1000
0100
1000
0010
,
1000
0000
0010
0100
0010
0100
0010
1000
,
0001
0000
0010
0001
0010
0001
0100
0010
,
1000
0000
0010
0100
0010
0100
0001
1000
,
0001
0000
0100
0010
0100
0010
1000
0001
,
1000
0000
0100
1000
0100
1000
0010
1000
,
0001
0000
1000
0100
0010
0001
0010
0100
,
1000
0100
0000
0000
0000
0000
0000
0000
;

//---------------dance-single - ----------------
#NOTES:
     dance-single:
     :
     Beginner:
     2:
     0.134,0.194,0.084,0.000,0.000:
0000
0000
0000
0000
,
0000
0000
0000
0000
,
0000
0000
0000
0000
,
0000
0000
0000
0000
,
0000
0000
0000
0000
,
0000
0000
0000
0000
,
0000
0000
0000
0000
,
0000
0000
0000
0000
,
0000
0000
0000
0000
,
0000
1000
0000
0000
,
0000
1000
0000
0001
,
0000
0001
0000
0100
,
0000
0100
0000
0001
,
0000
0001
0000
0000
,
0000
1000
0000
0000
,
0000
0010
0000
1000
,
0000
0010
0000
0000
,
0000
1001
0000
0100
,
0000
0100
0000
0000
,
0000
1001
0000
0010
,
0000
0010
0000
0000
,
0000
1001
0000
0100
,
0000
0100
0000
0000
,
0000
1001
0000
0010
,
0000
0010
0000
0000
,
0000
1000
0000
0000
,
0000
0100
0000
0000
,
0000
0010
0000
0000
,
0000
0001
0000
1000
,
0000
0001
0000
0000
,
0000
0010
0000
0000
,
0000
0100
0000
0000
,
0000
1000
0000
0001
,
0000
1000
0000
0000
,
0000
0000
0000
0000
,
0000
0100
0000
0000
,
0000
0000
0000
0000
,
0000
0010
0000
0000
,
0000
0000
0000
0000
,
0000
0001
0000
0000
,
0000
1000
0000
0000
,
0000
1001
0000
0000
,
0000
0000
0000
0000
,
0000
0010
0000
0000
,
0000
0010
0000
0000
,
0000
0100
0000
0000
,
0000
0100
0000
0000
,
0000
0001
0000
0001
,
0000
1000
0000
1000
,
0000
1001
0000
0000
,
0000
0000
0000
0000
,
0000
0100
0000
0000
,
0000
0000
0000
0000
,
0000
0010
0000
0000
,
0000
0000
0000
0000
,
0000
0001
0000
1000
,
0000
0001
0000
1000
,
0000
0010
0000
0010
,
0000
0100
0000
0100
,
0000
0001
0000
0001
,
0000
1000
0000
0001
,
0000
1001
0000
0100
,
0000
1000
0000
0010
,
0000
0100
0000
0001
,
0000
1000
0000
0001
;
