#TITLE:LOVE☆BA☆ZOOKA!;
#SUBTITLE:;
#ARTIST:DJ YOSHITAKA feat. ななっち;
#TITLETRANSLIT:LOVE BAZOOKA!;
#SUBTITLETRANSLIT:;
#ARTISTTRANSLIT:DJ YOSHITAKA feat. Nanacchi;
#CREDIT:DMAxel;
#BANNER:LOVE BAZOOKA!.png;
#BACKGROUND:LOVE BAZOOKA!-bg.png;
#LYRICSPATH:;
#CDTITLE:Pop'n Music.png;
#MUSIC:LOVE BAZOOKA!.mp3;
#OFFSET:-2.080;
#SAMPLESTART:45.033;
#SAMPLELENGTH:12.000;
#SELECTABLE:YES;
#BPMS:0.000=180.000;
#STOPS:;
#BGCHANGES:;

//---------------dance-single - ----------------
#NOTES:
     dance-single:
     :
     Easy:
     3:
     0.261,0.311,0.153,0.220,0.000: // measure 1
0000
0000
0000
0000
,  // measure 2
0000
0000
0000
0000
,  // measure 3
0000
0000
0000
0000
,  // measure 4
0000
0000
0000
0000
,  // measure 5
0000
0000
0000
0000
,  // measure 6
0000
1001
0000
1001
,  // measure 7
0000
0010
0100
0001
,  // measure 8
1000
0001
0000
0000
,  // measure 9
0000
1100
0000
0000
,  // measure 10
0000
0011
0000
0000
1000
0000
0001
0000
,  // measure 11
0000
0100
0010
0100
,  // measure 12
0010
1000
0001
1000
,  // measure 13
0000
0001
0100
0010
,  // measure 14
1000
0001
1000
0001
,  // measure 15
0000
0100
0010
0100
,  // measure 16
0000
0000
0101
0000
0000
1010
0000
0000
,  // measure 17
1001
0000
0000
0000
,  // measure 18
1000
0000
0001
0000
,  // measure 19
0001
0000
0001
0000
,  // measure 20
0001
0000
1000
0000
,  // measure 21
1000
0000
1000
0000
,  // measure 22
1000
0000
0010
0000
,  // measure 23
0010
0000
0010
0000
,  // measure 24
0010
1001
0000
1001
,  // measure 25
0000
1001
0000
0000
,  // measure 26
0000
0000
0200
0000
,  // measure 27
0000
0000
0310
0000
,  // measure 28
0010
0000
2000
0000
,  // measure 29
0000
0000
3001
0000
,  // measure 30
0001
0020
0000
0000
,  // measure 31
0000
0032
0000
0000
,  // measure 32
0000
0103
0010
0100
,  // measure 33
0010
2000
0000
0000
,  // measure 34
0000
3001
0010
0001
,  // measure 35
0100
0000
0010
0000
,  // measure 36
0100
0001
1000
0100
,  // measure 37
1000
0000
0000
0010
,  // measure 38
0100
0002
0000
0000
,  // measure 39
1003
0020
0000
0000
,  // measure 40
0130
0002
0000
0000
,  // measure 41
0000
2003
0000
0000
,  // measure 42
0000
3100
1000
0010
,  // measure 43
0100
0001
0010
0001
,  // measure 44
0100
0020
0000
0000
,  // measure 45
0000
0230
0000
0310
,  // measure 46
1000
0002
0000
0000
,  // measure 47
0000
2003
0000
0000
,  // measure 48
0000
3200
0000
2300
,  // measure 49
0000
3020
0000
0000
,  // measure 50
0000
0130
0001
0100
,  // measure 51
0010
1000
0100
0010
,  // measure 52
0001
0100
0010
1000
,  // measure 53
0001
0010
0100
1000
,  // measure 54
0001
2200
0000
0000
,  // measure 55
3300
0022
0000
0000
,  // measure 56
0033
0000
0000
0000
,  // measure 57
0000
1001
0000
0000
0000
0000
0000
0000
,  // measure 58
0000
0010
0100
0001
,  // measure 59
0010
0001
1000
0100
,  // measure 60
1000
1001
0000
1100
,  // measure 61
0000
0011
0000
0000
,  // measure 62
0000
1000
0100
1000
,  // measure 63
0010
0100
0001
0010
,  // measure 64
0001
1000
0100
1000
,  // measure 65
0000
0001
0010
0001
,  // measure 66
0100
0010
0100
0010
,  // measure 67
1000
0100
1000
0001
,  // measure 68
0010
0001
0000
0000
,  // measure 69
0000
2000
0000
0000
,  // measure 70
0000
3002
0000
0000
0000
0000
0000
0000
,  // measure 71
0000
0000
0000
0000
,  // measure 72
0000
0200
0000
0000
,  // measure 73
0000
0303
0000
0000
;

//---------------dance-single - ----------------
#NOTES:
     dance-single:
     :
     Hard:
     7:
     0.495,0.552,0.727,0.229,0.005:
0000
0000
0000
0000
,
0000
0000
0000
0000
,
0000
0000
0000
0000
,
0000
1100
0000
0000
,
0000
0011
0000
0000
,
0000
1001
0000
1001
,
0000
0000
1010
0000
0101
0000
1000
0010
,
0100
0001
1000
0000
0000
0000
0000
0000
,
0000
0011
0000
0000
,
0000
1100
0000
0000
0101
0000
1001
0100
,
0010
0001
0000
0001
0100
0010
1000
0000
,
1000
0001
1010
0000
0101
0000
1001
0010
,
0100
1000
0000
1000
0010
0100
0001
0000
,
0001
1000
0101
0000
1010
0000
1100
0000
,
1100
1010
0101
0011
,
0011
0000
1001
0000
0000
1100
0000
0000
,
1001
2002
0000
0000
,
3003
0011
0000
0000
0100
0000
1000
0000
,
0100
1000
0001
0010
,
0001
0100
0010
1000
,
0100
0010
0001
0010
,
0100
1000
0010
0100
,
0001
0010
0001
1000
,
0010
1001
0100
1001
,
0010
0000
1001
2002
0000
0000
0000
0000
,
3003
0000
0000
0000
0011
0000
0001
0100
,
0000
1010
0000
0000
1000
0100
1000
0000
,
0001
0010
0001
0000
1100
0000
0100
0001
,
0000
1010
0000
0000
0001
0100
0001
0000
,
1000
0010
2000
0000
0000
0000
0000
0000
,
0000
3002
0000
0000
,
0000
1003
0100
1000
,
0100
2002
0000
0000
,
3003
0000
0010
0000
0100
0010
1000
0000
,
0001
0000
0100
0001
1000
0000
0010
0000
,
0100
0010
1000
0000
0010
0000
0100
0001
,
0000
1001
0000
0000
1100
0000
0011
0000
,
1001
2000
0001
0001
,
3001
0200
0010
0010
,
0310
0000
0000
1000
0100
0010
0001
0100
,
0010
1000
0000
1000
0001
0010
0100
1000
,
0010
0100
0011
0000
1100
0000
1001
0000
,
0010
0100
0001
0000
0100
0010
1000
0010
,
1000
0002
1000
1000
,
2003
0001
0001
3001
,
0011
2100
0000
0000
,
0000
3002
0000
0000
,
0000
0000
1003
0100
0000
0000
0100
1000
,
0000
0000
0001
0010
0100
1000
0010
0100
,
0001
0000
1010
0000
0100
0010
1000
0000
,
0010
0100
0001
0000
0010
0000
0100
0000
,
1000
0000
0010
0100
0001
0000
0100
0010
,
1000
0100
0010
0001
,
1000
0022
0000
0000
,
0033
2200
0000
0000
,
3300
0000
0000
0000
1100
0000
0001
0010
,
0000
0000
1001
0000
0000
0000
0000
0000
0000
0000
0000
0000
0100
0000
0000
0010
,
0000
0100
0010
1000
0001
0000
1000
0010
,
0100
0000
0010
0100
0001
0000
0010
0000
,
0001
1001
0000
0011
,
0000
0000
2200
0000
0000
0000
0000
3300
,
0000
0011
0000
0000
1010
0000
1001
0010
,
0100
1000
0000
1000
0010
0100
0001
0000
,
0001
1000
0011
0000
1010
0000
1001
0100
,
0010
0001
0000
0001
0100
0010
1000
0000
,
1000
0001
1010
0000
0101
0000
0011
0000
,
0011
0101
1010
1100
,
1100
0000
1010
0000
0000
0101
0000
0000
,
1001
2002
0000
3003
,
0011
2002
0000
0000
0000
0000
0000
0000
,
0000
0000
0000
0000
,
3003
0000
0011
0000
0000
0101
0000
0000
,
1010
1001
0000
0000
0000
0000
0000
0000
;

//---------------dance-single - ----------------
#NOTES:
     dance-single:
     :
     Challenge:
     8:
     0.632,0.621,0.727,0.057,0.005:
0000
0000
0000
0000
,
0000
0000
0000
0000
,
0000
0000
0000
0000
,
0000
0011
0000
0000
,
0000
1100
0000
0000
,
0000
1001
0000
1001
,
0000
0000
0101
0000
1010
0000
0001
0100
,
0010
1000
0001
0000
0001
0000
0001
0000
,
0001
0000
1100
0000
0100
0000
0010
0001
,
1000
0011
0000
0000
1010
0000
1001
0010
,
0100
1000
0000
1000
0010
0100
0001
0000
,
0001
1000
0101
0000
1010
0000
1001
0100
,
0010
0001
0000
0001
0100
0010
1000
0000
,
1000
0001
1010
0000
0101
0000
0001
0010
,
0011
0000
0101
0000
1010
0000
1000
0100
,
1100
0000
1001
0010
0100
1000
0100
0010
,
0001
0100
1010
0000
0100
0000
0010
0001
,
0100
1001
0000
0000
0010
0100
0001
0000
,
0100
0010
1000
0000
0001
1000
0100
1000
,
0010
0100
0001
0000
0100
0010
1000
0000
,
0010
0100
0001
0000
1000
0001
0100
0010
,
0100
0001
1000
0000
0010
0100
0001
0000
,
0100
0010
1000
0000
0001
0010
0001
0100
,
0001
1000
1001
0000
0010
0000
1001
0000
,
0100
0000
1001
2002
0000
0000
0000
0000
,
3003
0000
0000
0000
1100
0000
1000
0010
,
0000
0101
0000
0000
0001
0010
0001
0010
,
0100
1000
0010
0100
0011
0000
0010
1000
,
0000
0101
0000
0000
1000
0010
1000
0100
,
0010
0001
0100
0010
1000
0010
1000
0010
,
1000
0000
0010
0100
0001
0100
0001
0100
,
0001
1000
0001
0100
0010
0000
0010
0100
,
0001
0100
1001
0000
0010
0000
0010
0100
,
0010
1000
0001
0010
0001
0100
0001
1000
,
0001
0010
0001
0000
1000
0001
1000
0100
,
1000
0010
1000
0001
1000
0100
1000
0010
,
0000
1001
0000
0000
0011
0000
1100
0000
,
1001
0000
0001
0100
0001
1000
0100
1000
,
0001
0010
0000
0010
0001
0010
0001
0100
,
0001
1000
0000
1000
0100
0010
0001
0100
,
0010
1000
0000
1000
0001
0010
0100
1000
,
0010
0100
0011
0000
1100
0000
1001
0000
,
0100
0010
1000
0000
0010
0100
0001
0100
,
0001
0000
1000
0100
1000
0010
1000
0001
,
1000
0000
0001
0010
0001
0100
0001
1000
,
0011
0000
1100
0010
0001
0010
0100
1000
,
0100
0010
1001
0100
0010
1000
0010
0100
,
0001
0000
0010
0011
0000
0000
0100
1100
,
0000
0000
1000
0100
0010
0001
0100
0010
,
1000
0000
0101
0000
0010
0100
0001
0100
,
0010
1000
0010
1000
0001
0000
0100
0010
,
1000
0000
0010
0100
0001
0000
0100
0010
,
1000
0011
0000
0001
0100
0010
1100
0000
,
0011
0000
1001
0100
0010
0001
0010
0100
,
1000
0000
1001
0010
0100
1000
0100
0010
,
0001
0000
0000
0000
0011
0000
1000
0100
,
0000
0000
1001
0000
0000
0000
0000
0000
0000
0000
0000
0000
0010
0000
0000
0100
,
0000
0010
0100
0001
1000
0000
0001
0100
,
0010
0000
0100
0010
1000
0010
0100
0001
,
1000
0000
1001
0010
0100
0000
1100
0010
,
0001
0000
0011
0100
1000
0000
0001
0100
,
0010
1100
0000
0000
0101
0000
1001
0100
,
0010
0001
0000
0001
0100
0010
1000
0000
,
1000
0001
1100
0000
0101
0000
1001
0010
,
0100
1000
0000
1000
0010
0100
0001
0000
,
0001
1000
0101
0000
1010
0000
1000
0100
,
1100
0000
1010
0000
0101
0000
0001
0010
,
0011
0000
0101
0000
0000
1010
0000
0000
,
1001
2002
0000
3003
,
1100
2002
0000
0000
0000
0000
0000
0000
,
0000
0000
0000
0000
,
3003
0000
0011
0000
0000
1010
0000
0000
,
0101
1001
0000
0000
0000
0000
0000
0000
;

//---------------dance-single - ----------------
#NOTES:
     dance-single:
     :
     Beginner:
     2:
     0.122,0.172,0.163,0.000,0.000: // measure 1
0000
0000
0000
0000
,  // measure 2
0000
0000
0000
0000
,  // measure 3
0000
0000
0000
0000
,  // measure 4
0000
0000
0000
0000
,  // measure 5
0000
0000
0000
0000
,  // measure 6
0000
1000
0000
1000
,  // measure 7
0000
0001
0000
0001
,  // measure 8
0000
0000
0000
0000
,  // measure 9
0000
1001
0000
0000
,  // measure 10
0000
0100
0000
0000
,  // measure 11
0000
0000
0010
0000
,  // measure 12
0010
0100
0000
0000
,  // measure 13
0000
0000
0001
0000
,  // measure 14
0001
1000
0000
0000
,  // measure 15
0000
0100
0000
0000
,  // measure 16
0000
1000
0000
0000
,  // measure 17
0000
0000
0000
0000
,  // measure 18
0000
1001
0000
0000
0000
0000
0000
0000
,  // measure 19
0000
0000
0000
0000
,  // measure 20
0000
0010
0000
0000
,  // measure 21
0000
0000
0000
0000
,  // measure 22
0000
0100
0000
0000
,  // measure 23
0000
0000
0000
0000
,  // measure 24
0000
0001
0000
0000
,  // measure 25
0000
0000
0000
0000
,  // measure 26
0000
0000
1001
0000
,  // measure 27
0000
0000
1000
0000
,  // measure 28
0001
0000
1001
0000
,  // measure 29
0000
0000
0010
0000
,  // measure 30
0000
0100
0000
0000
,  // measure 31
0000
0001
0000
0000
,  // measure 32
0000
0110
0000
0000
,  // measure 33
0000
1001
0000
0000
,  // measure 34
0000
0100
0000
0000
,  // measure 35
0000
0010
0000
0000
,  // measure 36
0000
0100
0000
0000
,  // measure 37
0000
0010
0000
0000
,  // measure 38
0000
1000
0000
0000
,  // measure 39
0000
0001
0000
0000
,  // measure 40
0000
1001
0000
0000
0000
0000
0000
0000
,  // measure 41
0001
0000
1000
0000
,  // measure 42
0000
1001
0000
0001
,  // measure 43
0000
0010
0000
0100
,  // measure 44
0000
1000
0000
0100
,  // measure 45
0000
0010
0000
0001
,  // measure 46
0000
1001
0000
0000
,  // measure 47
0000
0100
0000
0000
,  // measure 48
0000
1001
0000
0110
,  // measure 49
0000
1001
0000
0000
,  // measure 50
0000
0010
0000
0000
,  // measure 51
0000
0100
0000
0000
,  // measure 52
0000
0001
0000
0000
,  // measure 53
0000
0010
0000
0000
0000
0000
0000
0000
,  // measure 54
0000
1001
0000
0000
,  // measure 55
0000
0100
0000
0000
,  // measure 56
0000
0000
0000
0000
,  // measure 57
0010
0000
0000
0000
,  // measure 58
0000
0100
0000
0000
,  // measure 59
0000
0100
0000
0000
,  // measure 60
0000
0010
0000
0000
,  // measure 61
0000
1001
0000
0000
,  // measure 62
0000
1000
0000
0000
0000
0000
0000
0000
,  // measure 63
0000
0000
0010
0000
,  // measure 64
0010
0100
0000
0000
,  // measure 65
0000
0000
0001
0000
,  // measure 66
0001
0010
0000
0000
,  // measure 67
0000
0010
0000
0000
,  // measure 68
0000
0001
0000
0000
,  // measure 69
0000
0000
0000
0000
,  // measure 70
0000
1001
0000
0000
0000
0000
0000
0000
,  // measure 71
0000
0000
0000
0000
,  // measure 72
0000
0110
0000
0000
,  // measure 73
0000
1001
0000
0000
0000
0000
0000
0000
;

//---------------dance-single - ----------------
#NOTES:
     dance-single:
     :
     Medium:
     5:
     0.393,0.448,0.488,0.258,0.000: // measure 1
0000
0000
0000
0000
,  // measure 2
0000
0000
0000
0000
,  // measure 3
0000
0000
0000
0000
,  // measure 4
0000
0000
0000
0000
,  // measure 5
0000
0000
0000
0000
,  // measure 6
0000
1001
0000
1001
,  // measure 7
0000
0101
1010
2002
,  // measure 8
0000
3003
0000
0000
,  // measure 9
0000
1100
0000
0000
,  // measure 10
0000
0011
0000
0000
1010
0000
1001
0000
,  // measure 11
0100
0010
0100
0010
,  // measure 12
1000
0101
1010
1001
,  // measure 13
0010
0100
0010
1000
,  // measure 14
0010
0100
0100
0010
,  // measure 15
0010
1000
1000
0001
,  // measure 16
0001
0000
1001
0000
0000
0011
0000
0000
,  // measure 17
1001
2002
0000
0000
,  // measure 18
0000
3003
0010
0001
,  // measure 19
0010
0001
1000
0100
,  // measure 20
1000
0010
0100
0001
,  // measure 21
0010
0100
1000
0100
,  // measure 22
0010
0001
0100
0010
,  // measure 23
1000
0100
1000
0001
,  // measure 24
0100
1001
0010
1001
,  // measure 25
0100
0000
0002
2000
0000
0000
0000
0000
,  // measure 26
3003
0000
2200
0000
,  // measure 27
0000
3300
0000
0000
0001
0000
0010
0000
,  // measure 28
0100
1000
0022
0000
,  // measure 29
0000
0033
0000
0000
1000
0000
0100
0000
,  // measure 30
0010
0002
0000
0000
,  // measure 31
0000
2003
0000
0000
,  // measure 32
0000
3001
0010
0001
,  // measure 33
0010
2002
0000
0000
,  // measure 34
3003
0001
0010
0100
,  // measure 35
1000
0100
1000
0100
,  // measure 36
0010
0001
0100
0101
,  // measure 37
0000
1010
0000
0000
0011
0000
1100
0000
,  // measure 38
1001
0001
0010
0001
,  // measure 39
0010
0100
1000
0100
,  // measure 40
1000
1001
0010
0100
,  // measure 41
1000
0100
0000
0010
0001
0000
0010
0000
,  // measure 42
0100
1001
0010
0100
,  // measure 43
0010
1000
0100
0010
,  // measure 44
0001
1000
0100
0010
,  // measure 45
0001
0100
0010
1000
,  // measure 46
1100
0012
0000
0000
,  // measure 47
0000
2003
0000
0000
,  // measure 48
0000
0000
3001
0010
0000
0000
0010
0001
,  // measure 49
0000
1000
0100
0010
,  // measure 50
0001
0010
0001
0010
,  // measure 51
0100
1000
0100
0010
,  // measure 52
0001
0100
0010
1000
,  // measure 53
0001
0010
0000
0000
0100
0000
1000
0000
,  // measure 54
0001
2200
0000
0000
,  // measure 55
3300
0022
0000
0000
,  // measure 56
0033
0000
0000
0000
0011
0000
1000
0100
,  // measure 57
0000
1001
0000
0000
0000
0000
0200
0000
,  // measure 58
0000
0000
0310
0100
0010
0000
1000
0100
,  // measure 59
1000
0000
0001
0010
0001
0000
0100
0000
,  // measure 60
0010
1001
0000
1100
,  // measure 61
0000
0000
0022
0000
0000
0000
0000
0033
,  // measure 62
0000
1100
0000
0000
0001
0000
0010
0000
,  // measure 63
0100
1000
0000
0001
0010
0000
0100
0000
,  // measure 64
1000
1100
0101
1001
,  // measure 65
0010
0100
0000
0001
1000
0000
0100
0000
,  // measure 66
0010
0001
0001
0100
,  // measure 67
0100
0010
0010
1000
,  // measure 68
1000
0000
0101
0000
0000
1010
0000
0000
,  // measure 69
1001
2002
0000
3003
,  // measure 70
1100
2002
0000
0000
0000
0000
0000
0000
,  // measure 71
0000
0000
0000
0000
,  // measure 72
3003
0000
1100
0000
0000
1010
0000
0000
,  // measure 73
0101
1001
0000
0000
0000
0000
0000
0000
;
