#TITLE:儚きは我が決意;
#SUBTITLE:;
#ARTIST:臨界点パニック;
#TITLETRANSLIT:Kuraki wa waga ketsui;
#SUBTITLETRANSLIT:;
#ARTISTTRANSLIT:RINKAITEN PANIC;
#CREDIT:DMAxel;
#BANNER:Kuraki wa waga ketsui.png;
#BACKGROUND:Kuraki wa waga ketsui-bg.png;
#LYRICSPATH:;
#CDTITLE:pop'n music.png;
#MUSIC:Kuraki wa waga ketsui.mp3;
#OFFSET:-0.060;
#SAMPLESTART:41.047;
#SAMPLELENGTH:12.000;
#SELECTABLE:YES;
#BPMS:0.000=182.000;
#STOPS:;
#BGCHANGES:;

//---------------dance-single - ----------------
#NOTES:
     dance-single:
     :
     Easy:
     3:
     0.247,0.368,0.206,0.148,0.000: // measure 1
0000
0000
0000
0000
,  // measure 2
0000
0000
0000
0000
,  // measure 3
0000
0000
0000
0000
,  // measure 4
0000
0000
0000
0000
,  // measure 5
0000
0000
0000
0000
,  // measure 6
1000
0000
0000
0000
,  // measure 7
0000
0000
0000
0001
,  // measure 8
0000
0000
0000
0000
,  // measure 9
0000
0000
2000
0000
,  // measure 10
3100
1000
0100
0000
,  // measure 11
1000
0001
1000
0000
,  // measure 12
0010
0000
0000
0100
0000
0010
0000
0100
,  // measure 13
0000
1001
0000
0000
1000
0000
0000
0000
,  // measure 14
0001
0000
1000
0000
,  // measure 15
0001
0000
0100
0000
,  // measure 16
0010
0000
0100
0000
,  // measure 17
0010
0000
1000
0000
,  // measure 18
0010
0000
1000
0000
,  // measure 19
0001
0000
0200
0000
,  // measure 20
0000
0000
0310
0100
,  // measure 21
0010
1000
0000
1001
,  // measure 22
0000
0010
0002
0000
,  // measure 23
0000
0000
0103
0010
,  // measure 24
0100
0010
1000
0000
,  // measure 25
0010
0000
0000
1001
,  // measure 26
0000
0010
0002
0000
,  // measure 27
0103
0010
1000
0100
,  // measure 28
1000
0000
1001
0000
,  // measure 29
0001
0100
0020
0000
,  // measure 30
0130
0000
1100
0000
,  // measure 31
0011
0000
1001
0000
,  // measure 32
0000
0000
0002
0000
,  // measure 33
0103
0010
2000
0000
,  // measure 34
3010
0100
0002
0000
,  // measure 35
0013
0001
0100
0100
,  // measure 36
0100
0100
0000
1001
,  // measure 37
0000
0000
0000
0011
0000
0000
0100
0000
,  // measure 38
1000
0100
0000
1001
,  // measure 39
0000
0000
0000
1100
0000
0000
0010
0000
,  // measure 40
0001
0010
1001
0010
,  // measure 41
0100
0010
1001
0100
,  // measure 42
0010
0100
0001
0010
,  // measure 43
0001
0010
0100
1000
,  // measure 44
0100
0010
0001
0000
,  // measure 45
1000
0000
0002
0000
,  // measure 46
0000
0000
1003
0000
,  // measure 47
0001
0000
2000
0000
,  // measure 48
0000
0000
3001
0000
,  // measure 49
0100
0000
0010
0000
,  // measure 50
0100
0000
0020
0000
,  // measure 51
0000
0000
0000
0000
,  // measure 52
0000
0000
0230
0000
,  // measure 53
0000
0000
0000
0000
,  // measure 54
0000
0000
0302
0000
,  // measure 55
0000
0000
0000
0000
,  // measure 56
0000
0000
2003
0000
,  // measure 57
0000
0000
0000
0000
,  // measure 58
0000
0000
3010
0110
,  // measure 59
0000
0000
0000
0110
0000
0000
0000
0000
,  // measure 60
0000
0000
0000
1001
,  // measure 61
0000
0000
0000
1001
0000
0000
0000
0000
,  // measure 62
0000
0000
1000
0000
,  // measure 63
0010
0000
1000
0000
,  // measure 64
0000
0000
0001
0000
,  // measure 65
0100
0000
0001
0000
,  // measure 66
0000
0000
0100
0000
,  // measure 67
0010
0000
0100
0000
,  // measure 68
0000
0000
0010
0000
,  // measure 69
0100
0000
0010
0000
,  // measure 70
0000
0000
1001
0000
,  // measure 71
0000
0000
1100
0000
,  // measure 72
0000
0000
0011
0000
,  // measure 73
0000
0000
1001
0100
,  // measure 74
1000
0010
0000
1001
,  // measure 75
0000
0000
0100
0001
,  // measure 76
0010
0100
0000
1001
,  // measure 77
0000
0000
0010
1000
,  // measure 78
0100
0010
0000
1001
,  // measure 79
0000
0010
0001
0100
,  // measure 80
0010
0100
0001
0000
,  // measure 81
0000
0010
0100
1000
,  // measure 82
0010
0100
0010
0000
,  // measure 83
1000
0000
0200
0000
,  // measure 84
0000
0300
1000
0000
,  // measure 85
0001
0000
0020
0000
,  // measure 86
0000
0030
0001
0000
,  // measure 87
1000
0000
0010
0000
,  // measure 88
0100
0000
2002
0000
,  // measure 89
0000
0000
0000
0000
,  // measure 90
3003
0000
0010
0000
;

//---------------dance-single - ----------------
#NOTES:
     dance-single:
     :
     Hard:
     7:
     0.515,0.553,0.403,0.198,0.000: // measure 1
0000
0000
0000
0000
,  // measure 2
0000
0000
0000
0000
,  // measure 3
0000
0000
0000
0000
,  // measure 4
0000
0000
0000
0000
,  // measure 5
0000
0000
0000
1100
,  // measure 6
1000
0010
0000
0202
0000
0000
0000
0000
,  // measure 7
0000
0303
0000
0011
,  // measure 8
0001
0100
0000
2020
0000
0000
0000
0000
,  // measure 9
0000
3030
0100
0100
,  // measure 10
0100
1000
0100
0010
0000
0000
0001
0000
,  // measure 11
0010
0001
0010
0100
0000
0000
1000
0000
,  // measure 12
0100
0000
0100
1000
0000
1010
0000
0110
,  // measure 13
0000
1001
0000
0000
0010
0000
0001
0000
,  // measure 14
0010
0001
0010
0100
,  // measure 15
1000
0010
0000
1000
0000
0000
0100
0000
,  // measure 16
1000
0100
1000
0100
,  // measure 17
0010
0000
0001
0000
1001
0000
0010
0001
,  // measure 18
0000
0010
0000
0001
0100
0000
0010
0100
,  // measure 19
0010
0000
1000
0001
1000
0000
0100
0000
,  // measure 20
0010
0000
0001
0100
0000
0010
0100
0010
,  // measure 21
0100
0010
0100
0000
0000
0000
1001
0000
,  // measure 22
0010
0001
0010
0100
0000
0000
1000
0010
,  // measure 23
0000
0100
0010
0100
0010
0000
1000
0000
,  // measure 24
0100
0001
0100
0010
0000
1100
0000
1000
,  // measure 25
0100
0000
1000
0100
0010
0000
1001
0000
,  // measure 26
0100
1000
0100
0010
0000
0000
0001
0100
,  // measure 27
0000
0010
0100
0010
0100
0000
0011
0000
,  // measure 28
0010
1000
0010
0000
1100
0000
0100
0001
,  // measure 29
0100
1001
0020
0000
,  // measure 30
0032
0000
2003
0000
,  // measure 31
3200
0000
1300
0000
,  // measure 32
0000
0000
0000
0000
0010
0000
0001
0100
,  // measure 33
0000
0100
0010
0000
1000
0000
0010
1000
,  // measure 34
0000
1000
0100
0000
1000
0000
0010
0000
,  // measure 35
1000
0100
1000
0010
0000
0100
0010
0100
,  // measure 36
0010
0100
0010
0000
0000
0000
1001
0000
,  // measure 37
0100
0001
0000
0010
0000
0000
0100
1000
,  // measure 38
0100
1000
0100
0000
0000
0000
1001
0000
,  // measure 39
0010
1000
0000
0100
0000
0000
0010
0001
,  // measure 40
0010
0001
0010
0000
1001
0000
0010
1000
,  // measure 41
0000
1000
0100
0000
0010
0000
0001
0100
,  // measure 42
0000
0100
0010
0000
1000
0000
0100
0000
,  // measure 43
0001
0010
0000
0001
0100
0001
0100
0001
,  // measure 44
0100
0010
1000
0010
0000
1000
0100
0010
,  // measure 45
0001
0000
0000
0000
0200
0000
0000
0001
,  // measure 46
0000
0301
0000
1001
0000
0001
0010
0100
,  // measure 47
1000
0000
0000
0000
0020
0000
0000
1000
,  // measure 48
0000
1030
0000
1001
0000
1000
0100
0010
,  // measure 49
0001
0000
0000
1000
0000
1001
0000
0001
,  // measure 50
0000
1001
0000
0001
0100
0000
0010
0100
,  // measure 51
0010
0000
0100
0001
0100
0001
0100
0001
,  // measure 52
0100
0010
0100
0000
0010
0000
1000
0010
,  // measure 53
0000
0010
1000
0000
0010
0100
0010
0100
,  // measure 54
0010
0100
0001
0000
0100
0000
0001
0010
,  // measure 55
0001
0010
0001
0010
0001
0000
0100
0001
,  // measure 56
0100
0010
0100
0000
0110
0000
0000
0011
,  // measure 57
0000
0011
0000
1001
0000
1000
0010
1000
,  // measure 58
0010
1000
0010
0000
1100
0000
1001
0000
,  // measure 59
0100
0001
0100
0010
0000
0100
0001
0200
,  // measure 60
0000
0020
0000
0000
0330
0000
1001
0000
,  // measure 61
0010
1000
0010
0100
0000
0010
0000
1000
,  // measure 62
0000
0010
0000
0200
0000
0000
0000
0000
,  // measure 63
0001
0000
0000
0302
0000
0000
0000
1000
,  // measure 64
0000
0000
2003
0000
,  // measure 65
0010
0000
0000
3020
0000
0000
0000
0100
,  // measure 66
0000
0000
0030
1100
,  // measure 67
1000
0010
0000
0110
0000
1010
0000
1001
,  // measure 68
0000
0001
0100
0000
0002
0000
0000
0000
,  // measure 69
2003
0000
3001
0000
,  // measure 70
0000
0000
0000
0000
2001
0000
0000
3010
,  // measure 71
0000
0000
0000
0000
1002
0000
0000
0103
,  // measure 72
0000
0000
0110
0000
,  // measure 73
1001
0000
0000
1000
0000
0100
1000
0100
,  // measure 74
1000
0100
0010
0000
0000
0000
1001
0000
,  // measure 75
0100
0001
0000
0010
0001
0010
0001
0010
,  // measure 76
0100
1010
0000
1001
,  // measure 77
0010
1000
0000
0100
1000
0100
1000
0100
,  // measure 78
0010
0101
0000
1001
,  // measure 79
0010
0001
0000
0010
0000
0001
0100
0001
,  // measure 80
0100
0010
0000
1001
0000
0000
0010
0000
,  // measure 81
1000
0010
1000
0100
1000
0100
1000
0100
,  // measure 82
0010
0000
0000
0101
0000
1000
0100
0010
,  // measure 83
0001
0000
0000
0000
0200
0000
0000
0001
,  // measure 84
0000
0301
0000
1001
0000
0001
0010
0100
,  // measure 85
1000
0000
0000
0000
0020
0000
0000
1000
,  // measure 86
0000
1030
0000
1001
0000
1000
0100
0010
,  // measure 87
0001
0000
0100
0001
0000
0011
0000
0101
,  // measure 88
0000
0110
0000
2002
0000
0000
0000
0000
,  // measure 89
0000
0000
0000
0000
,  // measure 90
3003
0000
0010
0000
;

//---------------dance-single - ----------------
#NOTES:
     dance-single:
     :
     Challenge:
     8:
     0.621,0.589,0.617,0.074,0.049: // measure 1
0000
0000
0000
0000
,  // measure 2
0000
0000
0000
0000
,  // measure 3
0000
0000
0000
0000
,  // measure 4
0000
0000
0000
0000
,  // measure 5
0000
0000
0000
1100
,  // measure 6
1000
0010
0000
0202
0000
0000
0000
0000
,  // measure 7
0000
0303
0010
0011
,  // measure 8
0001
0100
0000
1010
0000
1000
0010
1000
,  // measure 9
0010
1000
0010
0100
0000
0000
0010
1000
,  // measure 10
0010
1000
0100
0010
0000
0000
0001
0100
,  // measure 11
0001
0100
0001
0010
0000
0000
0100
1000
,  // measure 12
0100
1000
0100
0110
0000
0101
0000
1100
,  // measure 13
0000
1001
0000
0000
0100
0001
0100
0001
,  // measure 14
0010
0000
0001
0100
0001
0100
0010
1000
,  // measure 15
0010
1000
0000
1001
0000
0000
0010
1000
,  // measure 16
0010
1000
0100
0000
1000
0100
0010
0000
,  // measure 17
0001
0010
0001
0010
1001
0000
0010
1000
,  // measure 18
0000
1000
0100
1000
0100
0000
1000
0010
,  // measure 19
1000
0000
0001
0100
0020
0000
0100
0000
,  // measure 20
0130
0000
0001
0100
0000
0010
0100
0010
,  // measure 21
1000
0100
0010
0000
0001
0000
1001
0000
,  // measure 22
0010
0001
0010
0100
0000
1000
0100
0010
,  // measure 23
0000
0001
0010
0001
0010
0000
0101
0000
,  // measure 24
0010
1000
0010
0100
0000
0101
0000
0010
,  // measure 25
0100
0000
1000
0100
0010
0000
1001
0000
,  // measure 26
0100
1000
0100
0010
0000
0001
0010
0100
,  // measure 27
0000
1000
0100
1000
0100
0000
0011
0000
,  // measure 28
0010
1000
0010
0000
1100
0000
0100
0001
,  // measure 29
0100
1001
0011
0100
,  // measure 30
1000
0000
0100
0000
1000
0000
0100
0000
0010
0000
0001
0000
,  // measure 31
0010
0000
0001
0000
0100
0000
0110
0000
0000
0000
0000
0000
,  // measure 32
0000
0000
0000
0000
0011
0000
0001
0100
,  // measure 33
0000
0100
0010
1000
0010
0000
1000
0010
,  // measure 34
0000
0010
0100
0001
0100
0000
0001
0010
,  // measure 35
0001
0100
0001
0100
0000
0010
0100
0010
,  // measure 36
1000
0100
0010
0000
0001
0000
1001
0000
,  // measure 37
0100
0001
0000
0011
0000
0100
1000
0100
,  // measure 38
1000
0010
0100
0000
0001
0000
1001
0000
,  // measure 39
0010
1000
0000
1100
0000
0010
0001
0010
,  // measure 40
0001
0100
0010
0000
1001
0000
0010
1000
,  // measure 41
0000
1000
0100
1000
0010
0000
0100
0001
,  // measure 42
0000
0001
0010
0001
0100
0000
0001
0100
,  // measure 43
0001
0010
0100
1000
0000
1000
0010
1000
,  // measure 44
0010
0100
0001
0100
0000
0001
0010
0100
,  // measure 45
1000
0000
0000
0000
0001
0100
0000
0101
,  // measure 46
0000
0101
0000
1001
0000
1000
0100
0010
,  // measure 47
0001
0000
0000
0000
1000
0010
0000
1010
,  // measure 48
0000
1010
0000
1001
0000
0001
0010
0100
,  // measure 49
1000
0000
0010
1000
0000
1100
0000
1001
,  // measure 50
0000
0011
0000
0001
0100
0000
0010
0100
,  // measure 51
0010
0100
0001
0100
0001
0010
0100
1000
,  // measure 52
0100
0010
0001
0000
0100
0010
0100
0010
,  // measure 53
0000
0010
1000
0100
0010
0001
0010
0100
,  // measure 54
1000
0100
0010
0000
1001
0000
0100
0010
,  // measure 55
0001
0010
0001
0010
0001
0010
0100
0010
,  // measure 56
0100
0010
0100
0000
1010
0000
0100
0101
,  // measure 57
0000
0110
0000
1001
0000
1000
0010
0100
,  // measure 58
0010
0100
0010
0000
1100
0000
1001
0000
,  // measure 59
0100
0001
0100
0010
0000
0100
0001
0100
,  // measure 60
0000
0010
1000
0000
1100
0000
1001
0000
,  // measure 61
0010
1000
0010
0100
0000
0010
1000
0010
,  // measure 62
0000
0110
0000
0100
0001
0000
0010
0000
,  // measure 63
0001
0100
0000
0110
0000
1000
0000
0110
,  // measure 64
0000
0001
0100
0000
0010
0000
0100
0000
,  // measure 65
0001
0010
0000
1001
0000
0100
0000
1001
,  // measure 66
0000
0100
0010
0000
0000
0000
1100
0000
,  // measure 67
1000
0010
0000
0110
0000
1010
0000
1001
,  // measure 68
0000
0000
0000
0001
0000
0000
0100
0000
0000
0000
0000
0000
0001
0000
0000
0000
0010
0000
0000
0000
0001
0000
0000
0000
,  // measure 69
0010
0000
0100
0000
1000
0000
0110
0000
0000
0000
0000
0000
,  // measure 70
0000
1000
0000
0000
1001
0000
0000
2200
,  // measure 71
0000
0000
3300
0000
1001
0000
0000
0022
,  // measure 72
0000
0000
0000
0033
0000
0000
1000
0000
0010
0000
1000
0000
,  // measure 73
0010
0100
0000
0011
0000
0100
1000
0100
,  // measure 74
1000
0100
0010
0000
0001
0000
1001
0000
,  // measure 75
0100
0001
0000
0010
0001
0010
0001
0010
,  // measure 76
0100
1010
1000
1001
,  // measure 77
0010
1000
0000
0100
1000
0100
1000
0100
,  // measure 78
0010
0101
0001
1001
,  // measure 79
0010
0001
0000
0010
0000
0001
0100
0001
,  // measure 80
0100
0010
0000
1001
0000
0000
0010
0000
,  // measure 81
1000
0010
1000
0100
1000
0100
1000
0100
,  // measure 82
0010
0001
0100
0001
0000
1000
0100
0010
,  // measure 83
0001
0000
0000
0000
0100
0001
0000
0101
,  // measure 84
0000
0101
0000
1001
0000
0001
0010
0100
,  // measure 85
1000
0000
0000
0000
0010
1000
0000
1010
,  // measure 86
0000
1010
0000
1001
0000
1000
0100
0010
,  // measure 87
0001
0000
0100
0001
0000
0011
0000
0101
,  // measure 88
0000
0110
0000
2020
0000
0000
0000
0000
,  // measure 89
0000
0000
0000
0000
,  // measure 90
3030
0000
1001
0000
;

//---------------dance-single - ----------------
#NOTES:
     dance-single:
     :
     Beginner:
     1:
     0.083,0.147,0.115,0.000,0.000: // measure 1
0000
0000
0000
0000
,  // measure 2
0000
0000
0000
0000
,  // measure 3
0000
0000
0000
0000
,  // measure 4
0000
0000
0000
0000
,  // measure 5
0000
0000
0000
1000
,  // measure 6
0000
0000
0000
0000
,  // measure 7
0000
0000
0000
0001
,  // measure 8
0000
0000
0000
0000
,  // measure 9
0000
0000
1000
0000
,  // measure 10
0000
0000
0001
0000
,  // measure 11
0000
0000
1000
0000
,  // measure 12
0000
0000
0010
0000
,  // measure 13
0000
0000
0110
0000
,  // measure 14
0000
0000
0000
0000
,  // measure 15
0000
0000
0100
0000
,  // measure 16
0000
0000
0000
0000
,  // measure 17
0000
0000
0010
0000
,  // measure 18
0000
0000
0000
0000
,  // measure 19
0000
0000
1000
0000
,  // measure 20
0000
0000
0010
0000
,  // measure 21
0000
0000
1000
0000
,  // measure 22
0000
0000
0000
0000
,  // measure 23
0000
0000
0001
0000
,  // measure 24
0000
0000
0000
0000
,  // measure 25
0000
0000
0100
0000
,  // measure 26
0000
0000
0000
0000
,  // measure 27
0000
0000
0001
0000
,  // measure 28
0000
0000
0000
0000
,  // measure 29
0000
0000
1000
0000
,  // measure 30
0000
0000
0000
0000
,  // measure 31
0000
0000
1001
0000
,  // measure 32
0000
0000
0010
0000
,  // measure 33
0000
0000
0010
0000
,  // measure 34
0000
0000
0010
0000
,  // measure 35
0000
0000
0010
0000
,  // measure 36
0000
0000
0000
1001
,  // measure 37
0000
0000
0000
0000
,  // measure 38
0000
0000
0000
1001
,  // measure 39
0000
0000
0000
0000
,  // measure 40
0000
0000
0100
0000
,  // measure 41
0000
0000
0100
0000
,  // measure 42
0000
0000
0100
0000
,  // measure 43
0000
0000
0100
0000
,  // measure 44
0000
0000
0001
0000
,  // measure 45
0000
0000
0000
0000
,  // measure 46
0000
0000
1000
0000
,  // measure 47
0000
0000
0000
0000
,  // measure 48
0000
0000
0001
0000
,  // measure 49
0000
0000
1000
0000
,  // measure 50
0000
0000
0001
0000
,  // measure 51
0000
0000
0000
0000
,  // measure 52
0000
0000
0010
0000
,  // measure 53
0000
0000
0000
0000
,  // measure 54
0000
0000
0100
0000
,  // measure 55
0000
0000
0000
0000
,  // measure 56
0000
0000
1000
0000
,  // measure 57
0000
0000
0000
0000
,  // measure 58
0000
0000
0000
1001
,  // measure 59
0000
0000
0000
0000
,  // measure 60
0000
0000
0000
0110
,  // measure 61
0000
0000
0000
0000
,  // measure 62
0000
0000
0001
0000
,  // measure 63
0000
0000
0000
0000
,  // measure 64
0000
0000
1000
0000
,  // measure 65
0000
0000
0000
0000
,  // measure 66
0000
0000
0001
0000
,  // measure 67
0000
0000
0000
0000
,  // measure 68
0000
0000
1000
0000
,  // measure 69
0000
0000
1001
0000
,  // measure 70
0000
0000
0110
0000
,  // measure 71
0000
0000
1001
0000
,  // measure 72
0000
0000
0110
0000
,  // measure 73
0000
0000
1001
0000
,  // measure 74
0000
0000
0000
1001
,  // measure 75
0000
0000
0000
0000
,  // measure 76
0000
0000
0000
0110
,  // measure 77
0000
0000
0000
0000
,  // measure 78
0000
0000
0000
1001
,  // measure 79
0000
0000
1000
0000
,  // measure 80
0000
0000
0001
0000
,  // measure 81
0000
0000
1000
0000
,  // measure 82
0000
0000
0000
0000
,  // measure 83
0001
0000
0000
0000
,  // measure 84
0000
0000
0000
0000
,  // measure 85
1000
0000
0000
0000
,  // measure 86
0000
0000
0000
0000
,  // measure 87
0001
0000
0000
0000
,  // measure 88
0000
0000
0000
1000
0000
0000
0000
0000
,  // measure 89
0000
0000
0000
0000
,  // measure 90
0000
0000
0010
0000
;

//---------------dance-double - ----------------
#NOTES:
     dance-double:
     :
     Easy:
     4:
     0.288,0.368,0.280,0.156,0.000:
00000000
00000000
00000000
00000000
,
00000000
00000000
00000000
00000000
,
00000000
00000000
00000000
00000000
,
00000000
00000000
00000000
00000000
,
00000000
00000000
00000000
00000000
,
20200000
00000000
00000000
00000000
,
00000000
30300000
00000000
02020000
,
00000000
00000000
00000000
00000000
,
03030000
00000000
10000000
10000000
,
01000000
00100000
00010000
00000000
,
00001000
00001000
00000001
00000010
,
00000100
00000000
00000000
00011000
00000000
00100000
00000000
00001000
,
00000000
00011000
00000000
00000000
10000000
00000000
00000000
00000000
,
00010000
00000000
10000000
00000000
,
00010000
00000000
00001000
00000000
,
00000100
00000000
00000010
00000000
,
00000001
00001000
00000001
00000000
,
00000010
00000000
00000100
00000000
,
00001000
00000000
00010000
10000000
,
00010000
00000000
01000000
00100000
,
01000000
00010000
00100000
00011000
,
00000000
00000010
00001000
00000010
,
00001000
00000000
00000010
00000100
,
00000010
00000100
00000001
00000000
,
00000100
00000000
00000000
00011000
,
00000000
00100000
00010000
00100000
,
01000000
10000000
00100000
00100000
,
00100000
00000000
01000000
01000000
,
01000000
00000000
00010000
00010000
,
00011000
00000000
00011000
00000000
,
00011000
00000000
00001001
00000000
,
00000000
00000000
00002000
00000000
,
00003010
00000100
00000002
00000000
,
00000103
00000010
00002000
00000000
,
00013000
00100000
01000000
10000000
,
01000000
10000000
00000000
10010000
,
00000000
00000000
00000000
00110000
00000000
00000000
00001000
00000000
,
00010000
00001000
00000000
00001001
,
00000000
00000000
00000000
00001100
00000000
00000000
00010000
00000000
,
00001000
00010000
00001001
00000100
,
00000010
00000100
00001001
00000010
,
00000100
00000010
00010000
00001000
,
00010000
00100000
01000000
10000000
,
01000000
00100000
00020000
00000000
,
10030000
00000000
00022000
00000000
,
00000000
00033000
00002000
00000000
,
00003001
00000000
00022000
00000000
,
00000000
00033000
00011000
00000000
,
01000000
00100000
00100000
00100000
,
01000000
01000000
01100000
00000000
,
00010000
00000000
00100000
00000000
,
00010000
00000000
00001000
00000000
,
00000100
00000000
00001000
00000000
,
00000100
00000000
00010000
00000000
,
00100000
00000000
00010000
00000000
,
00100000
00000000
00001000
00000000
,
00000100
00000000
00001000
00000000
,
00000100
00000000
00000010
00001001
,
00000000
00000000
00000000
00001100
00000000
00000000
00000000
00000000
,
00000000
00000000
00000000
00011000
,
00000000
00000000
00000000
00110000
00000000
00000000
00000000
00000000
,
00000000
00000000
00010000
00000000
,
10000000
00000000
00010000
00000000
,
00000000
00000000
00001000
00000000
,
00000001
00000000
00001000
00000000
,
00000000
00000000
00001000
00000000
,
00010000
00000000
00001000
00000000
,
00000000
00000000
00010000
00000000
,
00001000
00000000
00010000
00000000
,
00000000
00000000
10010000
00000000
,
00000000
00000000
01100000
00000000
,
00000000
00000000
10010000
00000000
,
00000000
00000000
00011000
00000100
,
00000010
00000001
00000000
00001001
,
00000000
00000000
00000001
00000010
,
00000100
00001000
00000000
00011000
,
00000000
00000000
00100000
01000000
,
10000000
01000000
00000000
10010000
,
00000000
00100000
00010000
01000000
,
00100000
01000000
00010000
00000000
,
00000000
00000100
00000010
00000001
,
00000100
00000010
00000100
00000000
,
00000001
00000000
00022000
00000000
,
00000000
00033000
01000000
00000000
,
00010000
00000000
00022000
00000000
,
00000000
00033000
00000010
00000000
,
00001000
00000000
00000010
00000000
,
00000100
00000000
00002002
00000000
,
00000000
00000000
00000000
00000000
,
00003003
00000000
00010000
00000000
;

//---------------dance-single - ----------------
#NOTES:
     dance-single:
     :
     Medium:
     6:
     0.387,0.479,0.338,0.107,0.000: // measure 1
0000
0000
0000
0000
,  // measure 2
0000
0000
0000
0000
,  // measure 3
0000
0000
0000
0000
,  // measure 4
0000
0000
0000
0000
,  // measure 5
0000
0000
0000
1001
,  // measure 6
0001
0000
0000
0020
0000
0000
0000
0000
,  // measure 7
0000
0030
0000
1001
,  // measure 8
1000
0000
0000
0200
0000
0000
0000
0000
,  // measure 9
0000
0300
1000
1000
,  // measure 10
1000
0000
0000
1001
0000
0000
0001
0000
,  // measure 11
0001
0000
0000
1001
0000
0000
1000
0000
,  // measure 12
1000
0000
0000
0010
0000
0100
0000
0010
,  // measure 13
0000
1001
0000
0000
0010
0000
1000
0000
,  // measure 14
0010
1000
0100
0010
,  // measure 15
0001
0100
0001
0100
,  // measure 16
0001
0100
0001
0010
,  // measure 17
0100
1000
1001
0100
,  // measure 18
1000
0100
0010
0001
,  // measure 19
0100
0001
0100
0001
,  // measure 20
0010
0000
0100
0000
1000
0000
0010
0100
,  // measure 21
0010
0100
0010
0000
0000
0000
1001
0000
,  // measure 22
0100
0000
0000
1000
0000
0000
0000
0001
,  // measure 23
0000
0000
0100
0010
0100
0000
0001
0000
,  // measure 24
0010
0000
0100
0000
0000
1000
0000
0001
,  // measure 25
0000
0000
0100
0010
0100
0000
0001
0000
,  // measure 26
0010
0000
0000
0100
0000
0000
0000
1000
,  // measure 27
0000
0000
0010
0100
0010
0000
1100
0000
,  // measure 28
0100
0100
0011
0010
,  // measure 29
0010
1001
0200
0000
,  // measure 30
1300
0000
0100
0000
,  // measure 31
0010
0000
1001
0000
,  // measure 32
0000
0000
0100
1000
,  // measure 33
0100
0010
0001
0100
,  // measure 34
0001
0010
0001
0100
,  // measure 35
0001
0000
0100
0010
0000
0000
0100
0010
,  // measure 36
0100
0010
0100
0000
0000
0000
1001
0000
,  // measure 37
1010
0000
0000
0100
0000
0000
0010
0000
,  // measure 38
0001
0010
0000
1001
,  // measure 39
0101
0000
0000
0010
0000
0000
0100
0000
,  // measure 40
1000
0100
1001
0100
,  // measure 41
0001
0010
0100
1000
,  // measure 42
0010
0100
0001
0010
,  // measure 43
0100
0000
1000
0000
0010
1000
0010
0000
,  // measure 44
0100
0001
0100
0001
0000
0000
0010
0000
,  // measure 45
0100
0000
2002
0000
,  // measure 46
0000
3003
0000
1000
0000
0000
0100
0000
,  // measure 47
0010
0000
2002
0000
,  // measure 48
0000
3003
0000
0001
0000
0000
0010
0000
,  // measure 49
0100
0000
0000
1000
0000
0001
0000
1000
,  // measure 50
0000
0001
0000
0100
0010
0000
0100
0000
,  // measure 51
0001
0010
0100
1000
,  // measure 52
0100
0010
0001
0100
,  // measure 53
0001
0100
0010
0100
,  // measure 54
0010
1000
0010
1000
,  // measure 55
0010
1000
0100
0010
,  // measure 56
0001
0000
0110
0000
0110
0000
0000
1001
,  // measure 57
0000
1001
0000
1001
0000
0001
0100
0000
,  // measure 58
0010
0100
0011
1001
,  // measure 59
0010
0000
0100
0010
0000
0000
1000
0000
,  // measure 60
0100
0010
0000
1001
,  // measure 61
0010
0100
0000
0001
0000
0010
0000
0100
,  // measure 62
0000
1000
0000
0010
0000
0000
0000
0000
,  // measure 63
1000
0000
0000
0010
0000
0000
0000
0100
,  // measure 64
0000
0000
0001
0000
,  // measure 65
0010
0000
0000
0100
0000
0000
0000
1000
,  // measure 66
0000
0000
0000
0011
,  // measure 67
0001
0000
0000
0100
0000
0010
0000
0100
,  // measure 68
0000
0010
1000
0000
0100
0000
0000
0000
,  // measure 69
0010
0000
1001
0000
,  // measure 70
0000
0000
0000
0000
0101
0000
0000
0100
,  // measure 71
0000
0000
0000
0000
1010
0000
0000
0010
,  // measure 72
0000
0000
0110
0000
,  // measure 73
1001
0000
0000
0001
0000
0010
0001
0000
,  // measure 74
0010
0100
0000
1001
,  // measure 75
0010
1000
0000
0100
0000
0000
0010
0000
,  // measure 76
0001
0101
0000
1001
,  // measure 77
0100
0001
0000
0010
0000
0000
0100
0000
,  // measure 78
1000
1010
0000
1001
,  // measure 79
0100
0000
1000
0100
1000
0000
0010
0000
,  // measure 80
0100
0010
0000
1001
0000
0000
0100
0000
,  // measure 81
0001
0100
0001
0000
0010
0000
0100
0000
,  // measure 82
1000
0000
0000
0001
0000
0000
0010
0000
,  // measure 83
0100
0000
2200
0000
,  // measure 84
0000
3300
0000
1000
0000
0000
0100
0000
,  // measure 85
0010
0000
0022
0000
,  // measure 86
0000
0033
0000
0001
0000
0000
0010
0000
,  // measure 87
0100
0000
1000
0010
0000
0100
0000
0010
,  // measure 88
0000
0100
0000
2002
0000
0000
0000
0000
,  // measure 89
0000
0000
0000
0000
,  // measure 90
3003
0000
0100
0000
;

//---------------dance-double - ----------------
#NOTES:
     dance-double:
     :
     Medium:
     6:
     0.413,0.479,0.420,0.107,0.000:
00000000
00000000
00000000
00000000
,
00000000
00000000
00000000
00000000
,
00000000
00000000
00000000
00000000
,
00000000
00000000
00000000
00000000
,
00000000
00000000
00000000
10010000
,
00100000
00000000
00000000
00020000
00000000
00000000
00000000
00000000
,
00000000
00030000
00000000
00001001
,
00000100
00000000
00000000
00002000
00000000
00000000
00000000
00000000
,
00000000
00003000
00000001
00001000
,
00000001
00000000
00000000
00011000
00000000
00000000
10000000
00000000
,
00010000
00000000
00000000
00011000
00000000
00000000
00000001
00000000
,
00001000
00000000
00000000
00000100
00000000
00010000
00000000
00000100
,
00000000
00001001
00000000
00000000
00000100
00000000
00000001
00000000
,
00000100
00000001
00000010
00000100
,
00001000
00000010
00011000
01000000
,
00010000
01000000
00010000
00100000
,
01000000
10000000
10010000
00100000
,
01000000
00100000
10000000
01000000
,
00100000
00010000
00001000
00000100
,
00001000
00000000
00000010
00000100
00000001
00000000
00000100
00000010
,
00000100
00000010
00000100
00000000
00000000
00000000
00001001
00000000
,
00000010
00000000
00000000
00000001
00000000
00000000
00000000
00001000
,
00000000
00000000
00000010
00000100
00000010
00000000
00001000
00000000
,
00000100
00000000
00000010
00000000
00000000
00000001
00000000
00001000
,
00000000
00000000
00000010
00000100
00000010
00000000
00011000
00000000
,
00100000
00000000
00000000
01000000
00000000
00000000
00000000
10000000
,
00000000
00000000
00100000
01000000
00100000
00000000
11000000
00000000
,
01000000
01000000
00110000
00100000
,
00100000
10010000
02000000
00000000
,
13000000
00000000
01000000
00000000
,
00100000
00000000
00011000
00000000
,
00000000
00000000
00001001
00000001
,
00000001
00000001
00001001
00001000
,
00001000
00001000
00011000
01000000
,
00010000
00000000
01000000
00100000
00000000
00000000
01000000
00100000
,
01000000
00100000
01000000
00000000
00000000
00000000
10010000
00000000
,
10100000
00000000
00000000
01000000
00000000
00000000
00100000
00000000
,
00010000
00100000
00000000
00011000
,
00001010
00000000
00000000
00000100
00000000
00000000
00000010
00000000
,
00000001
00000010
00001001
00000001
,
00000001
00000001
00001001
00001000
,
00001000
00001000
00011000
00100000
,
01000000
00000000
10000000
00000000
00100000
10000000
00100000
00000000
,
01000000
00010000
01000000
00010000
00000000
00000000
00100000
00000000
,
01000000
00000000
20020000
00000000
,
00000000
30030000
00000000
10000000
00000000
00000000
01000000
00000000
,
00100000
00000000
20020000
00000000
,
00000000
30030000
00000000
00010000
00000000
00000000
00001000
00000000
,
00100000
00000000
00001000
00010000
00000000
00001000
00000000
00000100
,
00000000
00000010
00000000
00000001
00000100
00000000
00000010
00000000
,
00001000
00000100
00000010
00000001
,
00000010
00000100
00011000
00100000
,
01000000
10000000
00100000
01000000
,
00100000
10000000
00100000
10000000
,
00100000
10000000
01000000
00100000
,
00010000
00000000
00100000
00000000
00011000
00000000
00000000
00001001
,
00000000
00001001
00000000
00001001
00000000
00001000
00000010
00000000
,
00000100
00000010
00001100
00001001
,
00000100
00000000
00000010
00000100
00000000
00000000
00000001
00000000
,
00000010
00000100
00000000
00011000
,
00100000
01000000
00000000
10000000
00000000
00010000
00000000
00100000
,
00000000
01000000
00000000
20000000
00000000
00000000
00000000
00000000
,
00100000
00000000
00000000
30200000
00000000
00000000
00000000
01000000
,
00000000
00000000
02300000
00000000
,
00010000
00000000
00000000
03020000
00000000
00000000
00000000
00100000
,
00000000
00030000
00000000
00110000
,
00010000
00001000
00000000
00000110
00000000
00000101
00000000
00000010
,
00000000
00000100
00000001
00000000
00000010
00000000
00000000
00000000
,
00000100
00000000
00011000
00000000
,
00000000
00000000
00000000
00000000
00001010
00000000
00000000
00000010
,
00000000
00000000
00000000
00000000
00000101
00000000
00000000
00000100
,
00000000
00000000
00000110
00000000
,
00001001
00000000
00000000
00001000
00000000
00000100
00001000
00000000
,
00000100
00000010
00000000
00011000
,
00100000
01000000
00000000
10000000
00000000
00000000
00100000
00000000
,
00010000
01010000
00000000
10010000
,
01000000
00010000
00000000
00100000
00000000
00000000
01000000
00000000
,
10000000
10100000
00000000
00011000
,
00000100
00000000
00001000
00000100
00001000
00000000
00000010
00000000
,
00000100
00000010
00000000
00001001
00000000
00000000
00000100
00000000
,
00000001
00000100
00000001
00000000
00000010
00000000
00000100
00000000
,
00001000
00000000
00000000
00011000
00000000
00000000
00100000
01000000
,
00100000
00000000
00000000
00000000
01000000
10000000
00000000
10000000
,
00000000
00010000
00000000
00011000
00000000
00000000
00000100
00000010
,
00000100
00000000
00000000
00000000
00000010
00000001
00000000
00000001
,
00000000
00001000
00000000
00011000
00000000
00000000
01000000
00100000
,
01000000
00000000
00010000
10000000
00000000
01000000
00000000
00100000
,
00000000
00010000
00000000
00022000
00000000
00000000
00000000
00000000
,
00000000
00000000
00000000
00000000
,
00033000
00000000
00000010
00000000
;
