#TITLE:愛車はタワシで洗ってる!?;
#SUBTITLE:;
#ARTIST:すわひでお;
#TITLETRANSLIT:Kikai wa tawashi de aratteru!?;
#SUBTITLETRANSLIT:;
#ARTISTTRANSLIT:HIDEO SUWA;
#CREDIT:DMAxel;
#BANNER:Kikai wa tawashi de aratteru!.png;
#BACKGROUND:Kikai wa tawashi de aratteru!-bg.png;
#LYRICSPATH:;
#CDTITLE:Konami original REMIX.png;
#MUSIC:Kikai wa tawashi de aratteru!.mp3;
#OFFSET:-8.680;
#SAMPLESTART:62.055;
#SAMPLELENGTH:12.000;
#SELECTABLE:YES;
#BPMS:0.000=128.000;
#STOPS:;
#BGCHANGES:;

//---------------dance-single - ----------------
#NOTES:
     dance-single:
     :
     Easy:
     2:
     0.136,0.195,0.133,0.017,0.000: // measure 1
1001
0000
0000
0000
,  // measure 2
1000
0000
0000
0000
,  // measure 3
1000
0000
0000
0000
,  // measure 4
0010
0000
0000
0000
,  // measure 5
1001
0000
0000
0000
,  // measure 6
0001
0000
0000
0000
,  // measure 7
0010
0000
0000
0000
,  // measure 8
0100
0000
0000
0000
,  // measure 9
1001
0000
0000
0000
,  // measure 10
1000
0000
0000
0000
,  // measure 11
0100
0000
0000
0000
,  // measure 12
0010
0000
0000
0000
,  // measure 13
1001
0000
0000
0000
,  // measure 14
0100
0000
0000
0000
,  // measure 15
0010
0000
0000
0000
,  // measure 16
1000
0000
0000
1000
,  // measure 17
1001
0000
0000
0000
,  // measure 18
0010
0000
0000
0000
,  // measure 19
0100
0000
0000
0000
,  // measure 20
0001
0000
0000
0000
,  // measure 21
1001
1000
0000
0010
,  // measure 22
0100
0000
0000
0001
,  // measure 23
1000
0000
0000
0100
,  // measure 24
0010
0000
0000
0001
,  // measure 25
1001
0000
0000
0010
,  // measure 26
0100
0000
0000
1000
,  // measure 27
0001
0000
0000
0001
,  // measure 28
1000
0010
0010
0010
,  // measure 29
0100
0100
0110
0000
,  // measure 30
1001
0000
0000
0000
,  // measure 31
1000
0000
0000
0000
,  // measure 32
0010
0000
0000
0000
,  // measure 33
0100
0000
0000
0000
,  // measure 34
0001
0000
0000
0000
,  // measure 35
0001
0000
0000
0000
,  // measure 36
0200
0000
0000
0000
,  // measure 37
0320
0000
0130
0000
,  // measure 38
1001
0000
0000
0000
,  // measure 39
1000
0000
0000
0000
,  // measure 40
0010
0000
0000
0000
,  // measure 41
0100
0000
0000
0000
,  // measure 42
1001
0000
0000
0000
,  // measure 43
1000
0000
0010
0010
,  // measure 44
0110
0000
0000
0000
,  // measure 45
1000
1000
0001
1000
,  // measure 46
0001
0000
0000
0000
,  // measure 47
0001
0001
1000
0001
,  // measure 48
1001
0000
0000
0000
,  // measure 49
0100
0100
0010
0100
,  // measure 50
0001
0000
0000
0000
,  // measure 51
0010
0010
0100
0010
,  // measure 52
1001
0000
1000
0000
,  // measure 53
1000
0000
0010
0000
,  // measure 54
0100
0000
0100
0000
,  // measure 55
0001
0000
0001
0000
,  // measure 56
1001
0000
0001
0000
,  // measure 57
0100
0000
0100
0000
,  // measure 58
0010
0000
1000
0000
,  // measure 59
1000
0000
0000
0000
1000
0000
0000
1001
;

//---------------dance-single - ----------------
#NOTES:
     dance-single:
     :
     Medium:
     5:
     0.307,0.342,0.199,0.083,0.000: // measure 1
1001
1000
1000
0000
,  // measure 2
0001
0001
0001
0000
,  // measure 3
1000
1000
1000
0000
,  // measure 4
0001
1000
0001
0000
0001
0000
0100
0000
,  // measure 5
1001
0001
0000
0100
,  // measure 6
0001
0100
0010
1000
,  // measure 7
0010
0000
1000
0001
,  // measure 8
1000
0001
0000
0000
0001
0000
0001
0000
,  // measure 9
1001
0001
0000
1000
,  // measure 10
0010
1000
0000
0001
,  // measure 11
0100
0001
0010
0100
,  // measure 12
1000
0001
0000
0000
1000
0000
1000
0000
,  // measure 13
1001
1000
0000
0001
,  // measure 14
0010
0001
0000
1000
,  // measure 15
0100
1000
0001
0010
,  // measure 16
0001
1000
0000
0000
0001
0000
0001
0000
,  // measure 17
1001
0001
0000
1000
,  // measure 18
0100
1000
0000
0001
,  // measure 19
0010
0001
1000
0100
,  // measure 20
1000
0001
0000
0000
1000
0000
1000
0000
,  // measure 21
1001
0100
0010
0001
,  // measure 22
0100
0000
0100
0010
0000
0000
0000
1000
,  // measure 23
0001
0010
0100
1000
,  // measure 24
0010
0000
0100
0010
0000
0000
0000
1000
,  // measure 25
1001
0010
0100
1000
,  // measure 26
0010
0000
0010
0100
0000
0000
0000
0001
,  // measure 27
1000
0000
0010
0000
0100
0010
0100
0000
,  // measure 28
0000
0001
0000
0001
0000
0001
0000
1000
,  // measure 29
0000
0000
0000
0000
0010
0010
0010
0000
,  // measure 30
1001
0000
0001
0100
0000
0001
0100
0000
,  // measure 31
0010
0000
0000
0010
,  // measure 32
1000
0000
1000
0010
0000
1000
0010
0000
,  // measure 33
0100
0100
0100
0100
,  // measure 34
1001
0000
0001
0010
0000
0001
0010
0000
,  // measure 35
0100
0000
1000
0001
,  // measure 36
2000
0000
0000
3002
0000
0000
0103
0000
,  // measure 37
0010
0100
0010
0000
1000
1000
1000
0000
,  // measure 38
1001
0000
1000
0100
0000
1000
0100
0000
,  // measure 39
0010
0000
0000
0001
,  // measure 40
1000
0000
0001
0010
0000
0001
0010
0000
,  // measure 41
0100
0100
0100
1000
,  // measure 42
1001
0000
1000
0010
0000
1000
0010
0000
,  // measure 43
0110
0000
0001
0000
1000
1000
1000
0000
,  // measure 44
0220
0000
0000
0330
,  // measure 45
1000
1000
0100
0010
,  // measure 46
2002
0000
0000
3003
,  // measure 47
0001
0010
0100
1000
,  // measure 48
0220
0000
0000
0330
,  // measure 49
1000
1000
0010
0100
,  // measure 50
2002
0000
0000
3003
,  // measure 51
0001
0010
0100
1000
,  // measure 52
0110
0000
0001
0000
1000
0001
1000
0000
,  // measure 53
0110
0000
1000
0000
0001
1000
0001
0000
,  // measure 54
0110
0000
0001
0000
1000
0001
1000
0000
,  // measure 55
0110
0000
1000
0000
0001
1000
0001
0000
,  // measure 56
1001
0000
0001
0000
0100
0010
0100
0000
,  // measure 57
1001
0000
1000
0000
0010
0100
0010
0000
,  // measure 58
1001
0000
0001
0000
0100
0010
0100
0000
,  // measure 59
0001
1000
0000
0000
0010
0010
0000
1001
;

//---------------dance-single - ----------------
#NOTES:
     dance-single:
     :
     Hard:
     7:
     0.409,0.415,0.340,0.000,0.017: // measure 1
0001
1000
0001
0010
0100
0000
1100
0000
,  // measure 2
1000
0001
1000
0100
0010
0000
0011
0000
,  // measure 3
0001
0100
0001
0010
0100
0000
1100
0000
,  // measure 4
1000
0010
0010
0100
0001
0001
0011
0000
,  // measure 5
1001
0000
1000
0010
0000
0000
0100
0000
,  // measure 6
0010
0000
1000
0001
0000
0000
0000
0000
,  // measure 7
0001
0000
0100
0000
0010
0000
1000
0001
,  // measure 8
0000
0100
0010
0000
0010
0100
0010
0000
,  // measure 9
1001
0000
0001
0100
0000
0000
0010
0000
,  // measure 10
0100
0000
0001
1000
0000
0000
0000
0000
,  // measure 11
1000
0000
0010
0000
0100
0001
0000
0000
,  // measure 12
0000
0001
0100
0000
0100
0010
0100
0000
,  // measure 13
1001
0000
1000
0100
0000
1000
0100
0000
,  // measure 14
0010
0000
0001
1000
0000
1000
0010
0000
,  // measure 15
0010
0000
0100
0000
0001
1000
0000
0010
,  // measure 16
0110
0000
0000
0000
0000
0100
0100
0001
,  // measure 17
1001
0000
0001
0010
0000
0001
0010
0000
,  // measure 18
0100
0000
1000
0001
0000
0001
0100
0000
,  // measure 19
0100
0010
1000
0001
,  // measure 20
1000
0001
0000
0000
0000
0001
0001
0100
,  // measure 21
1001
0000
0100
0010
0100
0010
1000
0000
,  // measure 22
0100
0000
0010
0100
0000
0000
1000
0001
,  // measure 23
1000
0000
0010
0100
0010
0100
0001
0000
,  // measure 24
0010
0000
0100
0010
0000
0000
0001
0001
,  // measure 25
1001
0000
0010
0100
0010
0100
0001
0000
,  // measure 26
0010
0000
0100
0010
0000
0000
0001
1000
,  // measure 27
0001
0000
0100
0010
0100
0010
1000
0000
,  // measure 28
0100
1000
0000
1000
0000
1001
0000
0001
,  // measure 29
0000
0100
0010
0100
0001
0001
0001
0000
,  // measure 30
1001
0000
1000
0010
0000
1000
0010
0100
,  // measure 31
0010
1000
0100
0010
,  // measure 32
0001
0000
0001
0100
0000
0001
0100
0010
,  // measure 33
0000
1000
0000
1000
0010
0010
0000
0000
,  // measure 34
1001
0000
1000
0100
0000
1000
0100
0010
,  // measure 35
0100
0000
1000
0000
0001
0010
1000
0010
,  // measure 36
0001
0000
0100
0001
0000
0100
0001
0100
,  // measure 37
0010
0000
0110
0000
1000
1000
1000
0000
,  // measure 38
1001
0000
0001
0010
0000
0001
0010
0001
,  // measure 39
0100
0000
0010
0000
1000
0000
0100
0010
,  // measure 40
0001
0000
1000
0100
0000
1000
0100
1000
,  // measure 41
0000
0010
0000
0100
0001
0000
0011
0000
,  // measure 42
1001
0000
0001
0100
0000
0001
0100
0010
,  // measure 43
0110
0000
1010
0000
0101
0001
0001
1000
,  // measure 44
0110
0000
0000
0000
0010
0000
0000
0010
0000
0000
0000
0000
0000
0000
0000
0000
,  // measure 45
1000
0100
0010
0001
0010
0100
0000
0000
,  // measure 46
1001
0000
0000
0000
1000
0000
0000
1000
0000
0000
0000
0000
0000
0000
0000
0000
,  // measure 47
0001
0010
0100
1000
0100
0010
0001
0001
,  // measure 48
0110
0000
0000
0000
0100
0000
0000
0100
0000
0000
0000
0000
0000
0000
0000
0000
,  // measure 49
0001
0010
0100
1000
0100
0010
0000
0000
,  // measure 50
1001
0000
0000
0000
0001
0000
0000
0001
0000
0000
0000
0000
0000
0000
0000
0000
,  // measure 51
1000
1000
0100
0000
0010
0010
0010
0001
,  // measure 52
0110
0000
1010
0000
0100
0010
0001
0000
,  // measure 53
0110
0000
0101
0000
0010
0100
1000
0000
,  // measure 54
0110
0000
1100
0000
0010
0001
0100
0000
,  // measure 55
0110
0000
0011
0000
0100
1000
0010
0000
,  // measure 56
1001
0000
1100
0000
0010
0001
0100
0000
,  // measure 57
1001
0000
0011
0000
0100
1000
0010
0000
,  // measure 58
1001
0000
1010
0000
0100
0001
0010
0000
,  // measure 59
0001
0100
0100
0010
1000
1000
0011
1001
;

//---------------dance-single - ----------------
#NOTES:
     dance-single:
     :
     Beginner:
     1:
     0.078,0.097,0.116,0.000,0.000: // measure 1
1000
0000
0000
0000
,  // measure 2
1000
0000
0000
0000
,  // measure 3
1000
0000
0000
0000
,  // measure 4
0001
0000
0000
0000
,  // measure 5
1001
0000
0000
0000
,  // measure 6
0000
0000
0000
0000
,  // measure 7
0001
0000
0000
0000
,  // measure 8
0000
0000
0000
0000
,  // measure 9
1001
0000
0000
0000
,  // measure 10
0000
0000
0000
0000
,  // measure 11
0010
0000
0000
0000
,  // measure 12
0000
0000
0000
0000
,  // measure 13
1001
0000
0000
0000
,  // measure 14
0000
0000
0000
0000
,  // measure 15
0100
0000
0000
0000
,  // measure 16
0000
0000
0000
0000
,  // measure 17
1001
0000
0000
0000
,  // measure 18
1000
0000
0000
0000
,  // measure 19
1000
0000
0000
0000
,  // measure 20
0010
0000
0000
0000
,  // measure 21
1001
0000
0000
0000
,  // measure 22
0001
0000
0000
0000
,  // measure 23
0001
0000
0000
0000
,  // measure 24
0100
0000
0000
0000
,  // measure 25
1001
0000
0000
0000
,  // measure 26
1000
0000
0000
0000
,  // measure 27
1000
0000
0000
0000
,  // measure 28
0000
0000
0000
0000
,  // measure 29
0000
0000
0000
0000
,  // measure 30
1001
0000
0000
0000
,  // measure 31
1000
0000
0000
0000
,  // measure 32
0001
0000
0000
0000
,  // measure 33
1000
0000
0000
0000
,  // measure 34
0010
0000
0000
0000
,  // measure 35
0100
0000
0000
0000
,  // measure 36
0010
0000
0000
0000
,  // measure 37
1000
0000
0000
0000
,  // measure 38
1001
0000
0000
0000
,  // measure 39
0001
0000
0000
0000
,  // measure 40
1000
0000
0000
0000
,  // measure 41
0001
0000
0000
0000
,  // measure 42
0100
0000
0000
0000
,  // measure 43
0100
0000
0000
0000
,  // measure 44
1001
0000
0000
0000
,  // measure 45
1000
0000
0000
0000
,  // measure 46
1000
0000
0000
0000
,  // measure 47
0001
0000
0000
0000
,  // measure 48
1001
0000
0000
0000
,  // measure 49
0001
0000
0000
0000
,  // measure 50
0001
0000
0000
0000
,  // measure 51
1000
0000
0000
0000
,  // measure 52
0110
0000
0000
0000
,  // measure 53
0010
0000
0000
0000
,  // measure 54
1001
0000
0000
0000
,  // measure 55
1000
0000
0000
0000
,  // measure 56
0110
0000
0000
0000
,  // measure 57
0100
0000
0000
0000
,  // measure 58
1001
0000
0000
0000
,  // measure 59
0001
0000
0001
0000
;

//---------------dance-single - ----------------
#NOTES:
     dance-single:
     :
     Challenge:
     8:
     0.565,0.513,0.407,0.025,0.224: // measure 1
1000
0000
0100
0000
0001
0000
1000
0000
0001
0000
0000
0001
1000
0000
0000
0000
,  // measure 2
0001
0000
0010
0000
1000
0000
0001
0000
1000
0000
0000
1000
0001
0000
0000
0000
,  // measure 3
1000
0000
0010
0000
0001
0000
1000
0000
0001
0000
0000
0001
1000
0000
0000
0000
,  // measure 4
0001
0000
0011
0000
0001
0000
0100
0000
1010
0000
1010
0000
0100
0010
0100
0000
,  // measure 5
1001
0000
0001
0010
0001
1000
0010
1000
,  // measure 6
0000
0100
0010
0001
1000
0100
1000
0001
,  // measure 7
0100
0001
0010
0100
1000
1000
0000
1000
,  // measure 8
0001
0000
0010
0000
0100
0010
0000
0000
0001
0000
1000
0000
0001
0000
0011
0000
,  // measure 9
1001
0000
1000
0100
1000
0001
0100
0001
,  // measure 10
0000
0010
0100
1000
0001
0010
0001
1000
,  // measure 11
0010
1000
0100
0010
0001
0001
0000
0001
,  // measure 12
1000
0000
0100
0000
0010
0100
0000
0000
1000
0000
0001
0000
1000
0000
1100
0000
,  // measure 13
1001
0010
0100
1000
0010
0000
0100
0001
,  // measure 14
0000
0001
1000
0001
0000
0010
0100
1000
,  // measure 15
1000
0100
0010
0001
0100
0010
0000
1000
,  // measure 16
1010
1001
0000
0000
0000
0100
0010
0011
,  // measure 17
1001
0000
1000
0100
1000
0001
0100
0010
,  // measure 18
0000
1000
0010
0001
0000
0100
0010
0100
,  // measure 19
0001
0010
0100
0010
0001
1000
0000
1000
,  // measure 20
0010
0110
1001
0000
0001
0100
0100
0101
,  // measure 21
1001
0100
0010
0001
0010
0100
1000
0001
,  // measure 22
2000
0000
0000
0010
0000
0000
3010
0000
0000
0000
0000
0000
0001
0000
1000
0000
,  // measure 23
0001
0010
0100
1000
0100
0010
0001
1000
,  // measure 24
0002
0000
0000
0100
0000
0000
0103
0000
0000
0000
0000
0000
0010
0000
1100
0000
,  // measure 25
1001
0100
0010
0001
0100
0010
1000
0001
,  // measure 26
2000
0000
0000
0100
0000
0000
3100
0000
0000
0000
0000
0000
0001
0000
1000
0000
,  // measure 27
0001
0010
0100
1000
0010
0100
0100
0001
,  // measure 28
0000
0101
0001
1000
0000
1010
1000
0001
,  // measure 29
0000
0001
0010
0100
1001
1001
1001
0000
,  // measure 30
0011
0000
0000
0000
0001
1000
0000
0100
0000
0000
1000
0000
0010
0000
0100
0000
,  // measure 31
0010
0000
1000
0000
0001
1000
0000
0100
0000
0000
1000
0000
0010
0000
0100
0000
,  // measure 32
0010
0100
0010
0000
0010
1000
0001
0010
,  // measure 33
0000
0110
0000
0101
0001
1000
0000
0000
,  // measure 34
1001
0000
0000
0000
1000
0001
0000
0010
0000
0000
0001
0000
0100
0000
0010
0000
,  // measure 35
0100
0000
0001
0000
1000
0001
0000
0010
0000
0000
0001
0000
0010
0000
0100
0000
,  // measure 36
1000
0000
0001
0100
0001
0100
0001
1000
,  // measure 37
0100
0100
0110
0000
1001
1001
1001
0000
,  // measure 38
1100
0000
0000
0000
1000
0001
0000
0100
0000
0000
0001
0000
0100
0000
0010
0000
,  // measure 39
0100
0000
0001
0000
1000
0001
0000
0100
0000
0000
0001
0000
0100
0000
0010
0000
,  // measure 40
0100
0010
0100
0000
0100
0001
1000
0100
,  // measure 41
0000
0110
0000
1010
1000
0001
0000
0000
,  // measure 42
1001
0000
0001
1000
0100
1000
0010
0100
,  // measure 43
0110
0000
0101
0000
1010
1000
1000
0001
,  // measure 44
1001
0000
0100
0000
0010
0000
0001
0100
0000
0001
0100
0000
0010
0000
0000
0000
,  // measure 45
1000
0000
0001
0000
1000
0010
0000
1000
0010
0000
0100
0000
0001
0000
0000
0000
,  // measure 46
1001
0000
0010
0000
0100
0000
1000
0010
0000
1000
0010
0000
0100
0000
0000
0000
,  // measure 47
0001
0000
1000
0000
0010
0100
0000
0010
0100
0000
0001
0000
0001
0000
1000
0000
,  // measure 48
1001
0000
0010
0000
0100
0000
0001
0010
0000
0001
0010
0000
0100
0000
0000
0000
,  // measure 49
1000
0000
0001
0000
0100
0010
0000
0100
0010
0000
1000
0000
0100
0000
0000
0000
,  // measure 50
1001
0000
0100
0000
0010
0000
1000
0100
0000
1000
0100
0000
0010
0000
0000
0000
,  // measure 51
0011
0000
0001
0000
0100
0010
0000
0000
1000
0000
1000
0000
0010
0100
0010
0000
,  // measure 52
1001
0000
0001
0000
1000
0010
0000
0010
1000
0000
0100
0000
0010
0000
0000
0000
,  // measure 53
0001
0000
1000
0000
0001
0100
0000
0100
0001
0000
0010
0000
0100
0000
0000
0000
,  // measure 54
1000
0000
0001
0000
1000
0100
0000
0100
1000
0000
0010
0000
0100
0000
0000
0000
,  // measure 55
0001
0000
1000
0000
0001
0010
0000
0010
0001
0000
0100
0000
0010
0000
0110
0000
,  // measure 56
1001
0000
1000
0000
0001
0100
0000
0100
0010
0000
1000
0000
0100
0000
0000
0000
,  // measure 57
1000
0000
0001
0000
1000
0010
0000
0010
0100
0000
0001
0000
0010
0000
0000
0000
,  // measure 58
0001
0000
1000
0000
0001
0100
0000
0100
0010
0000
1000
0000
0100
0000
0000
0000
,  // measure 59
1000
0010
1000
0000
0100
0010
0000
0001
0100
0000
1010
0000
1100
0000
1001
0000
;
