#TITLE:消せない罪;
#SUBTITLE:(TV Edit);
#ARTIST:北出菜奈;
#TITLETRANSLIT:Kesenai Tsumi;
#SUBTITLETRANSLIT:;
#ARTISTTRANSLIT:Nana Kitade;
#CREDIT:Kyon;
#BANNER:Kesenai Tsumi (TV Edit).png;
#BACKGROUND:Kesenai Tsumi (TV Edit)-bg.png;
#LYRICSPATH:Kesenai Tsumi (TV Edit).lrc;
#CDTITLE:Dj DMA Original Simfile.png;
#MUSIC:Kesenai Tsumi (TV Edit).mp3;
#OFFSET:0.080;
#SAMPLESTART:40.324;
#SAMPLELENGTH:12.000;
#SELECTABLE:YES;
#BPMS:0.000=158.000,139.000=79.000;
#STOPS:106.000=0.780
;
#BGCHANGES:29.000=Kesenai Tsumi (TV Edit).avi=1.000=0=1=0,
99999=-nosongbg-=1.000=0=0=0 // don't automatically add -songbackground-
;

//---------------dance-single - ----------------
#NOTES:
     dance-single:
     :
     Hard:
     6:
     0.370,0.370,0.274,0.050,0.006: // measure 1
0000
0000
0000
0000
,  // measure 2
0000
0000
0011
0000
,  // measure 3
1100
0000
1001
0000
,  // measure 4
1100
0000
0011
0000
,  // measure 5
0101
0000
1010
0000
,  // measure 6
1001
0000
0101
0000
,  // measure 7
1010
0000
0000
0000
,  // measure 8
1001
1001
0010
0100
,  // measure 9
0010
1000
0001
1000
,  // measure 10
0100
1000
0010
0100
,  // measure 11
0001
0010
0001
0100
,  // measure 12
0001
1000
0010
1000
,  // measure 13
0010
0100
0010
1000
,  // measure 14
0010
0100
0001
0100
,  // measure 15
0001
1000
0001
1000
,  // measure 16
0010
0100
0010
1000
,  // measure 17
0001
0000
0010
0000
0001
0000
0100
0001
,  // measure 18
0100
1001
0010
1000
,  // measure 19
0010
0100
0001
0010
,  // measure 20
0001
1001
0010
0100
,  // measure 21
0001
1001
0100
0010
,  // measure 22
1000
1001
0100
0010
,  // measure 23
1000
0010
0100
0001
,  // measure 24
0100
1001
0010
0100
,  // measure 25
0010
1001
0100
0010
,  // measure 26
1000
0000
0010
0000
0100
0000
0001
0100
,  // measure 27
0001
0000
1000
0010
1000
0000
1001
0000
,  // measure 28
0010
0100
0010
1000
0100
1000
0010
0000
,  // measure 29
0100
0000
0001
0000
1001
0000
0001
0010
,  // measure 30
0100
0000
0100
0010
0100
0001
0000
1000
,  // measure 31
0000
1000
0100
1000
0010
0100
0001
0000
,  // measure 32
0000
0001
0010
0100
1000
0010
1000
0000
,  // measure 33
0100
0000
1000
0100
1000
0010
0100
0000
,  // measure 34
0001
0100
0010
0000
1000
0010
0000
0100
,  // measure 35
0000
0000
0001
0100
1000
0100
0012
0000
,  // measure 36
0000
0000
1003
0000
0010
0100
0001
1000
,  // measure 37
0100
0010
0001
0000
1000
0100
0020
0000
,  // measure 38
0000
0000
0031
0000
0001
0010
0100
1000
,  // measure 39
0100
0010
0001
0000
1000
0100
0020
0000
,  // measure 40
0000
0000
0031
0000
1000
0100
0010
0001
,  // measure 41
0100
0010
1000
0000
0001
0010
0200
0000
,  // measure 42
0000
0000
1300
0000
1000
0100
0010
0001
,  // measure 43
0100
0000
0010
0000
1000
0000
0000
1001
0000
0000
0000
0000
0000
0000
0000
0000
;

//---------------dance-single - ----------------
#NOTES:
     dance-single:
     :
     Challenge:
     8:
     0.498,0.505,0.236,0.025,0.131: // measure 1
0000
0000
0000
0000
,  // measure 2
0000
0000
1000
1000
1000
0000
0001
0001
,  // measure 3
0001
0000
0100
0100
0100
0000
0010
0010
,  // measure 4
0010
0000
1000
0001
1000
0000
0010
0100
,  // measure 5
0010
0000
0100
0001
0100
0000
0010
1000
,  // measure 6
0010
0000
1000
0100
1000
0000
0001
0010
,  // measure 7
0001
0000
0000
0000
0100
0000
0010
0000
0100
0000
0000
0001
1000
0000
0010
0000
,  // measure 8
0100
0000
1001
0000
0001
0010
0100
0000
,  // measure 9
1000
0000
0100
0000
0010
0000
0001
0010
,  // measure 10
0100
0000
1000
0000
0010
0000
0100
0001
,  // measure 11
0010
0000
0100
0000
1000
0000
0100
0010
,  // measure 12
0001
0000
0010
0000
0100
1000
0100
0000
,  // measure 13
0010
0000
0001
0000
0100
0000
0010
1000
,  // measure 14
0100
0000
0010
0000
0001
0000
0100
0010
,  // measure 15
1000
0000
0010
0000
0100
0001
0100
0010
,  // measure 16
1000
0100
0010
0000
0010
0100
1000
0000
,  // measure 17
0001
0000
0010
0000
0100
0000
0010
0000
0001
0000
0000
1000
0010
0000
0100
0000
,  // measure 18
0001
1000
1001
0000
0001
0000
0010
0000
,  // measure 19
0100
0000
1000
0000
0010
0000
0100
0001
,  // measure 20
0010
0100
1000
0000
0100
0000
1000
0010
,  // measure 21
0100
0001
0010
0000
0100
1000
0100
0010
,  // measure 22
0001
0100
0010
1000
,  // measure 23
0010
0000
0100
0000
0001
0000
0100
0010
,  // measure 24
1000
0000
1100
0000
0001
0000
0100
0001
,  // measure 25
0010
0000
0011
0000
1000
0000
0001
0100
,  // measure 26
0010
1000
0001
0000
0011
0000
0100
0000
,  // measure 27
1000
0000
0011
1100
1001
0000
0010
0000
,  // measure 28
0100
0000
0001
0010
0100
1000
1100
0000
,  // measure 29
0011
0000
1000
0100
1000
0000
0010
0100
,  // measure 30
0001
0010
0001
0000
1000
0100
0000
1001
,  // measure 31
0000
0001
1000
0100
0010
0001
0011
0000
,  // measure 32
0001
1000
0001
0010
0100
1000
1100
0000
,  // measure 33
0010
0000
0100
0001
0100
0000
0010
1000
,  // measure 34
0001
1000
0001
0000
0100
0010
0000
1000
,  // measure 35
0001
0000
1000
0100
0010
0001
0011
0100
,  // measure 36
1000
0000
0100
0000
0010
0000
0001
0000
0110
0000
1000
0000
0010
0000
1000
0100
,  // measure 37
0000
1000
0000
0010
0100
0010
0000
1000
0001
1000
0001
0000
0100
0000
0010
0000
,  // measure 38
1000
0000
0100
0000
0010
0000
0001
0000
0100
0000
0010
0000
1000
0000
0001
0100
,  // measure 39
0000
0001
0000
0010
0001
0000
1000
0000
0010
0000
0100
0000
0011
0000
0100
0000
,  // measure 40
1000
0000
0010
0000
0100
0000
0001
0000
0010
0000
0001
0000
0100
0000
0010
0100
,  // measure 41
0000
0001
0000
1000
0001
1000
0000
0010
0100
0010
0100
0000
1010
0000
0000
0000
,  // measure 42
0101
0000
0000
0000
0001
0000
1000
0000
0010
0000
0100
0000
0001
0000
0010
0001
,  // measure 43
0000
1000
0000
0010
0100
0000
0000
2002
0000
0000
0000
0000
3003
0000
0000
0000
;

//---------------dance-single - ----------------
#NOTES:
     dance-single:
     :
     Medium:
     5:
     0.286,0.343,0.100,0.075,0.006:
0000
0000
0000
0000
,
0000
0000
0000
0000
,
0000
0000
0000
0000
,
0000
0000
0000
0000
,
0000
0000
0000
0000
,
0000
0000
0000
0000
,
0000
0000
0000
0000
,
0000
1001
1000
0001
,
1000
0001
1000
0001
,
0100
0001
0100
0001
,
0100
0001
0100
0001
,
1000
0010
1000
0010
,
1000
0010
1000
0001
,
0100
0001
0010
0001
,
0010
0001
0010
0001
,
1000
0100
1000
0100
,
1000
0001
1000
1001
,
1001
0010
0100
0010
,
0100
0010
0100
0010
,
1000
0001
1000
0001
,
1000
0001
0100
0001
,
0100
0010
1000
0100
,
1000
0100
1000
0100
,
0010
0001
0010
0001
,
0010
0100
1000
0010
,
1000
0001
0100
0010
,
1000
1001
1001
0020
,
0000
0130
0001
2000
,
0000
3010
0100
0001
,
0010
0000
0001
0000
1000
0010
0000
0100
,
0000
0001
0010
0000
0001
0000
0110
0000
,
0000
1000
0010
0000
0100
0000
0001
0000
,
0000
1000
0010
0100
,
0001
0000
0010
0000
0100
1000
0000
1001
,
0000
1000
0100
0020
,
0000
0000
0031
0000
1000
0100
0010
0000
,
0010
0100
1000
0000
0001
0010
0200
0000
,
0000
0000
1300
0000
1000
0100
0010
0000
,
0100
0000
1000
0000
0001
0100
0020
0000
,
0000
0000
1030
0000
1000
0100
0010
0000
,
0010
0100
1000
0000
0001
0010
0200
0000
,
0000
0000
1300
0000
1000
0100
0010
0001
,
0010
0000
0100
0000
1000
0000
0000
1001
0000
0000
0000
0000
0000
0000
0000
0000
;

//---------------dance-single - ----------------
#NOTES:
     dance-single:
     :
     Easy:
     3:
     0.194,0.266,0.037,0.075,0.006:
0000
0000
0000
0000
,
0000
0000
0000
0000
,
0000
0000
0000
0000
,
0000
0000
0000
0000
,
0000
0000
0000
0000
,
0000
0000
0000
0000
,
0000
0000
0000
0000
,
0000
1001
0001
0000
,
1000
0000
0001
0000
,
1000
0000
0010
0000
,
1000
0000
0010
0000
,
1000
0000
0010
0000
,
0100
0000
0010
0000
,
0100
0000
0010
0000
,
0100
0000
0010
0000
,
0100
0000
0001
0000
,
0200
0000
0000
0000
,
0000
0310
0100
0000
,
0010
0000
1000
0000
,
0100
0000
1000
0000
,
0001
0010
0001
0000
,
0010
0000
0001
0000
,
1000
0000
0010
0000
,
0100
0010
0100
0000
,
0010
0000
1000
0000
,
0001
1000
0001
0100
,
0010
2002
3003
0100
,
0010
0000
1000
0000
,
0100
1000
0100
0010
,
0001
0010
0001
0000
,
0100
0010
1000
0001
,
0000
0100
0010
1000
,
0000
0001
0100
0010
,
1000
0100
1000
0020
,
0000
0230
0000
0301
,
0010
0001
0010
0001
,
0010
0100
1000
0100
,
1000
0100
1000
0100
,
0010
0001
0100
0010
,
1001
0100
0010
1000
,
0001
1000
0010
0100
,
0001
0010
0100
1000
,
0010
0000
0000
0000
0100
0000
0000
0002
0000
0000
0000
0000
0003
0000
0000
0000
;

//---------------dance-single - ----------------
#NOTES:
     dance-single:
     :
     Beginner:
     2:
     0.142,0.209,0.050,0.000,0.000:
0000
0000
0000
0000
,
0000
0000
0000
0000
,
0000
0000
0000
0000
,
0000
0000
0000
0000
,
0000
0000
0000
0000
,
0000
0000
0000
0000
,
0000
0000
0000
0000
,
0000
1001
1000
0000
,
0001
0000
1000
0000
,
0001
0000
1000
0000
,
0001
0000
1000
0000
,
0001
0100
0010
0000
,
0100
0000
0010
0000
,
0100
0000
0010
0000
,
0100
0000
0010
1000
,
0001
0000
1000
0000
,
0001
0000
1000
0000
,
0000
1001
0010
0000
,
0100
0000
0010
0000
,
0100
0000
0010
0000
,
1000
0000
0010
0000
,
1000
0000
0001
0000
,
0100
0000
0001
0000
,
0100
0000
0010
0000
,
0100
0000
0010
0000
,
1000
0000
0001
0000
,
1000
0001
1001
1000
,
0001
0000
1000
0000
,
0010
0000
1000
0000
,
0010
0000
0100
0000
,
0001
0000
0100
0000
,
0001
0000
1000
0000
,
0100
0000
1000
0000
,
0001
0000
0010
0000
,
0001
0000
0000
1001
,
0000
0000
0010
0000
,
0100
0000
0010
0000
,
1000
0000
0100
0000
,
1000
0000
0001
0010
,
0001
0000
1000
0000
,
0001
0000
1000
0001
,
1000
0000
0010
0000
,
0100
0000
0000
0000
;
