#TITLE:Keep On Liftin';
#SUBTITLE:;
#ARTIST:dj nagureo;
#TITLETRANSLIT:;
#SUBTITLETRANSLIT:;
#ARTISTTRANSLIT:;
#CREDIT:Kyon;
#BANNER:Keep On Liftin' [kool edit].png;
#BACKGROUND:Keep On Liftin' [kool edit]-bg.png;
#LYRICSPATH:Keep On Liftin' [kool edit].lrc;
#CDTITLE:Beatmania III.png;
#MUSIC:Keep On Liftin' [kool edit].mp3;
#OFFSET:0.240;
#SAMPLESTART:53.400;
#SAMPLELENGTH:12.000;
#SELECTABLE:YES;
#BPMS:0.000=100.000;
#STOPS:;
#BGCHANGES:;

//---------------dance-single - ----------------
#NOTES:
     dance-single:
     :
     Easy:
     1:
     0.098,0.173,0.036,0.018,0.000:
0000
0000
0000
0000
,
0000
0000
0000
0000
,
0001
0000
1000
0000
,
0001
0000
1000
0000
,
0010
0000
0100
0000
,
0010
0000
1000
0000
,
0010
0000
1000
0000
,
0001
0000
1000
0000
,
0010
0100
0000
0000
,
0000
0001
0000
0000
,
1000
0000
0000
0000
,
0000
0001
0000
0000
,
0000
0010
0000
0000
,
0000
0100
0000
0000
,
0000
1000
0000
0000
,
0000
0010
0000
0000
,
0000
0100
0000
0000
,
0000
0001
0000
0000
,
0000
1001
0010
0010
,
0010
0000
0100
0100
,
0100
0000
0001
0001
,
0001
2000
0000
3002
,
0000
0003
0100
0100
,
0100
0000
0010
0010
,
0010
0000
1000
1000
,
1000
1001
0010
0001
,
1000
0001
0000
0000
,
0000
1000
0000
0000
,
0000
0010
0000
0000
,
0000
0100
0000
0000
,
0000
0001
0000
1000
,
0000
0001
0000
0100
,
0000
0010
0000
1000
,
0000
0001
0000
0100
,
0000
1001
0000
0000
,
0000
0001
0000
0000
,
0000
1000
0000
0000
,
0000
0010
0000
0000
,
0000
1000
0000
0000
,
0000
0100
0000
0000
,
0000
1000
0000
0000
,
0000
0001
0000
0000
,
0000
1001
0000
0000
;

//---------------dance-single - ----------------
#NOTES:
     dance-single:
     :
     Hard:
     5:
     0.302,0.308,0.246,0.009,0.032:
0000
0000
0000
0000
,
0000
0000
0000
0000
,
1001
0000
1000
0000
0001
1000
0001
0000
,
0100
0010
0100
0000
0001
1000
0001
0000
,
1100
0011
1001
1001
,
0010
0000
0100
0010
0100
0000
0001
0010
,
0100
1000
0001
0001
1001
0000
1000
1000
,
1001
0000
0010
0100
0010
1000
0001
0000
,
1000
0100
0001
0000
0001
0000
0001
0000
,
0001
0010
1000
0000
0100
0000
1000
0001
,
1000
0010
0010
0010
,
0010
1000
0100
0010
,
0001
0010
1000
0001
,
1000
0001
0010
0100
,
1000
0100
0010
0001
,
1000
0000
0100
0000
1000
0000
0001
0001
,
0001
0001
0010
0000
0001
0000
0010
0000
,
0001
0000
1000
0100
0010
0001
0010
0100
,
1000
0010
0110
0110
,
1000
0010
1001
1001
,
0100
0000
0000
0000
0001
0000
0000
0000
0011
0000
0000
0000
0011
0000
0000
1000
,
0000
0010
0100
0100
0001
0001
1000
0000
,
0100
0001
1100
1100
,
0010
0001
0101
0101
,
0010
0000
0000
0000
1000
0000
0000
0000
1010
0000
0000
0000
1010
0000
0000
0100
,
0000
0000
0001
0000
0010
0000
0100
0000
1000
0000
0000
0010
0000
0000
0100
0000
,
0001
0000
1001
0000
1000
0000
1000
0100
,
0001
0000
1001
0000
0001
0000
0001
0010
,
1000
0000
1001
0000
0010
0000
0100
0001
,
1000
0000
0010
0000
0010
0100
0001
1000
,
0001
0000
1000
0000
0010
0100
0001
0000
,
0100
0010
1000
0100
0010
0001
0100
0010
,
1000
0000
0001
0010
0011
0000
1000
0100
,
1100
0000
1001
0000
1001
0000
0010
0100
,
0001
0000
1000
0000
1000
0000
1000
0100
,
0001
0000
0001
0000
0001
0010
1000
0000
,
1000
0000
1000
0000
1000
0010
0001
0000
,
0001
0000
0000
0001
0100
0000
0000
0000
0100
0000
0000
0000
0100
0010
0000
0000
,
1000
1000
1000
0001
,
0001
0000
0000
0001
1000
0000
0000
0000
1000
0000
0000
0000
0010
0000
0000
0000
,
0010
0110
1000
0001
,
1000
0000
0000
0010
0100
0000
0000
0000
0002
0000
0000
0000
0000
0000
0000
0000
,
0000
1003
0000
0000
;

//---------------dance-single - ----------------
#NOTES:
     dance-single:
     :
     Challenge:
     8:
     0.448,0.501,0.264,0.046,0.260:
0000
0000
0000
0000
,
0000
0000
0000
0000
,
1001
0000
0010
0100
0010
0100
0001
1000
0001
0000
0010
0001
0000
0000
1000
0000
,
0100
0000
1000
0010
0100
0000
0001
0100
0010
0000
0100
0000
0011
0000
1100
0000
,
1001
0000
0010
0100
0001
0000
1000
0010
0100
0000
0001
1000
0001
0000
1000
0001
,
1000
0000
0010
0100
0001
0000
0010
0000
1001
0000
0000
0000
0100
0000
0010
0100
,
0000
0001
0010
0000
1100
0000
1001
0000
0000
0000
0010
0000
0100
0000
0001
0000
,
0010
0000
0001
0010
0100
1000
0100
0010
0001
0000
1000
0010
0100
0000
0001
0100
,
0010
1000
0001
0000
0001
0000
0001
0010
,
0001
0000
0010
0000
0001
0000
1000
0000
0000
0000
0100
0000
1000
0010
0100
0000
,
0001
0100
1000
0000
1000
0000
1000
0000
,
1000
0002
0023
0230
,
2300
0000
0000
0000
3001
0000
0000
0100
0010
0000
0010
0100
0000
0000
0001
0000
,
0000
1000
0010
0000
1001
0000
1000
0100
,
0010
0001
0100
0000
0100
0000
0100
0000
,
0100
0000
0010
0000
1000
0000
0000
0000
1001
0000
0000
0010
0000
0000
0100
0000
,
0100
0000
0100
0000
0100
0000
0000
0001
1000
0000
1000
0001
0000
0000
0100
0000
,
0000
0010
0000
0000
1000
0000
0010
0100
0001
0100
0000
0010
0000
0000
0100
0000
,
0010
0000
1000
0100
1000
0100
0010
0001
,
0100
0010
1001
0000
0001
0010
0100
1000
,
0010
0100
1001
0010
0100
0001
0010
0001
,
1000
0000
0001
0000
1001
0000
0100
0010
0100
0010
0000
1000
0000
0000
0001
0000
,
0100
0010
0000
0000
1000
0000
0000
0000
0001
0000
0010
0000
0100
0000
1000
0000
,
0010
0100
1001
0000
1000
0100
0010
0001
,
0100
0010
1001
0000
0001
0010
0100
1000
,
0010
0000
0100
0000
0001
0000
0010
0001
0010
0001
0000
1000
0000
0000
0010
0000
,
0100
0001
0000
0000
1000
0000
1000
0000
1100
0000
0010
0000
0001
0000
1000
0000
,
0100
0010
0001
0001
0011
0100
1000
0001
,
0010
0000
1100
0011
1001
0000
0100
0001
,
0010
0000
0000
1000
0100
0000
0100
1000
0000
0010
0100
0000
0001
0000
0100
0000
,
0010
0000
1001
0001
0100
0000
1001
1000
,
0010
0000
0100
0100
0010
0100
0001
0010
,
0011
1000
0100
1000
1100
0010
0100
0010
,
0110
0001
0010
0001
0011
1000
0010
0100
,
0001
0000
0000
0000
1001
0000
0010
0000
0100
0000
0010
0100
0000
0100
0010
0000
,
1000
0000
0000
0001
1000
0000
0010
0000
0100
0000
0001
1000
0000
1000
0001
0000
,
0100
0000
0000
0000
1001
0000
0010
0000
0100
0000
0001
1000
0000
1000
0001
0000
,
0010
0000
0000
0001
1000
0000
0100
0000
0010
0000
1000
0001
0000
0001
1000
0000
,
0010
0000
0000
0000
1001
0000
1000
0000
0001
0000
0100
0010
0000
0010
0100
0000
,
0001
0000
0000
1000
0001
0000
0001
0000
0100
0000
0010
0100
0000
0010
0100
0000
,
0001
0000
0000
0000
1001
0000
1000
0000
0001
0000
0100
0010
0000
0100
0010
0000
,
1000
0000
0000
0001
1000
0000
0010
0000
0200
0000
0000
0000
0000
0000
0000
0000
,
0000
0310
0000
0000
;

//---------------dance-single - ----------------
#NOTES:
     dance-single:
     :
     Medium:
     4:
     0.253,0.289,0.155,0.018,0.000:
0000
0000
0000
0000
,
0000
0000
0000
0000
,
1001
0010
0100
0010
,
0100
0001
0010
1001
,
1001
1000
0100
1000
,
0010
0000
0100
0000
0001
0000
1000
0001
,
1000
0000
0010
0000
0100
0000
0001
0010
,
0001
0000
1000
0000
0010
0000
1000
0100
,
1000
0001
0001
0001
,
0100
0100
0100
0010
,
0010
1001
0000
0000
,
0000
0100
0010
0001
,
1000
0100
0000
0000
,
0000
0010
0001
1000
,
0010
0100
0000
0000
,
0000
0001
0010
0100
,
1000
0000
0010
0100
,
0001
0000
1000
0100
0010
0000
0001
0010
,
0100
1000
0001
0000
1000
0010
1000
0010
,
0100
0000
0000
0000
0001
0010
0001
0100
,
0010
0000
0000
0000
1000
0010
0100
0001
,
0010
0001
1001
1000
,
1001
0000
0010
0000
0100
0001
0010
0001
,
1000
0000
0000
0000
0010
0100
0001
0010
,
0001
1000
0000
0000
0010
0100
0001
0010
,
0001
0000
1100
0000
0011
0000
1000
0001
,
1000
0011
0011
1000
,
0010
1100
1100
0010
,
0001
1001
1001
0010
,
0100
0000
0001
0001
0001
1000
1000
1000
,
1001
0010
0100
0001
,
1000
0000
0010
0000
0100
0000
0010
1000
,
0001
0000
1000
0001
1000
0000
0001
1000
,
0001
0100
0110
0010
,
0110
0000
1000
0000
0001
0000
1000
0001
,
1000
0000
0010
0000
0100
0000
0001
0010
,
0001
0000
1000
0000
0010
0000
1000
0100
,
1000
0001
0010
0001
,
1000
1000
0000
0001
0001
0000
0000
0000
,
0100
0000
0010
0000
0100
0000
0001
1000
,
0001
0000
0000
0000
1000
0000
0010
0100
,
0002
0000
2003
0000
,
0000
3001
0000
0000
;

//---------------dance-single - ----------------
#NOTES:
     dance-single:
     :
     Beginner:
     1:
     0.042,0.096,0.000,0.000,0.000: // measure 1
0000
0000
0000
0000
,  // measure 2
0000
0000
0000
0000
,  // measure 3
0000
0000
0000
0000
,  // measure 4
0000
0000
0000
0000
,  // measure 5
0000
0000
0000
0000
,  // measure 6
0000
0000
0000
0000
,  // measure 7
0000
0000
1000
0000
,  // measure 8
1000
0000
0001
0000
,  // measure 9
0001
0000
1000
0000
,  // measure 10
1000
0000
0001
0000
,  // measure 11
0001
0000
0000
0000
,  // measure 12
0000
0000
0000
0000
,  // measure 13
0000
0100
0000
0000
,  // measure 14
0000
0000
0000
0000
,  // measure 15
0000
0010
0000
0000
,  // measure 16
0000
0000
0000
0000
,  // measure 17
0000
0100
0000
0000
,  // measure 18
0000
0000
0000
0000
,  // measure 19
0000
0010
0000
0000
,  // measure 20
0000
0000
1000
0000
,  // measure 21
0000
0000
0001
0000
,  // measure 22
0000
0000
0100
0000
,  // measure 23
0000
0000
0001
0000
,  // measure 24
0000
0000
1000
0000
,  // measure 25
0000
0000
0001
0000
,  // measure 26
0000
1000
0000
0000
,  // measure 27
0000
0100
0000
0000
,  // measure 28
0000
1000
0000
0000
,  // measure 29
0000
0010
0000
0000
,  // measure 30
0000
0100
0000
0000
,  // measure 31
0000
0010
0000
0000
,  // measure 32
0000
0100
0000
0000
,  // measure 33
0000
0001
0000
0000
,  // measure 34
0000
0010
0000
0000
,  // measure 35
0000
0001
0000
0000
,  // measure 36
0000
0000
0000
0000
,  // measure 37
0000
1000
0000
0000
,  // measure 38
0000
0000
0000
0000
,  // measure 39
0000
0001
0000
0000
,  // measure 40
0000
0000
0000
0000
,  // measure 41
0000
1000
0000
0000
,  // measure 42
0000
0000
0000
0000
,  // measure 43
0000
0001
0000
0000
;
